osu file format v14

[General]
AudioFilename: audio.mp3
AudioLeadIn: 0
PreviewTime: 43027
Countdown: 0
SampleSet: Soft
StackLeniency: 0.7
Mode: 0
LetterboxInBreaks: 0
WidescreenStoryboard: 1

[Editor]
DistanceSpacing: 1.8
BeatDivisor: 4
GridSize: 32
TimelineZoom: 2.7

[Metadata]
Title:A Stirring of Memories
TitleUnicode:A Stirring of Memories
Artist:Gareth Coker
ArtistUnicode:Gareth Coker
Creator:rosario wknd
Version:Easy
Source:Ori and the Will of the Wisps
Tags:instrumental video game ost soundtrack classical
BeatmapID:3073301
BeatmapSetID:1499011

[Difficulty]
HPDrainRate:3
CircleSize:4.4
OverallDifficulty:3
ApproachRate:4
SliderMultiplier:1
SliderTickRate:1

[Events]
//Background and Video events
0,0,"rebirth.jpg",0,0
//Break Periods
2,15047,17528
2,23048,25528
2,32714,41790
2,52829,58589
2,71533,77712
2,88849,92577
2,114970,116577
//Storyboard Layer 0 (Background)
//Storyboard Layer 1 (Fail)
//Storyboard Layer 2 (Pass)
//Storyboard Layer 3 (Foreground)
//Storyboard Layer 4 (Overlay)
//Storyboard Sound Samples

[TimingPoints]
10848,666.666666666667,4,2,3,25,1,0
11181,-100,4,2,4,25,0,0
11514,-100,4,2,5,25,0,0
11848,-100,4,2,4,25,0,0
12181,-100,4,2,24,24,0,0
12514,-100,4,2,4,25,0,0
12848,-100,4,2,5,25,0,0
13181,-100,4,2,4,25,0,0
13514,-100,4,2,6,25,0,0
13848,-100,4,2,4,25,0,0
14181,-100,4,2,5,25,0,0
14514,-100,4,2,4,25,0,0
14847,-100,4,2,7,25,0,0
18848,-100,4,2,3,25,0,0
19181,-100,4,2,4,25,0,0
19514,-100,4,2,5,25,0,0
19848,-100,4,2,4,25,0,0
20181,-100,4,2,24,25,0,0
20514,-100,4,2,4,25,0,0
20848,-100,4,2,5,25,0,0
21181,-100,4,2,4,25,0,0
21514,-100,4,2,6,25,0,0
21848,-100,4,2,4,25,0,0
22181,-100,4,2,5,25,0,0
22514,-100,4,2,4,25,0,0
22847,-100,4,2,7,25,0,0
26848,-100,4,2,3,25,0,0
27181,-100,4,2,4,25,0,0
27514,-100,4,2,5,25,0,0
27848,-100,4,2,4,25,0,0
28181,-100,4,2,24,25,0,0
28514,-100,4,2,4,25,0,0
28848,-100,4,2,5,25,0,0
29181,-100,4,2,4,25,0,0
29514,-100,4,2,6,25,0,0
29848,-100,4,2,4,25,0,0
30181,-100,4,2,5,25,0,0
30514,-100,4,2,4,25,0,0
30847,-100,4,2,7,25,0,0
32181,-100,4,2,3,25,0,0
32514,-100,4,2,8,25,0,0
43110,594.059405940594,4,2,1,25,1,0
43407,-100,4,2,3,35,0,0
43700,594.059405940594,4,2,9,35,1,0
43968,594.059405940594,4,2,10,35,1,0
44593,594.059405940594,4,2,3,35,1,0
44851,594.059405940594,4,2,9,35,1,0
45471,594.059405940594,4,2,1,35,1,0
45789,594.059405940594,4,2,4,35,1,0
46039,594.059405940594,4,2,5,35,1,0
46340,594.059405940594,4,2,11,35,1,0
46640,594.059405940594,4,2,1,35,1,0
46937,-100,4,2,4,35,0,0
47243,594.059405940594,4,2,5,35,1,0
47547,594.059405940594,4,2,11,35,1,0
47870,594.059405940594,4,2,1,35,1,0
48251,594.059405940594,4,2,3,35,1,0
48548,-100,4,2,5,35,0,0
48796,594.059405940594,4,2,11,35,1,0
49403,594.059405940594,4,2,3,35,1,0
49700,-100,4,2,5,35,0,0
50054,594.059405940594,4,2,11,35,1,0
50423,594.059405940594,4,2,1,35,1,0
51573,603.015075376884,4,2,1,35,1,0
52629,594.059405940594,4,2,1,35,1,0
59909,594.059405940594,4,2,12,35,1,0
60187,594.059405940594,4,2,3,35,1,0
60477,594.059405940594,4,2,9,35,1,0
60721,594.059405940594,4,2,10,35,1,0
61030,594.059405940594,4,2,12,35,1,0
61307,594.059405940594,4,2,3,35,1,0
61581,594.059405940594,4,2,9,35,1,0
61841,594.059405940594,4,2,10,35,1,0
62138,-100,4,2,13,35,0,0
62461,594.059405940594,4,2,4,35,1,0
62729,594.059405940594,4,2,5,35,1,0
62974,594.059405940594,4,2,11,35,1,0
63271,-100,4,2,13,35,0,0
63589,594.059405940594,4,2,4,35,1,0
63886,-100,4,2,5,35,0,0
64503,594.059405940594,4,2,14,40,1,0
64800,-100,4,2,3,40,0,0
65118,594.059405940594,4,2,5,40,1,0
65368,594.059405940594,4,2,11,40,1,0
65665,-100,4,2,14,40,0,0
65908,594.059405940594,4,2,3,40,1,0
66165,594.059405940594,4,2,5,40,1,0
66462,-100,4,2,11,40,0,0
66759,-100,4,2,15,45,0,0
67056,-100,4,2,16,45,0,0
67304,594.059405940594,4,2,9,45,1,0
67601,-100,4,2,17,45,0,0
68223,594.059405940594,4,2,16,45,1,0
68556,594.059405940594,4,2,9,45,1,0
69189,594.059405940594,4,2,18,50,1,0
69486,-100,4,2,9,50,0,0
69783,-100,4,2,17,50,0,0
70067,594.059405940594,4,2,19,50,1,0
70413,594.059405940594,4,2,3,50,1,0
70689,594.059405940594,4,2,9,50,1,0
70986,-100,4,2,21,50,0,0
71333,594.059405940594,4,2,19,50,1,0
79032,594.059405940594,4,2,17,50,1,0
79374,594.059405940594,4,2,21,50,1,0
79643,594.059405940594,4,2,19,50,1,0
79887,594.059405940594,4,2,21,50,1,0
80128,594.059405940594,4,2,9,50,1,0
80407,594.059405940594,4,2,21,50,1,0
80682,594.059405940594,4,2,19,50,1,0
80952,594.059405940594,4,2,21,50,1,0
81249,-100,4,2,11,50,0,0
81578,594.059405940594,4,2,21,50,1,0
81918,594.059405940594,4,2,19,50,1,0
82215,-100,4,2,21,50,0,0
82512,-100,4,2,11,50,0,0
83748,594.059405940594,4,2,17,50,1,0
84045,-100,4,2,21,50,0,0
84289,594.059405940594,4,2,19,50,1,0
84556,594.059405940594,4,2,21,50,1,0
84838,594.059405940594,4,2,9,50,1,0
85152,594.059405940594,4,2,21,50,1,0
85434,594.059405940594,4,2,19,50,1,0
85716,594.059405940594,4,2,21,50,1,0
86048,594.059405940594,4,2,17,50,1,0
86376,594.059405940594,4,2,21,50,1,0
86658,594.059405940594,4,2,19,50,1,0
86937,594.059405940594,4,2,21,50,1,0
87279,594.059405940594,4,2,11,50,1,0
87633,594.059405940594,4,2,21,50,1,0
87947,594.059405940594,4,2,19,50,1,0
88266,594.059405940594,4,2,21,50,1,0
88649,594.059405940594,4,2,17,50,1,0
93897,666.666666666667,4,2,17,35,1,0
95563,-100,4,2,21,35,0,0
95897,-100,4,2,17,35,0,0
96230,-100,4,2,11,35,0,0
96563,-100,4,2,17,35,0,0
98230,-100,4,2,19,35,0,0
98563,-100,4,2,21,35,0,0
98897,-100,4,2,11,35,0,0
99230,-100,4,2,10,35,0,0
101230,-100,4,2,11,35,0,0
101897,-100,4,2,9,35,0,0
103897,-100,4,2,9,5,0,0
104563,-100,4,2,17,35,0,0
106229,-100,4,2,21,35,0,0
106563,-100,4,2,17,35,0,0
106896,-100,4,2,11,35,0,0
107230,-100,4,2,17,35,0,0
108897,-100,4,2,21,35,0,0
109230,-100,4,2,19,35,0,0
109563,-100,4,2,22,35,0,0
109897,-100,4,2,23,35,0,0
112230,-100,4,2,23,5,0,0
112563,-100,4,2,22,35,0,0
113897,-100,4,2,22,5,0,0
117897,-100,4,2,17,35,0,0
119563,-100,4,2,21,35,0,0
119897,-100,4,2,17,35,0,0
120230,-100,4,2,11,35,0,0
120563,-100,4,2,17,35,0,0
122230,-100,4,2,19,35,0,0
122563,-100,4,2,21,35,0,0
122897,-100,4,2,11,35,0,0
123230,-100,4,2,10,35,0,0
125230,-100,4,2,11,35,0,0
125897,-100,4,2,9,35,0,0
127897,-100,4,2,9,5,0,0
128563,-100,4,2,16,35,0,0
130230,-100,4,2,10,35,0,0
130563,-100,4,2,9,35,0,0
130897,-100,4,2,5,35,0,0
131230,-100,4,2,16,35,0,0
132563,-100,4,2,4,35,0,0
133897,-100,4,2,3,35,0,0
139230,-100,4,2,17,5,0,0

[Colours]
Combo1 : 255,128,64
Combo2 : 244,115,108

[HitObjects]
20,123,10847,6,0,P|82:103|139:93,1,100,2|2,0:0|0:0,0:0:0:0:
165,39,11847,1,2,0:0:0:0:
229,77,12181,2,0,P|318:100|350:118,1,100,2|2,0:0|0:0,0:0:0:0:
370,163,13181,1,2,0:0:0:0:
316,215,13514,2,0,P|270:236|267:293,2,100,2|2|2,0:0|0:0|0:0,0:0:0:0:
316,215,18848,6,0,P|353:202|421:190,1,100,2|2,0:0|0:0,0:0:0:0:
473,235,19848,1,2,0:0:0:0:
457,308,20181,2,0,P|418:345|364:324,1,100,2|2,0:0|0:0,0:0:0:0:
322,284,21181,1,2,0:0:0:0:
258,324,21514,2,0,P|205:313|141:301,1,100,2|2,0:0|0:0,0:0:0:0:
49,202,22848,1,2,0:0:0:0:
49,202,26848,6,0,P|102:184|145:175,1,100,2|2,0:0|0:0,0:0:0:0:
201,125,27848,1,2,0:0:0:0:
156,65,28181,2,0,P|93:49|58:35,1,100,2|2,0:0|0:0,0:0:0:0:
12,93,29181,1,2,0:0:0:0:
52,156,29514,2,0,P|56:208|8:234,2,100,2|2|2,0:0|0:0|0:0,0:0:0:0:
52,156,32181,2,0,P|78:147|116:141,1,50,2|2,0:0|0:0,0:0:0:0:
186,28,43110,6,0,P|200:76|219:128,1,99.4,0|2,0:0|0:0,0:0:0:0:
285,159,43968,1,2,0:0:0:0:
229,214,44265,2,0,P|169:220|149:259,1,98.9,0|2,0:0|0:0,0:0:0:0:
291,339,45471,6,0,P|342:321|400:308,1,95.9,0|2,0:0|0:0,0:0:0:0:
438,256,46336,1,2,0:0:0:0:
393,193,46640,2,0,P|416:131|429:81,1,101.8,0|2,0:0|0:0,0:0:0:0:
377,37,47547,1,2,0:0:0:0:
316,82,47870,6,0,P|255:80|231:30,1,114,0|2,0:0|0:0,0:0:0:0:
164,5,48796,1,2,0:0:0:0:
102,47,49093,1,0,0:0:0:0:
181,177,49700,1,2,0:0:0:0:
20,263,50423,6,0,B|100:282|104:314|105:350|206:367,1,193.6
187,362,52629,5,0,0:0:0:0:
353,384,59909,6,0,P|408:381|445:334,1,95.8,2|2,0:0|0:0,0:0:0:0:
398,290,60721,1,2,0:0:0:0:
449,237,61030,6,0,P|459:205|471:181,1,46.8,0|2,0:0|0:0,0:0:0:0:
434,124,61581,1,2,0:0:0:0:
324,35,62138,6,0,P|256:49|245:94,1,99.8,2|2,0:0|0:0,0:0:0:0:
282,135,62974,1,2,0:0:0:0:
244,199,63271,2,0,P|180:176|125:165,1,103.5,2|2,0:0|0:0,0:0:0:0:
63,293,64503,6,0,P|18:248|56:200,1,103.7,2|2,0:0|0:0,0:0:0:0:
89,167,65368,1,2,0:0:0:0:
52,104,65665,1,2,0:0:0:0:
153,29,66165,2,0,P|206:14|234:10,1,50,2|2,0:0|0:0,0:0:0:0:
258,58,66759,6,0,P|222:137|192:133,1,92,2|2,0:0|0:0,0:0:0:0:
166,166,67601,1,2,0:0:0:0:
181,238,67898,2,0,L|245:264,1,55,0|2,0:0|0:0,0:0:0:0:
302,235,68556,1,2,0:0:0:0:
431,328,69189,6,0,P|439:301|453:273,2,50,2|2|2,0:0|0:0|0:0,0:0:0:0:
366,366,70067,2,0,P|303:348|254:341,1,105,2|2,0:0|0:0,0:0:0:0:
216,284,70986,1,2,0:0:0:0:
145,317,71333,1,2,0:0:0:0:
45,380,79032,6,0,P|102:363|179:351,1,103,2|2,0:0|0:0,0:0:0:0:
187,294,79887,1,2,0:0:0:0:
137,239,80128,2,0,P|112:175|109:164,1,47,2|2,0:0|0:0,0:0:0:0:
161,137,80682,2,0,P|196:96|255:120,1,95.3,2|2,0:0|0:0,0:0:0:0:
300,132,81578,5,2,0:0:0:0:
358,88,81918,1,2,0:0:0:0:
493,151,82512,1,2,0:0:0:0:
493,151,83748,6,0,P|491:216|468:229,1,91.2,2|2,0:0|0:0,0:0:0:0:
406,201,84556,1,2,0:0:0:0:
346,241,84838,2,0,P|317:233|294:229,1,53,2|2,0:0|0:0,0:0:0:0:
242,180,85434,2,0,P|193:193|138:203,1,103.5,2|2,0:0|0:0,0:0:0:0:
24,303,86658,6,0,P|60:313|74:318,1,47,2|2,0:0|0:0,0:0:0:0:
132,361,87279,2,0,P|189:369|219:324,1,112.5,2|2,0:0|0:0,0:0:0:0:
218,329,88649,1,2,0:0:0:0:
322,46,93897,6,0,P|408:44|418:147,1,200,2|0,0:0|0:0,0:0:0:0:
376,197,95563,1,2,0:0:0:0:
420,257,95897,2,0,P|405:311|400:337,1,50,2|2,0:0|0:0,0:0:0:0:
342,343,96563,2,0,B|262:339|253:314|255:290|152:271,1,200,2|0,0:0|0:0,0:0:0:0:
91,306,98230,1,2,0:0:0:0:
34,257,98563,1,2,0:0:0:0:
173,201,99230,6,0,P|234:202|256:258,1,100,2|0,0:0|0:0,0:0:0:0:
326,209,100230,1,0,0:0:0:0:
365,145,100563,2,0,P|355:122|348:97,1,50
284,59,101230,1,2,0:0:0:0:
143,111,101897,2,0,B|32:81|116:10|-9:-37|-53:30|-20:130|71:71,1,300,2|0,0:0|0:0,0:0:0:0:
301,107,104563,6,0,B|213:126|213:157|204:192|95:201,1,200,2|0,0:0|0:0,0:0:0:0:
54,216,106230,1,2,0:0:0:0:
70,289,106563,2,0,P|52:337|46:360,1,50,2|2,0:0|0:0,0:0:0:0:
119,370,107230,2,0,P|184:374|218:312,1,100,2|0,0:0|0:0,0:0:0:0:
353,318,108563,1,0,0:0:0:0:
404,263,108897,2,0,P|466:288|471:290,2,50,2|2|2,0:0|0:0|0:0,0:0:0:0:
356,204,109897,6,0,B|375:113|401:102|450:120|453:-2,1,200,2|0,0:0|0:0,0:0:0:0:
306,88,111897,2,0,P|275:79|220:71,1,50
190,41,112563,2,0,P|110:14|73:109,1,200,2|0,0:0|0:0,0:0:0:0:
376,121,117897,6,0,P|466:161|432:242,1,200,2|0,0:0|0:0,0:0:0:0:
411,308,119563,2,0,P|427:331|442:359,2,50,2|2|2,0:0|0:0|0:0,0:0:0:0:
335,303,120563,2,0,B|262:277|245:307|216:329|129:291,1,200,2|0,0:0|0:0,0:0:0:0:
110,226,122230,1,2,0:0:0:0:
167,177,122563,1,2,0:0:0:0:
163,26,123230,6,0,P|100:4|65:115,1,200,2|0,0:0|0:0,0:0:0:0:
167,177,125230,6,0,P|152:212|143:242,1,50,2|0,0:0|0:0,0:0:0:0:
101,281,125897,2,0,B|31:199|-41:281|6:352|55:372|105:306|124:272|188:325|204:333,1,300,2|0,0:0|0:0,0:0:0:0:
299,370,128563,6,0,B|315:291|341:286|375:290|399:193,1,200,2|0,0:0|0:0,0:0:0:0:
452,150,130230,1,2,0:0:0:0:
408,89,130563,2,0,P|380:98|331:106,1,50,2|2,0:0|0:0,0:0:0:0:
299,146,131230,2,0,P|249:129|180:112,1,100,2|0,0:0|0:0,0:0:0:0:
65,175,132563,2,0,P|24:125|43:95,1,100,2|0,0:0|0:0,0:0:0:0:
174,41,133897,6,0,B|221:41|285:21|354:176|360:57|401:279|624:50|390:-161|221:-62|306:46|344:65|327:285|42:287|204:257|-26:79|191:109|127:75|219:68|274:171|317:156,1,800,2|0,0:0|0:0,0:0:0:0:
