osu file format v14

[General]
AudioFilename: boinglerspinkleproingus.mp3
AudioLeadIn: 0
PreviewTime: 196400
Countdown: 1
SampleSet: Normal
StackLeniency: 0.7
Mode: 1
LetterboxInBreaks: 0
WidescreenStoryboard: 0

[Editor]
DistanceSpacing: 2.6
BeatDivisor: 4
GridSize: 32
TimelineZoom: 6.000002

[Metadata]
Title:Rafflesia
TitleUnicode:Rafflesia
Artist:Gardens
ArtistUnicode:Gardens
Creator:5_5
Version:5_5 and Unagi's Flower of Death
Source:Expert Global Taiko Showdown 2022
Tags:EGTS2022 GTS TB RO64 round of 64 UnagiDon custom song egts 2022 OsuMe65 ensan71714 Palomar Soinge speedcore artcore DnB drum and & bass hardcore electronic instrumental note soup
BeatmapID:3921474
BeatmapSetID:1833491

[Difficulty]
HPDrainRate:5
CircleSize:5
OverallDifficulty:7
ApproachRate:7.3
SliderMultiplier:1.2
SliderTickRate:1

[Events]
//Background and Video events
0,0,"rafflesia - bg1080.png",0,0
//Break Periods
2,179891,187237
2,266219,273335
//Storyboard Layer 0 (Background)
//Storyboard Layer 1 (Fail)
//Storyboard Layer 2 (Pass)
//Storyboard Layer 3 (Foreground)
//Storyboard Layer 4 (Overlay)
//Storyboard Sound Samples

[TimingPoints]
2326,285.714285714286,4,1,0,55,1,0
2326,-35.7142857142857,4,1,0,55,0,0
3465.85714285714,-42.0168067226891,4,1,0,55,0,0
4608.71428571429,-51.0204081632653,4,1,0,55,0,0
5751.57142857143,-59.5238095238095,4,1,0,55,0,0
6894.42857142858,-71.4285714285714,4,1,0,55,0,0
8037.28571428572,-89.2857142857143,4,1,0,55,0,0
9752,-71.4285714285714,4,1,0,55,0,0
9966,-73.6377025036821,4,1,0,55,0,0
10038,-75.1879699248121,4,1,0,55,0,0
10180,-77.639751552795,4,1,0,55,0,0
10323,-54.9450549450549,4,1,0,55,0,0
10752,-59.5238095238095,4,1,0,55,0,0
11180,-64.9350649350649,4,1,0,55,0,0
11465.8571428572,-142.857142857143,4,1,0,55,0,0
20895,-141.576377802519,4,1,0,55,0,0
21038,-140.942436568513,4,1,0,55,0,0
21466,-139.070214537474,4,1,0,55,0,0
21751.5714285714,-137.83978001166,4,1,0,55,0,0
22323,-135.431255804642,4,1,0,55,0,0
22752,-133.66263972785,4,1,0,55,0,0
22894.4285714286,-133.080713707385,4,1,0,55,0,0
23752,-129.670562121436,4,1,0,55,0,0
24037.2857142857,-128.561215295511,4,1,0,55,0,0
24323,-127.469604125811,4,1,0,55,0,0
24609,-126.387819125749,4,1,0,55,0,0
24895,-125.319470845885,4,1,0,55,0,0
25180,-124.267987778555,4,1,0,55,0,0
25609,-122.709436335467,4,1,0,55,0,0
25752,-122.196270400806,4,1,0,55,0,0
26038,-121.179299431414,4,1,0,55,0,0
26323,-120.178121202156,4,1,0,55,0,0
26609,-119.185498710659,4,1,0,55,0,0
26894,-118.204759252726,4,1,0,55,0,0
27180,-117.239068722307,4,1,0,55,0,0
27465,-116.281453162659,4,1,0,55,0,0
27894,-114.866139949219,4,1,0,55,0,0
28037,-114.399903992957,4,1,0,55,0,0
28323,-113.478809542321,4,1,0,55,0,0
28608,-112.565200501318,4,1,0,55,0,0
28894,-111.662150928939,4,1,0,55,0,0
29180,-110.772591148555,4,1,0,55,0,0
29465,-109.89010989011,4,1,0,55,0,0
29608,-714.285714285714,4,1,0,55,0,0
29754,285.714285714286,4,1,0,55,1,8
31468.2857142857,285.714285714286,4,1,0,75,1,0
31468.2857142857,-95.238095238095,4,1,0,75,0,0
31469,285.714285714286,4,1,0,75,1,0
31469,-95.238095,4,1,0,75,0,0
31751,-94.04471330524,4,1,0,75,0,0
31894,-93.4529600407071,4,1,0,75,0,0
32037,-92.8658407695357,4,1,0,75,0,0
32323,-91.7053141778621,4,1,0,75,0,0
32466,-91.1318134295157,4,1,0,75,0,0
32751,-90.00204154066,4,1,0,75,0,0
32894,-89.4417168988043,4,1,0,75,0,0
33180,-88.3339652458579,4,1,0,75,0,0
33323,-87.7864519731836,4,1,0,75,0,0
33466,-87.2431238336943,4,1,0,75,0,0
33537,-86.97490140538,4,1,0,75,0,0
33608,-86.7076953223314,4,1,0,75,0,0
33751,-86.1725842346121,4,1,0,75,0,0
34037,-85.1145073756786,4,1,0,75,0,0
34180,-84.5914618341864,4,1,0,75,0,0
34251,-84.3332351498564,4,1,0,75,0,0
34323,-84.0723592221621,4,1,0,75,0,0
34608,-83.0493912069479,4,1,0,75,0,0
34751,-82.5418609719586,4,1,0,75,0,0
35037,-81.538138658875,4,1,0,75,0,0
35180,-81.0418736311364,4,1,0,75,0,0
35466,-80.0603568733671,4,1,0,75,0,0
35608,-79.5784162917886,4,1,0,75,0,0
35680,-79.3354022901864,4,1,0,75,0,0
35751,-79.0966475715243,4,1,0,75,0,0
35894,-78.618423204025,4,1,0,75,0,0
35966,-78.3789698157679,4,1,0,75,0,0
36037,-78.1437095609329,4,1,0,75,0,0
36180,-77.6724734271079,4,1,0,75,0,0
36323,-77.2046819942864,4,1,0,75,0,0
36466,-76.7403028548686,4,1,0,75,0,0
36608,-76.2825161007114,4,1,0,75,0,0
36751,-75.8248425892686,4,1,0,75,0,0
36823,-75.5956632510043,4,1,0,75,0,0
36894,-75.3704867090571,4,1,0,75,0,0
37037,-74.9194175925579,4,1,0,75,0,0
37180,-74.4716047435193,4,1,0,75,0,0
37323,-74.0270180313864,4,1,0,75,0,0
37466,-73.5856276858286,4,1,0,75,0,0
37608,-73.1504578620529,4,1,0,75,0,0
37751,-72.71535050965,4,1,0,75,0,0
37823,-72.4974541672079,4,1,0,75,0,0
37894,-72.2833525205921,4,1,0,75,0,0
38037,-71.85443551031,4,1,0,75,0,0
38180,-71.4285714285714,4,1,0,75,0,0
38323,-35.7142857142857,4,1,0,75,0,0
40608,-75.1879699248121,4,1,0,85,0,0
49751,-54.9450549450549,4,1,0,85,0,0
50180,-59.5238095238095,4,1,0,85,0,0
50608,-64.9350649350649,4,1,0,85,0,0
50894,-71.4285714285714,4,1,0,85,0,0
59466,-47.6190476190476,4,1,0,85,0,0
60037,-68.0272108843537,4,1,0,85,0,0
76037,-68.0272108843538,4,1,0,85,0,0
76108,-67.8294624879432,4,1,0,85,0,0
76180,-67.6294867515084,4,1,0,85,0,0
76251,-67.4328371977836,4,1,0,85,0,0
76323,-67.2339730207341,4,1,0,85,0,0
76394,-67.0384168712059,4,1,0,85,0,0
76466,-66.8406587481367,4,1,0,85,0,0
76537,-66.6461905834197,4,1,0,85,0,0
76608,-66.452260599526,4,1,0,85,0,0
76680,-66.2561474481562,4,1,0,85,0,0
76751,-66.0632973746941,4,1,0,85,0,0
76823,-65.8682766177234,4,1,0,85,0,0
76894,-65.6765010831241,4,1,0,85,0,0
76966,-65.4825672830591,4,1,0,85,0,0
77037,-65.2918609349526,4,1,0,85,0,0
77180,-64.9093661790199,4,1,0,85,0,0
77251,-64.7202499157972,4,1,0,85,0,0
77323,-64.5290061029155,4,1,0,85,0,0
77394,-64.3409457479194,4,1,0,85,0,0
77466,-64.1507700330211,4,1,0,85,0,0
77537,-63.9637603011868,4,1,0,85,0,0
77608,-63.7772702499376,4,1,0,85,0,0
77680,-63.5886829601071,4,1,0,85,0,0
77751,-63.4032356589491,4,1,0,85,0,0
77823,-63.2157031480746,4,1,0,85,0,0
77894,-63.0312933601429,4,1,0,85,0,0
77966,-62.8448103274029,4,1,0,85,0,0
78037,-62.6614328351677,4,1,0,85,0,0
78108,-62.4785659489744,4,1,0,85,0,0
78180,-62.293643604636,4,1,0,85,0,0
78251,-62.111801242236,4,1,0,85,0,0
78323,-59.5238095238095,4,1,0,85,0,0
78751,-57.1428571428571,4,1,0,85,0,0
79180,-54.9450549450549,4,1,0,85,0,0
79466,-52.9100529100529,4,1,0,85,0,0
79894,-47.6190476190476,4,1,0,85,0,0
80323,-62.1118012422361,4,1,0,85,0,0
80394,-63.2111251580279,4,1,0,85,0,0
80466,-64.9350649350649,4,1,0,85,0,0
80537,-66.1375661375661,4,1,0,85,0,0
80608,-59.5238095238095,4,1,0,85,0,0
81751.7142857143,-71.4285714285714,4,1,0,75,0,0
85466,-72.2634199376414,4,1,0,75,0,0
85751,-73.1050557559829,4,1,0,75,0,0
86037,-73.9594988112293,4,1,0,75,0,0
86323,-74.8239284936271,4,1,0,75,0,0
86608,-75.6953859799129,4,1,0,75,0,0
86894,-76.5801045017157,4,1,0,75,0,0
87037,-77.0263339230664,4,1,0,75,0,0
87180,-77.4751635066629,4,1,0,75,0,0
87323,-77.9266084035536,4,1,0,75,0,0
87466,-78.3806838530714,4,1,0,75,0,0
87751,-79.2935660700186,4,1,0,75,0,0
88037,-80.2203396857921,4,1,0,75,0,0
88323,-81.1579453195643,4,1,0,75,0,0
88608,-82.1031736769114,4,1,0,75,0,0
88894,-83.0627856467886,4,1,0,75,0,0
89180,-84.0336134453779,4,1,0,75,0,0
89754,292.682926829269,4,1,0,75,1,0
89754,-79.3650821428571,4,1,0,75,0,0
89897,-80.711,4,1,0,75,0,0
89970,-81.4012285714286,4,1,0,75,0,0
90043,-82.1033571428571,4,1,0,75,0,0
90190,-83.5546428571429,4,1,0,75,0,0
90339,300,4,1,0,75,1,8
90339,-82.9734214285714,4,1,0,75,0,0
90411,-83.7421471428571,4,1,0,75,0,0
90486,-84.52525,4,1,0,75,0,0
90636,-86.1362428571429,4,1,0,75,0,0
90786,-87.8098242857143,4,1,0,75,0,0
90861,-88.6712428571429,4,1,0,75,0,0
90939,307.692307692308,4,1,0,75,1,0
90939,-87.3109814285714,4,1,0,75,0,0
91089,-89.1120071428571,4,1,0,75,0,0
91243,-91.0014357142857,4,1,0,75,0,0
91320,-91.9765285714286,4,1,0,75,0,0
91397,-92.9727071428571,4,1,0,75,0,0
91554,315.789473684211,4,1,0,75,1,8
91554,-92.5946071428571,4,1,0,75,0,0
91629,-93.6448,4,1,0,75,0,0
91708,-94.7330142857143,4,1,0,75,0,0
91787,-95.8468285714286,4,1,0,75,0,0
91866,-96.9871428571429,4,1,0,75,0,0
92024,-99.3511428571429,4,1,0,75,0,0
92186,324.324324324325,4,1,0,75,1,0
92186,-97.8473581213307,4,1,0,75,0,0
92345,-93.0675978918843,4,1,0,75,0,0
92507,-89.5260547118129,4,1,0,75,0,0
92669,-86.1510282558943,4,1,0,75,0,0
92831,-82.9323726819179,4,1,0,75,0,0
92993,-79.8607347540814,4,1,0,75,0,0
93155,-76.9274778317614,4,1,0,75,0,0
93318,-74.1077021066179,4,1,0,75,0,0
93480,-71.4285714285714,4,1,0,75,0,0
93561,-72.7733933697879,4,1,0,75,0,0
93642,-74.1435349557536,4,1,0,75,0,0
93723,-75.5394728922629,4,1,0,75,0,0
93804,-76.9616928602907,4,1,0,75,0,0
93885,-78.4106896849743,4,1,0,75,0,0
93966,-79.8869675077736,4,1,0,75,0,0
94047,-81.3910399618764,4,1,0,75,0,0
94128,-82.9234303509043,4,1,0,75,0,0
94210,-84.504128975415,4,1,0,75,0,0
94291,-86.0951310701879,4,1,0,75,0,0
94372,-87.7160877683193,4,1,0,75,0,0
94453,-89.3675630403179,4,1,0,75,0,0
94534,-91.0501314748521,4,1,0,75,0,0
94615,-92.7643784786643,4,1,0,75,0,0
94777,-95.238095238095,4,1,0,85,0,0
105155,-95.238095,4,1,0,85,0,0
105237,-95.0145556544943,4,1,0,85,0,0
105318,-94.7943854767843,4,1,0,85,0,0
105399,-94.5748522152164,4,1,0,85,0,0
105480,-94.3559534414893,4,1,0,85,0,0
105642,-93.9200497047579,4,1,0,85,0,0
105723,-93.7030399453364,4,1,0,85,0,0
105804,-93.48665508077,4,1,0,85,0,0
105885,-93.2708927424957,4,1,0,85,0,0
105966,-93.0557505736771,4,1,0,85,0,0
106047,-92.8412262291321,4,1,0,85,0,0
106128,-92.6273173752593,4,1,0,85,0,0
106291,-92.1987149316271,4,1,0,85,0,0
106372,-91.9866461616614,4,1,0,85,0,0
106453,-91.7751836341829,4,1,0,85,0,0
106615,-91.3540682113814,4,1,0,85,0,0
106696,-91.1444107962364,4,1,0,85,0,0
106777,-90.9353505837986,4,1,0,85,0,0
106939,-90.51901284839,4,1,0,85,0,0
107020,-90.3117308932479,4,1,0,85,0,0
107182,-89.8989298084386,4,1,0,85,0,0
107264,-89.6908726239757,4,1,0,85,0,0
107345,-89.4859380980943,4,1,0,85,0,0
107426,-89.2815831904736,4,1,0,85,0,0
107588,-88.8746036524743,4,1,0,85,0,0
107669,-88.6719747591907,4,1,0,85,0,0
107750,-88.4699169582336,4,1,0,85,0,0
107831,-88.2684281437336,4,1,0,85,0,0
107912,-88.0675062199436,4,1,0,85,0,0
107993,-87.86714910118,4,1,0,85,0,0
108074,-87.66735471176,4,1,0,85,0,0
108237,-87.2669965708121,4,1,0,85,0,0
108318,-87.0688848728314,4,1,0,85,0,0
108480,-86.6743229514914,4,1,0,85,0,0
108561,-86.477868684885,4,1,0,85,0,0
108642,-86.2819628681793,4,1,0,85,0,0
108723,-86.0866035036971,4,1,0,85,0,0
108804,-85.8917886032379,4,1,0,85,0,0
108885,-85.6975161880229,4,1,0,85,0,0
109047,-85.3105909449679,4,1,0,85,0,0
109128,-85.11793420617,4,1,0,85,0,0
109210,-84.9234435861357,4,1,0,85,0,0
109291,-84.7318608061429,4,1,0,85,0,0
109372,-84.54080880975,4,1,0,85,0,0
109534,-84.1602895196757,4,1,0,85,0,0
109615,-83.9708184243571,4,1,0,85,0,0
109696,-83.78187050926,4,1,0,85,0,0
109777,-83.5934438957379,4,1,0,85,0,0
109858,-83.4055367139179,4,1,0,85,0,0
110020,-83.0312732094714,4,1,0,85,0,0
110101,-82.8449131905186,4,1,0,85,0,0
110182,-82.6590652105179,4,1,0,85,0,0
110345,-82.2866193940793,4,1,0,85,0,0
110426,-82.1023028470893,4,1,0,85,0,0
110507,-81.9184910604814,4,1,0,85,0,0
110588,-81.7351822412014,4,1,0,85,0,0
110669,-81.5523746044729,4,1,0,85,0,0
110750,-81.37006637375,4,1,0,85,0,0
110831,-81.1882557806714,4,1,0,85,0,0
110912,-81.0069410650093,4,1,0,85,0,0
111074,-80.6457922654264,4,1,0,85,0,0
111155,-80.4659547013107,4,1,0,85,0,0
111237,-80.2843949213486,4,1,0,85,0,0
111318,-80.1055394749186,4,1,0,85,0,0
111399,-79.9271694917064,4,1,0,85,0,0
111480,-79.7492832672386,4,1,0,85,0,0
111642,-79.3949553154529,4,1,0,85,0,0
111723,-79.2185102178621,4,1,0,85,0,0
111804,-79.0425421383821,4,1,0,85,0,0
111885,-78.8670494109514,4,1,0,85,0,0
111966,-78.6920303770564,4,1,0,85,0,0
112128,-78.3434067933286,4,1,0,85,0,0
112210,-78.167658579795,4,1,0,85,0,0
112372,-77.8218541958021,4,1,0,85,0,0
112453,-77.6496486289864,4,1,0,85,0,0
112534,-77.4779053342136,4,1,0,85,0,0
112615,-77.306622711955,4,1,0,85,0,0
112777,-76.9654331227079,4,1,0,85,0,0
112858,-76.7955229923829,4,1,0,85,0,0
112939,-76.62606720782,4,1,0,85,0,0
113020,-76.4570642049714,4,1,0,85,0,0
113101,-76.2885124267679,4,1,0,85,0,0
113182,-76.1204103230779,4,1,0,85,0,0
113264,-75.9506893424879,4,1,0,85,0,0
113426,-75.616730641915,4,1,0,85,0,0
113507,-75.4504173387407,4,1,0,85,0,0
113588,-75.2845460434864,4,1,0,85,0,0
113669,-75.1191152469314,4,1,0,85,0,0
113750,-74.9541234465314,4,1,0,85,0,0
113912,-74.6254508571493,4,1,0,85,0,0
114074,-74.2985163870343,4,1,0,85,0,0
114155,-74.1356972601936,4,1,0,85,0,0
114237,-73.9713061314657,4,1,0,85,0,0
114318,-73.8093510687364,4,1,0,85,0,0
114399,-73.647823199775,4,1,0,85,0,0
114439,-73.5682134767014,4,1,0,85,0,0
114480,-73.4867210805393,4,1,0,85,0,0
114561,-73.3260432733014,4,1,0,85,0,0
114642,-73.1657883466143,4,1,0,85,0,0
114723,-73.005954875275,4,1,0,85,0,0
114804,-72.846541440295,4,1,0,85,0,0
114885,-72.6875466288607,4,1,0,85,0,0
115047,-72.3708072560671,4,1,0,85,0,0
115210,-72.0537857528971,4,1,0,85,0,0
115372,-71.7403608134586,4,1,0,85,0,0
115534,-71.4285714285714,4,1,0,85,0,0
115615,-71.5530819071079,4,1,0,85,0,0
115696,-71.6778094256736,4,1,0,85,0,0
115750,-71.7610818693157,4,1,0,85,0,0
115804,-71.8444510555886,4,1,0,85,0,0
115858,-71.9279170968843,4,1,0,85,0,0
115939,-72.0532980081736,4,1,0,85,0,0
116020,-72.178897476785,4,1,0,85,0,0
116101,-72.3047158836957,4,1,0,85,0,0
116264,-72.5585711478736,4,1,0,85,0,0
116345,-72.6850513816907,4,1,0,85,0,0
116426,-72.81175208911,4,1,0,85,0,0
116507,-72.9386736544493,4,1,0,85,0,0
116669,-73.19318089951,4,1,0,85,0,0
116750,-73.3207673512214,4,1,0,85,0,0
116831,-73.448576204835,4,1,0,85,0,0
116912,-73.5766078480293,4,1,0,85,0,0
116993,-73.7048626691607,4,1,0,85,0,0
117155,-73.9620434020371,4,1,0,85,0,0
117237,-74.09256318503,4,1,0,85,0,0
117318,-74.2217173920043,4,1,0,85,0,0
117399,-74.3510967337079,4,1,0,85,0,0
117561,-74.6105323917593,4,1,0,85,0,0
117642,-74.7405894950457,4,1,0,85,0,0
117723,-74.8708733069436,4,1,0,85,0,0
117804,-75.0013842226371,4,1,0,85,0,0
117858,-75.0885178640086,4,1,0,85,0,0
117912,-75.1757527337971,4,1,0,85,0,0
117966,-75.2630889496071,4,1,0,85,0,0
118047,-75.3942835547043,4,1,0,85,0,0
118128,-75.5257068512443,4,1,0,85,0,0
118210,-75.6589860092443,4,1,0,85,0,0
118291,-75.7908707209943,4,1,0,85,0,0
118372,-75.9229853271436,4,1,0,85,0,0
118453,-76.0553302284336,4,1,0,85,0,0
118615,-76.3207125228843,4,1,0,85,0,0
118696,-76.4537507210229,4,1,0,85,0,0
118777,-76.5870208242571,4,1,0,85,0,0
118858,-76.7205232368314,4,1,0,85,0,0
118939,-76.8542583636964,4,1,0,85,0,0
119101,-77.1224283836229,4,1,0,85,0,0
119264,-77.3931981970721,4,1,0,85,0,0
119345,-77.5281058950736,4,1,0,85,0,0
119426,-77.6632487569829,4,1,0,85,0,0
119507,-77.7986271927271,4,1,0,85,0,0
119588,-77.9342416129436,4,1,0,85,0,0
119750,-78.2061800529379,4,1,0,85,0,0
119912,-78.4790673764214,4,1,0,85,0,0
119993,-78.6158679036986,4,1,0,85,0,0
120074,-78.7529068943636,4,1,0,85,0,0
120128,-78.8443989063764,4,1,0,85,0,0
120182,-78.9359972101893,4,1,0,85,0,0
120237,-79.029401169185,4,1,0,85,0,0
120318,-79.1671610089964,4,1,0,85,0,0
120399,-79.3051609844186,4,1,0,85,0,0
120480,-79.4434015140421,4,1,0,85,0,0
120561,-79.5818830171893,4,1,0,85,0,0
120642,-79.7206059139107,4,1,0,85,0,0
120723,-79.8595706249929,4,1,0,85,0,0
120885,-80.1382271770407,4,1,0,85,0,0
120966,-80.2779198632486,4,1,0,85,0,0
121047,-80.4178560543014,4,1,0,85,0,0
121210,-80.7001958138,4,1,0,85,0,0
121291,-80.8408680937821,4,1,0,85,0,0
121453,-81.12294871845,4,1,0,85,0,0
121534,-81.2643579187621,4,1,0,85,0,0
121615,-81.4060136160557,4,1,0,85,0,0
121696,-81.5479162400107,4,1,0,85,0,0
121777,-81.6900662210564,4,1,0,85,0,0
121858,-81.8324639903714,4,1,0,85,0,0
121912,-81.9275337100007,4,1,0,85,0,0
121966,-82.0227138778693,4,1,0,85,0,0
122020,-82.1180046222921,4,1,0,85,0,0
122183,-82.404541600265,4,1,0,85,0,0
122264,-82.5499597416864,4,1,0,85,0,0
122345,-82.693856431555,4,1,0,85,0,0
122507,-82.98240274765,4,1,0,85,0,0
122588,-83.1270532491164,4,1,0,85,0,0
122750,-83.4171111327114,4,1,0,85,0,0
122831,-83.562519394665,4,1,0,85,0,0
122912,-83.70818112455,4,1,0,85,0,0
122993,-83.8540967641986,4,1,0,85,0,0
123155,-84.1466915439671,4,1,0,85,0,0
123237,-84.295184033015,4,1,0,85,0,0
123318,-84.4421229048464,4,1,0,85,0,0
123372,-84.5402244229729,4,1,0,85,0,0
123426,-84.6384399115621,4,1,0,85,0,0
123480,-84.7367695030207,4,1,0,85,0,0
123561,-84.8844781231064,4,1,0,85,0,0
123642,-85.0324442209857,4,1,0,85,0,0
123804,-85.3291506461943,4,1,0,85,0,0
123885,-85.477891873515,4,1,0,85,0,0
123966,-85.626892378615,4,1,0,85,0,0
124047,-85.7761526134536,4,1,0,85,0,0
124128,-85.9256730307786,4,1,0,85,0,0
124291,-86.2273502334371,4,1,0,85,0,0
124453,-86.5282260823836,4,1,0,85,0,0
124534,-86.6790574740929,4,1,0,85,0,0
124615,-86.830151787045,4,1,0,85,0,0
124696,-86.9815094795507,4,1,0,85,0,0
124777,-87.1331310107179,4,1,0,85,0,0
124818,-87.2099784312614,4,1,0,85,0,0
124858,-87.2850168404564,4,1,0,85,0,0
124939,-87.4371674294786,4,1,0,85,0,0
125020,-87.5895832392971,4,1,0,85,0,0
125101,-87.7422647322321,4,1,0,85,0,0
125182,-87.8952123714071,4,1,0,85,0,0
125264,-88.0503198227043,4,1,0,85,0,0
125426,-88.3575566176993,4,1,0,85,0,0
125588,-88.6658654638621,4,1,0,85,0,0
125750,-88.9752501019357,4,1,0,85,0,0
125912,-89.2857142857143,4,1,0,85,0,0
125993,-89.074270685955,4,1,0,85,0,0
126074,-88.8634274933814,4,1,0,85,0,0
126155,-88.6531825321286,4,1,0,85,0,0
126236,-88.4435336365157,4,1,0,85,0,0
126317,-88.234478650985,4,1,0,85,0,0
126398,-88.0260154300414,4,1,0,85,0,0
126479,-87.8181418381957,4,1,0,85,0,0
126561,-87.608300324855,4,1,0,85,0,0
126642,-87.4016068382986,4,1,0,85,0,0
126723,-87.1954966078857,4,1,0,85,0,0
126804,-86.9899675376893,4,1,0,85,0,0
126885,-86.7850175414986,4,1,0,85,0,0
126966,-86.5806445427643,4,1,0,85,0,0
127047,-86.3768464745407,4,1,0,85,0,0
127128,-86.1736212794329,4,1,0,85,0,0
127210,-85.9684685622964,4,1,0,85,0,0
127291,-85.7663899885136,4,1,0,85,0,0
127372,-85.5648781474121,4,1,0,85,0,0
127453,-85.3639310193621,4,1,0,85,0,0
127534,-85.1635465940086,4,1,0,85,0,0
127615,-84.96372287022,4,1,0,85,0,0
127696,-84.7644578560357,4,1,0,85,0,0
127777,-84.5657495686129,4,1,0,85,0,0
127859,-84.3651531526771,4,1,0,85,0,0
127940,-84.1675592187686,4,1,0,85,0,0
128021,-83.9705160931936,4,1,0,85,0,0
128102,-83.7740218291729,4,1,0,85,0,0
128183,-83.5780744887886,4,1,0,85,0,0
128264,-83.3826721429329,4,1,0,85,0,0
128345,-83.1878128712571,4,1,0,85,0,0
128426,-82.9934947621221,4,1,0,85,0,0
128507,-82.7997159125507,4,1,0,85,0,0
128588,-82.6064744281771,4,1,0,85,0,0
128669,-82.4137684231986,4,1,0,85,0,0
128750,-82.2215960203271,4,1,0,85,0,0
128831,-82.02995535074,4,1,0,85,0,0
128912,-81.8388445540357,4,1,0,85,0,0
128993,-81.6482617781829,4,1,0,85,0,0
129074,-81.458205179475,4,1,0,85,0,0
129156,-81.2663362870443,4,1,0,85,0,0
129237,-81.0773329839829,4,1,0,85,0,0
129318,-80.8888503540221,4,1,0,85,0,0
129399,-80.7008865863886,4,1,0,85,0,0
129480,-80.5134398784029,4,1,0,85,0,0
129561,-80.3265084354336,4,1,0,85,0,0
129642,-80.1400904708536,4,1,0,85,0,0
129723,-79.9541842059921,4,1,0,85,0,0
129804,-79.7687878700943,4,1,0,85,0,0
129885,-79.5838997002764,4,1,0,85,0,0
129966,-79.3995179414793,4,1,0,85,0,0
130047,-79.2156408464286,4,1,0,85,0,0
130128,-79.03226667559,4,1,0,85,0,0
130209,-78.8493936971264,4,1,0,85,0,0
130290,-78.6670201868543,4,1,0,85,0,0
130371,-78.4851444282043,4,1,0,85,0,0
130453,-78.3015285490779,4,1,0,85,0,0
130534,-78.1206492665786,4,1,0,85,0,0
130615,-77.9402626103807,4,1,0,85,0,0
130696,-77.7603668940393,4,1,0,85,0,0
130777,-77.5809604385136,4,1,0,85,0,0
130858,-77.4020415721279,4,1,0,85,0,0
130939,-77.2236086305286,4,1,0,85,0,0
131020,-77.0456599566479,4,1,0,85,0,0
131101,-76.8681939006607,4,1,0,85,0,0
131263,-76.5147030790521,4,1,0,85,0,0
131425,-76.1631231104893,4,1,0,85,0,0
131507,-75.985887155505,4,1,0,85,0,0
131587,-75.8134410531586,4,1,0,85,0,0
131750,-75.4635030101,4,1,0,85,0,0
131831,-75.290313217925,4,1,0,85,0,0
131912,-75.117589915785,4,1,0,85,0,0
132074,-74.7735364979514,4,1,0,85,0,0
132236,-74.4313302569193,4,1,0,85,0,0
132399,-74.0888634143436,4,1,0,85,0,0
132480,-73.9193675022143,4,1,0,85,0,0
132561,-73.7503256684014,4,1,0,85,0,0
132723,-73.4135981651964,4,1,0,85,0,0
132885,-73.0786688284614,4,1,0,85,0,0
133048,-72.7434747679179,4,1,0,85,0,0
133129,-72.5775747717314,4,1,0,85,0,0
133210,-72.4121168616957,4,1,0,85,0,0
133291,-72.247099569665,4,1,0,85,0,0
133372,-72.0825214337222,4,1,0,85,0,0
133534,-71.7546768133629,4,1,0,85,0,0
133696,-64.9350649350649,4,1,0,85,0,0
134020,-68.0272108843537,4,1,0,85,0,0
134182,-59.5238095238095,4,1,0,85,0,0
134507,-64.9350649350649,4,1,0,85,0,0
134669,-54.9450549450549,4,1,0,85,0,0
134993,-62.1118012422361,4,1,0,85,0,0
135155,-51.0204081632653,4,1,0,85,0,0
135642,-47.6190476190476,4,1,0,85,0,0
135885,-49.2610837438424,4,1,0,85,0,0
136128,-51.0204081632653,4,1,0,85,0,0
136291,-54.525627044711,4,1,0,85,0,0
136618,324.324324324325,4,1,0,85,1,8
136618,-84.0336142857143,4,1,0,85,0,0
136696,-83.4480142857143,4,1,0,85,0,0
136777,-82.8705321428571,4,1,0,85,0,0
136858,-82.3009821428571,4,1,0,85,0,0
136942,322.580645161291,4,1,0,85,1,8
136942,-82.1810314285714,4,1,0,85,0,0
137019,-81.6307071428571,4,1,0,85,0,0
137100,-81.0809714285714,4,1,0,85,0,0
137180,-80.5452357142857,4,1,0,85,0,0
137264,320.855614973262,4,1,0,85,1,8
137264,-80.4401357142857,4,1,0,85,0,0
137341,-79.9156,4,1,0,85,0,0
137421,-79.3978828571429,4,1,0,85,0,0
137500,-78.8868142857143,4,1,0,85,0,0
137584,319.148936170213,4,1,0,85,1,0
137584,-78.8014428571429,4,1,0,85,0,0
137660,-78.3068857142857,4,1,0,85,0,0
137740,-77.8123528571429,4,1,0,85,0,0
137820,-77.3240285714286,4,1,0,85,0,0
137903,317.460317460318,4,1,0,85,1,8
137903,-77.2505242857143,4,1,0,85,0,0
137979,-76.7776857142857,4,1,0,85,0,0
138058,-76.3106,4,1,0,85,0,0
138138,-75.8433571428571,4,1,0,85,0,0
138220,315.789473684211,4,1,0,85,1,8
138220,-75.7864107142857,4,1,0,85,0,0
138295,-75.33935,4,1,0,85,0,0
138374,-74.8919,4,1,0,85,0,0
138453,-74.4497357142857,4,1,0,85,0,0
138535,314.136125654451,4,1,0,85,1,8
138535,-74.4022928571429,4,1,0,85,0,0
138610,-73.9736071428571,4,1,0,85,0,0
138689,-73.5444314285714,4,1,0,85,0,0
138767,-73.1255571428571,4,1,0,85,0,0
138849,310.880829015544,4,1,0,85,1,0
138849,-73.4674642857143,4,1,0,85,0,0
139159,309.278350515464,4,1,0,85,1,8
139159,-72.2226214285714,4,1,0,85,0,0
139233,-71.8299,4,1,0,85,0,0
139310,-71.4414357142857,4,1,0,85,0,0
139387,-71.05714,4,1,0,85,0,0
139468,307.692307692308,4,1,0,85,1,8
139468,-71.0363357142857,4,1,0,85,0,0
139541,-70.6632,4,1,0,85,0,0
139618,-70.2891285714286,4,1,0,85,0,0
139695,-69.9190028571429,4,1,0,85,0,0
139775,306.122448979592,4,1,0,85,1,8
139775,-69.9094428571429,4,1,0,85,0,0
139848,-69.54986,4,1,0,85,0,0
139925,-69.1892928571429,4,1,0,85,0,0
140001,-68.83705,4,1,0,85,0,0
140081,304.568527918782,4,1,0,85,1,0
140081,-68.8332257142857,4,1,0,85,0,0
140154,-68.4863571428571,4,1,0,85,0,0
140230,-68.1429671428571,4,1,0,85,0,0
140306,-67.8030071428571,4,1,0,85,0,0
140385,303.030303030303,4,1,0,85,1,8
140385,-67.8088928571429,4,1,0,85,0,0
140457,-67.4783285714286,4,1,0,85,0,0
140533,-67.1466171428571,4,1,0,85,0,0
140609,-66.8181642857143,4,1,0,85,0,0
140688,301.507537688443,4,1,0,85,1,8
140688,-66.8287285714286,4,1,0,85,0,0
140760,-66.509225,4,1,0,85,0,0
140835,-66.1927685714286,4,1,0,85,0,0
140911,-65.87515,4,1,0,85,0,0
140986,-65.5646857142857,4,1,0,85,0,0
141061,-65.2571321428571,4,1,0,85,0,0
141137,-64.9484071428572,4,1,0,85,0,0
141291,300,4,1,0,85,1,0
141291,-71.4285714285714,4,1,0,85,0,0
141363,-70.0050058697388,4,1,0,85,0,0
141438,-69.8104741302112,4,1,0,85,0,0
141588,-69.4230028197833,4,1,0,85,0,0
141663,-69.2300604554812,4,1,0,85,0,0
141738,-69.0376450951664,4,1,0,85,0,0
141813,-68.8457553505988,4,1,0,85,0,0
141888,-68.6543898369109,4,1,0,85,0,0
141938,-68.5271033848019,4,1,0,85,0,0
141988,-68.4000489016209,4,1,0,85,0,0
142038,-68.2732259795266,4,1,0,85,0,0
142113,-68.0834248828979,4,1,0,85,0,0
142188,-67.8941425112714,4,1,0,85,0,0
142338,-67.5171284739408,4,1,0,85,0,0
142488,-67.1421729626572,4,1,0,85,0,0
142538,-67.017643365323,4,1,0,85,0,0
142588,-66.8933408863094,4,1,0,85,0,0
142638,-66.7692651256598,4,1,0,85,0,0
142713,-66.5835757083156,4,1,0,85,0,0
142788,-66.3983941640944,4,1,0,85,0,0
142863,-66.2137191513719,4,1,0,85,0,0
142938,-66.0295493318039,4,1,0,85,0,0
143013,-65.8458833703202,4,1,0,85,0,0
143088,-65.6627199351183,4,1,0,85,0,0
143163,-65.4800576976561,4,1,0,85,0,0
143238,-65.2978953326461,4,1,0,85,0,0
143388,-64.9350649350649,4,1,0,85,0,0
143463,-65.4083433059171,4,1,0,85,0,0
143538,-65.8847211668917,4,1,0,85,0,0
143688,-66.8468361082164,4,1,0,85,0,0
143738,-67.1703306886641,4,1,0,85,0,0
143788,-67.495227566693,4,1,0,85,0,0
143838,-67.8215312396224,4,1,0,85,0,0
143913,-68.3136343246652,4,1,0,85,0,0
143988,-68.8089279838786,4,1,0,85,0,0
144063,-69.3074273789109,4,1,0,85,0,0
144138,-69.8091476622705,4,1,0,85,0,0
144213,-70.3141039758934,4,1,0,85,0,0
144288,-70.8223114496909,4,1,0,85,0,0
144363,-71.3337852000775,4,1,0,85,0,0
144438,-71.8485403284793,4,1,0,85,0,0
144513,-72.3665919198229,4,1,0,85,0,0
144588,-72.8879550410036,4,1,0,85,0,0
144663,-73.4126447393321,4,1,0,85,0,0
144738,-73.9406760409693,4,1,0,85,0,0
144813,-74.4720639493264,4,1,0,85,0,0
144888,-75.0068234434621,4,1,0,85,0,0
144963,-75.544969476445,4,1,0,85,0,0
145038,-76.0865169737043,4,1,0,85,0,0
145113,-76.6314808313586,4,1,0,85,0,0
145188,-77.179875914525,4,1,0,85,0,0
145263,-77.7317170556029,4,1,0,85,0,0
145338,-78.2870190525457,4,1,0,85,0,0
145413,-78.8457966671086,4,1,0,85,0,0
145488,-79.4080646230714,4,1,0,85,0,0
145638,-80.5431302536829,4,1,0,85,0,0
145688,-80.9246212687729,4,1,0,85,0,0
145738,-81.3076873846107,4,1,0,85,0,0
145788,-81.6923329065471,4,1,0,85,0,0
145938,-82.8557888194221,4,1,0,85,0,0
146088,-57.1428571428571,4,1,0,85,0,0
146388,-62.111801242236,4,1,0,85,0,0
146438,-63.1898890180499,4,1,0,85,0,0
146488,-64.2837843493911,4,1,0,85,0,0
146538,-65.3936179716991,4,1,0,85,0,0
146613,-67.0885324670163,4,1,0,85,0,0
146688,-68.8200173702439,4,1,0,85,0,0
146838,-72.3943095976886,4,1,0,85,0,0
146988,-76.1195517424793,4,1,0,85,0,0
147138,-79.9985088328671,4,1,0,85,0,0
147288,-62.1118012422361,4,1,0,85,0,0
147588,-71.4285714285714,4,1,0,85,0,0
147888,-79.3650793650793,4,1,0,85,0,0
147963,-77.3830521838343,4,1,0,85,0,0
148038,-75.4552292179229,4,1,0,85,0,0
148088,-74.1992786593286,4,1,0,85,0,0
148138,-72.9661648596071,4,1,0,85,0,0
148188,-71.7554090642457,4,1,0,85,0,0
148338,-68.2526819521766,4,1,0,85,0,0
148488,-64.9350649350649,4,1,0,85,0,0
148938,-65.359477124183,4,1,0,85,0,0
148975,-65.646143850914,4,1,0,85,0,0
149088,-69.3074273789109,4,1,0,85,0,0
149125,-70.0612203693806,4,1,0,85,0,0
149238,-73.9406760409693,4,1,0,85,0,0
149275,-74.7390213129771,4,1,0,85,0,0
149388,-78.8457966671086,4,1,0,85,0,0
149425,-79.6905120694357,4,1,0,85,0,0
149538,-84.0336134453779,4,1,0,85,0,0
149575,-85.4700854700855,4,1,0,85,0,0
149688,-89.2857142857143,4,1,0,85,0,0
149763,-87.4778802528157,4,1,0,85,0,0
149838,-85.7136788003971,4,1,0,85,0,0
149913,-83.9917778796836,4,1,0,85,0,0
149988,-82.3108974551686,4,1,0,85,0,0
150063,-80.6698069885329,4,1,0,85,0,0
150138,-79.0673230674907,4,1,0,85,0,0
150188,-78.0198845183421,4,1,0,85,0,0
150238,-76.9887708505771,4,1,0,85,0,0
150288,-75.9736635543729,4,1,0,85,0,0
150438,-73.0213122688421,4,1,0,85,0,0
150475,-72.5424228785307,4,1,0,85,0,0
150588,-70.2022859245258,4,1,0,85,0,0
150625,-69.7448818372567,4,1,0,85,0,0
150738,-67.5091691609624,4,1,0,85,0,0
150775,-67.0720661365965,4,1,0,85,0,0
150888,-64.9350649350649,4,1,0,85,0,0
151188,-62.111801242236,4,1,0,85,0,0
151238,-62.7567644032866,4,1,0,85,0,0
151288,-63.4073992613588,4,1,0,85,0,0
151338,-64.0637343681445,4,1,0,85,0,0
151413,-65.0589866850291,4,1,0,85,0,0
151488,-66.0672219747673,4,1,0,85,0,0
151638,-68.1230085868063,4,1,0,85,0,0
151788,-70.2318098440451,4,1,0,85,0,0
151938,-72.3943095976886,4,1,0,85,0,0
152088,-74.6111569258429,4,1,0,85,0,0
152238,-76.8829630751279,4,1,0,85,0,0
152388,-79.2102983363921,4,1,0,85,0,0
152538,-81.5936888635236,4,1,0,85,0,0
152688,-84.0336114285714,4,1,0,85,0,0
152763,-83.9853657142857,4,1,0,85,0,0
152838,-83.6491935714286,4,1,0,85,0,0
152913,-82.7501471428571,4,1,0,85,0,0
152988,-81.0536957142857,4,1,0,85,0,0
153063,-78.4037464285714,4,1,0,85,0,0
153138,-74.75762,4,1,0,85,0,0
153213,-70.2014164285714,4,1,0,85,0,0
153288,-59.5238095238095,4,1,0,85,0,0
153738,-64.9350649350649,4,1,0,85,0,0
153775,-65.6175668094289,4,1,0,85,0,0
153888,-69.1275973414767,4,1,0,85,0,0
153925,-69.8494248809252,4,1,0,85,0,0
154038,-73.5601560244764,4,1,0,85,0,0
154075,-74.3229361228929,4,1,0,85,0,0
154188,-78.2424671853893,4,1,0,85,0,0
154225,-79.0478102761979,4,1,0,85,0,0
154338,-83.1841264032264,4,1,0,85,0,0
154375,-84.0336134453779,4,1,0,85,0,0
154488,-84.0336114285714,4,1,0,85,0,0
154563,-79.9776135714286,4,1,0,85,0,0
154638,-76.7561021428571,4,1,0,85,0,0
154713,-74.2151142857143,4,1,0,85,0,0
154788,-72.2455071428571,4,1,0,85,0,0
154863,-70.7698007142857,4,1,0,85,0,0
154938,-69.7338714285714,4,1,0,85,0,0
155088,-68.8519964285714,4,1,0,85,0,0
155163,-68.9766107142857,4,1,0,85,0,0
155238,-69.47961,4,1,0,85,0,0
155313,-70.3777392857143,4,1,0,85,0,0
155388,-71.7018178571429,4,1,0,85,0,0
155463,-73.4994721428571,4,1,0,85,0,0
155538,-75.8396492857143,4,1,0,85,0,0
155613,-78.8197671428571,4,1,0,85,0,0
155691,-64.9350649350649,4,1,0,85,0,0
155988,-62.111801242236,4,1,0,85,0,0
156038,-62.8287765566596,4,1,0,85,0,0
156088,-63.5527578939668,4,1,0,85,0,0
156138,-64.2837843493911,4,1,0,85,0,0
156213,-65.3936179716991,4,1,0,85,0,0
156288,-66.5195181087807,4,1,0,85,0,0
156438,-68.8200173702439,4,1,0,85,0,0
156588,-71.1862519810055,4,1,0,85,0,0
156738,-73.6191418296907,4,1,0,85,0,0
156888,-76.1195517424793,4,1,0,85,0,0
157038,-78.6882862468071,4,1,0,85,0,0
157188,-81.3260842203457,4,1,0,85,0,0
157338,-84.0336134453779,4,1,0,85,0,0
157488,-84.0336114285714,4,1,0,85,0,0
157538,-84.0193107142857,4,1,0,85,0,0
157588,-83.9193421428571,4,1,0,85,0,0
157638,-83.6491935714286,4,1,0,85,0,0
157713,-82.7501471428571,4,1,0,85,0,0
157788,-81.0536957142857,4,1,0,85,0,0
157863,-78.4037464285714,4,1,0,85,0,0
157938,-74.7576192857143,4,1,0,85,0,0
158013,-70.201415,4,1,0,85,0,0
158088,-57.1428571428571,4,1,0,85,0,0
158538,-64.9350649350649,4,1,0,85,0,0
158575,-65.6175668094289,4,1,0,85,0,0
158688,-69.1275973414767,4,1,0,85,0,0
158725,-69.8494248809252,4,1,0,85,0,0
158838,-73.5601560244764,4,1,0,85,0,0
158875,-74.3229361228929,4,1,0,85,0,0
158988,-78.2424671853893,4,1,0,85,0,0
159025,-79.0478102761979,4,1,0,85,0,0
159138,-83.1841264032264,4,1,0,85,0,0
159175,-84.0336134453779,4,1,0,85,0,0
159288,-84.0336114285714,4,1,0,85,0,0
159363,-83.9853657142857,4,1,0,85,0,0
159438,-83.6491935714286,4,1,0,85,0,0
159513,-82.7501471428571,4,1,0,85,0,0
159588,-81.0536957142857,4,1,0,85,0,0
159663,-78.4037464285714,4,1,0,85,0,0
159738,-74.75762,4,1,0,85,0,0
159813,-70.2014164285714,4,1,0,85,0,0
159888,-59.5238095238095,4,1,0,85,0,0
160188,-64.9350649350649,4,1,0,85,0,0
160488,-95.238095238095,4,1,0,85,0,0
160563,-95.1274893015257,4,1,0,85,0,0
160638,-95.0170438573807,4,1,0,85,0,0
160713,-94.9067585984607,4,1,0,85,0,0
160863,-94.6866674113393,4,1,0,85,0,0
160938,-94.5768608725736,4,1,0,85,0,0
161088,-94.3577243839393,4,1,0,85,0,0
161238,-94.1392213284243,4,1,0,85,0,0
161313,-94.0302065838879,4,1,0,85,0,0
161388,-93.921349294095,4,1,0,85,0,0
161538,-93.704105881015,4,1,0,85,0,0
161688,-93.4874887011729,4,1,0,85,0,0
161763,-93.379414205705,4,1,0,85,0,0
161913,-93.1637319241014,4,1,0,85,0,0
161988,-93.056123548335,4,1,0,85,0,0
162063,-92.94866995739,4,1,0,85,0,0
162138,-92.8413708582729,4,1,0,85,0,0
162288,-92.6272349671707,4,1,0,85,0,0
162513,-92.3071825359486,4,1,0,85,0,0
162588,-92.2008042753693,4,1,0,85,0,0
162738,-91.9885048500807,4,1,0,85,0,0
162888,-91.7768129744314,4,1,0,85,0,0
163113,-91.4604093234293,4,1,0,85,0,0
163188,-91.3552427474079,4,1,0,85,0,0
163263,-91.25022635404,4,1,0,85,0,0
163338,-91.1453598616629,4,1,0,85,0,0
163488,-90.9360754566771,4,1,0,85,0,0
163563,-90.8316569841843,4,1,0,85,0,0
163638,-90.7273872929093,4,1,0,85,0,0
163788,-90.5192931417514,4,1,0,85,0,0
163863,-90.4154681274357,4,1,0,85,0,0
163938,-90.3117907854657,4,1,0,85,0,0
164088,-90.1048780171171,4,1,0,85,0,0
164163,-90.0016420416893,4,1,0,85,0,0
164238,-89.8985526405057,4,1,0,85,0,0
164313,-89.79560954071,4,1,0,85,0,0
164463,-89.59016115716,4,1,0,85,0,0
164538,-89.4876553309964,4,1,0,85,0,0
164688,-89.2830790587986,4,1,0,85,0,0
164988,-88.8756605099564,4,1,0,85,0,0
165288,-88.4705397169857,4,1,0,85,0,0
165363,-88.3696165541229,4,1,0,85,0,0
165438,-88.2688356782136,4,1,0,85,0,0
165513,-88.1681968267679,4,1,0,85,0,0
165663,-87.9673441504679,4,1,0,85,0,0
165738,-87.8671298037857,4,1,0,85,0,0
165813,-87.7670564379086,4,1,0,85,0,0
165888,-87.667123793485,4,1,0,85,0,0
166038,-87.4676796347086,4,1,0,85,0,0
166113,-87.3681676047586,4,1,0,85,0,0
166338,-87.0704686320221,4,1,0,85,0,0
166413,-86.971513827995,4,1,0,85,0,0
166488,-86.87269769286,4,1,0,85,0,0
166563,-86.7740199727993,4,1,0,85,0,0
166713,-86.5770787656564,4,1,0,85,0,0
166788,-86.4788147739593,4,1,0,85,0,0
166938,-86.2826987572764,4,1,0,85,0,0
167013,-86.1848462312721,4,1,0,85,0,0
167088,-86.0871303604714,4,1,0,85,0,0
167163,-85.9895508958507,4,1,0,85,0,0
167238,-85.8921075889779,4,1,0,85,0,0
167538,-85.5036909909086,4,1,0,85,0,0
167613,-85.4069247668579,4,1,0,85,0,0
167688,-85.3102932222786,4,1,0,85,0,0
167838,-85.1174331947421,4,1,0,85,0,0
167913,-85.0212042248307,4,1,0,85,0,0
168063,-84.8291471596421,4,1,0,85,0,0
168138,-84.7333185808493,4,1,0,85,0,0
168213,-84.6376229831964,4,1,0,85,0,0
168288,-84.5420601263479,4,1,0,85,0,0
168438,-84.3513316765429,4,1,0,85,0,0
168513,-84.256165605735,4,1,0,85,0,0
168738,-83.9714571543543,4,1,0,85,0,0
168888,-83.7823072860086,4,1,0,85,0,0
168963,-83.6879283740321,4,1,0,85,0,0
169188,-83.405572911475,4,1,0,85,0,0
169338,-83.2179846623586,4,1,0,85,0,0
169413,-83.1243844578714,4,1,0,85,0,0
169638,-82.8443567485057,4,1,0,85,0,0
169713,-82.7512710453936,4,1,0,85,0,0
169788,-82.65831339295,4,1,0,85,0,0
169863,-82.5654835623729,4,1,0,85,0,0
169938,-82.4727813253936,4,1,0,85,0,0
170013,-82.3802064542721,4,1,0,85,0,0
170088,-82.2877587217979,4,1,0,85,0,0
170313,-82.0111760920571,4,1,0,85,0,0
170463,-81.8274192235971,4,1,0,85,0,0
170538,-81.7357295810057,4,1,0,85,0,0
170688,-81.55272676134,4,1,0,85,0,0
170838,-81.3702244113664,4,1,0,85,0,0
170913,-81.2791603578171,4,1,0,85,0,0
170988,-81.1882207570771,4,1,0,85,0,0
171138,-81.0067140326336,4,1,0,85,0,0
171288,-80.8257024803207,4,1,0,85,0,0
171363,-80.7353818466379,4,1,0,85,0,0
171513,-80.5551097744614,4,1,0,85,0,0
171588,-80.4651579015664,4,1,0,85,0,0
171738,-80.2856213998936,4,1,0,85,0,0
171813,-80.1960363396943,4,1,0,85,0,0
171888,-80.1065731197957,4,1,0,85,0,0
172113,-79.8389123595814,4,1,0,85,0,0
172263,-79.6610771352379,4,1,0,85,0,0
172338,-79.5723404702314,4,1,0,85,0,0
172488,-79.3952279767693,4,1,0,85,0,0
172638,-79.2185951939543,4,1,0,85,0,0
172713,-79.1304581690536,4,1,0,85,0,0
172938,-78.8667620518964,4,1,0,85,0,0
173013,-78.7791009713257,4,1,0,85,0,0
173088,-78.6915583574943,4,1,0,85,0,0
173163,-78.6041340036057,4,1,0,85,0,0
173238,-78.5168277033336,4,1,0,85,0,0
173388,-78.3425684406636,4,1,0,85,0,0
173463,-78.2556150679436,4,1,0,85,0,0
173538,-78.1687789281914,4,1,0,85,0,0
173613,-78.0820598174021,4,1,0,85,0,0
173688,-77.9954575320343,4,1,0,85,0,0
173838,-77.8226026256829,4,1,0,85,0,0
173913,-77.736349599905,4,1,0,85,0,0
174063,-77.5641913945779,4,1,0,85,0,0
174138,-77.4782858129636,4,1,0,85,0,0
174288,-77.30682069006,4,1,0,85,0,0
174588,-76.9652690239357,4,1,0,85,0,0
174888,-76.6255448978357,4,1,0,85,0,0
175038,-76.4563642265357,4,1,0,85,0,0
175113,-76.3719435542971,4,1,0,85,0,0
175263,-76.2034405636586,4,1,0,85,0,0
175338,-76.1193578573671,4,1,0,85,0,0
175413,-76.0353874192207,4,1,0,85,0,0
175488,-75.9515290563529,4,1,0,85,0,0
175713,-75.700624497185,4,1,0,85,0,0
175863,-75.5339116508457,4,1,0,85,0,0
175938,-75.4507217134121,4,1,0,85,0,0
176163,-75.2018155666907,4,1,0,85,0,0
176238,-75.1190674428271,4,1,0,85,0,0
176388,-74.9539009527921,4,1,0,85,0,0
176538,-74.7891728898121,4,1,0,85,0,0
176613,-74.7069728013214,4,1,0,85,0,0
176838,-74.4610260754336,4,1,0,85,0,0
177138,-74.1346151262136,4,1,0,85,0,0
177213,-74.0532822363636,4,1,0,85,0,0
177288,-73.9720569191264,4,1,0,85,0,0
177438,-73.8099282729721,4,1,0,85,0,0
177513,-73.7290245802957,4,1,0,85,0,0
177738,-73.4869538496814,4,1,0,85,0,0
177813,-73.4064764536564,4,1,0,85,0,0
177888,-73.3261051815614,4,1,0,85,0,0
178038,-73.1656802923379,4,1,0,85,0,0
178113,-73.0856263177729,4,1,0,85,0,0
178263,-72.9258344180771,4,1,0,85,0,0
178338,-72.8460961378471,4,1,0,85,0,0
178488,-72.6869340317757,4,1,0,85,0,0
178563,-72.6075098531536,4,1,0,85,0,0
178713,-72.4489743656586,4,1,0,85,0,0
178788,-72.3698627063014,4,1,0,85,0,0
178863,-72.2908548701843,4,1,0,85,0,0
178938,-72.211950683015,4,1,0,85,0,0
179013,-72.1331499708814,4,1,0,85,0,0
179088,-72.0544525602464,4,1,0,85,0,0
179163,-71.9758582779514,4,1,0,85,0,0
179688,-142.857142857143,4,1,0,85,0,0
188091,292.682926829268,4,1,0,75,1,0
188091,-142.857142857143,4,1,0,75,0,0
188234,-137.362642857143,4,1,0,75,0,0
188383,285.714285714286,4,1,0,75,1,8
188383,-135.297242857143,4,1,0,75,0,0
188522,-130.415378571429,4,1,0,75,0,0
188668,279.069767441861,4,1,0,75,1,8
188668,-128.83895,4,1,0,75,0,0
188804,-124.592614285714,4,1,0,75,0,0
188947,272.727272727273,4,1,0,75,1,8
188947,-123.393978571429,4,1,0,75,0,0
189080,-119.659271428571,4,1,0,75,0,0
189219,266.666666666667,4,1,0,75,1,0
189219,-118.783657142857,4,1,0,75,0,0
189483,-116.70190367129,4,1,0,75,0,0
189617,-115.544619423844,4,1,0,75,0,0
189750,-114.411717373044,4,1,0,75,0,0
190017,-112.183549554474,4,1,0,75,0,0
190282.666666667,-110.023082640722,4,1,0,75,0,0
190550,-107.911863371875,4,1,0,75,0,0
190683,-106.880995686495,4,1,0,75,0,0
190817,-105.856015737929,4,1,0,75,0,0
191083,-103.860935437129,4,1,0,75,0,0
191217,-102.875355396727,4,1,0,75,0,0
191349.333333333,-101.909715906899,4,1,0,75,0,0
191617,-100.008133825509,4,1,0,75,0,0
191750,-99.0788818667143,4,1,0,75,0,0
191883,-98.1613067425771,4,1,0,75,0,0
192017,-97.2484360767607,4,1,0,75,0,0
192150,-96.3536956624164,4,1,0,75,0,0
192283,-95.4700367615486,4,1,0,75,0,0
192416,-94.590748985885,4,1,0,75,0,0
192550,-93.7287701136843,4,1,0,75,0,0
192683,-92.877316965015,4,1,0,75,0,0
192817,-92.0299275996557,4,1,0,75,0,0
192950,-91.1990758421614,4,1,0,75,0,0
193083,-90.3782303192393,4,1,0,75,0,0
193217,-89.5611649161421,4,1,0,75,0,0
193350,-88.7599120268657,4,1,0,75,0,0
193482.666666667,-87.968179265655,4,1,0,75,0,0
193617,-87.1799645611521,4,1,0,75,0,0
193750,-86.406879982415,4,1,0,75,0,0
193883,-85.6428601663271,4,1,0,75,0,0
194017,-84.8821160740593,4,1,0,75,0,0
194150,-84.1358592472193,4,1,0,75,0,0
194283,-83.3982401642864,4,1,0,75,0,0
194417,-82.6636725168157,4,1,0,75,0,0
194549.333333333,-81.9429859078,4,1,0,75,0,0
194683,-81.230536196625,4,1,0,75,0,0
194817,-80.5209301553286,4,1,0,75,0,0
194949,-79.8246329190179,4,1,0,75,0,0
195082,-79.1361959302729,4,1,0,75,0,0
195216,-78.4504099928014,4,1,0,75,0,0
195349,-77.7773922090393,4,1,0,75,0,0
195482,-77.1118804180379,4,1,0,75,0,0
195616,-76.4537615042729,4,1,0,75,0,0
195682,-76.124992953595,4,1,0,75,0,0
195749,-75.7980583830157,4,1,0,75,0,0
195816,-75.47778310758,4,1,0,75,0,0
195882,-75.1544482965014,4,1,0,75,0,0
195949,-74.8329066006657,4,1,0,75,0,0
196016,-74.5179041478186,4,1,0,75,0,0
196082,-74.19988228376,4,1,0,75,0,0
196149,-73.8836138613029,4,1,0,75,0,0
196216,-73.5690858485843,4,1,0,75,0,0
196282,-73.256285340995,4,1,0,75,0,0
196349,-72.9498300872257,4,1,0,75,0,0
196416,-72.6404210657186,4,1,0,75,0,0
196482,-72.3372822339307,4,1,0,75,0,0
196549,-72.0312153070114,4,1,0,75,0,0
196617,-71.7268135826279,4,1,0,75,0,0
196682,-71.4285714285714,4,1,0,75,0,0
197752,-71.4285714285714,4,1,0,85,0,1
229752,-64.9350649350649,4,1,0,85,0,0
229881,-64.4224538111712,4,1,0,85,0,0
230148,-63.4043711453393,4,1,0,85,0,0
230281,-62.9026730999698,4,1,0,85,0,0
230548,-61.9063199597281,4,1,0,85,0,0
230681,-61.4153570315331,4,1,0,85,0,0
230814,-60.9279241568869,4,1,0,85,0,0
230948,-60.4403764422401,4,1,0,85,0,0
231214,-59.4830366154268,4,1,0,85,0,0
231348,-59.0060067583682,4,1,0,85,0,0
231614,-58.0693687270475,4,1,0,85,0,0
231748,-57.6026785994529,4,1,0,85,0,0
231880.666666667,-57.1428571428571,4,1,0,75,0,0
232147,-71.4285714285714,4,1,0,75,0,0
232414,-78.0868250865586,4,1,0,75,0,0
232548,-81.6725614511636,4,1,0,75,0,0
232681,-85.3943381420043,4,1,0,75,0,0
232814,-89.2857142857143,4,1,0,75,0,0
232947.333333333,-71.4285714285714,4,1,0,75,0,0
232982,-71.7582738785193,4,1,0,75,0,0
233081,-73.445127391965,4,1,0,75,0,0
233115,-73.7841379300957,4,1,0,75,0,0
233214,-75.5186143267079,4,1,0,75,0,0
233249,-75.8830785207157,4,1,0,75,0,0
233348,-77.6668956430507,4,1,0,75,0,0
233382,-78.0253931638779,4,1,0,75,0,0
233481,-79.8595706249929,4,1,0,75,0,0
233614,-82.1141487322829,4,1,0,75,0,0
233748,-84.4500535035993,4,1,0,75,0,0
233881,-86.8342291296221,4,1,0,75,0,0
233948,-88.0606567838393,4,1,0,75,0,0
234014,-89.2857142857143,4,1,0,75,0,0
234281,-79.3650793650793,4,1,0,75,0,0
234548,-71.4285714285714,4,1,0,75,0,0
234582,-71.9093320063586,4,1,0,75,0,0
234681,-74.384787611875,4,1,0,75,0,0
234715,-74.8854454404671,4,1,0,75,0,0
234814,-77.4633527928929,4,1,0,75,0,0
234849,-78.008513588275,4,1,0,75,0,0
234948,-80.6939315563214,4,1,0,75,0,0
235080.666666667,-84.0336134453779,4,1,0,75,0,0
235215,-85.4700854700855,4,1,0,75,0,0
235281,-82.6587489169907,4,1,0,75,0,0
235348,-81.3096431213693,4,1,0,75,0,0
235481,-78.7055878441343,4,1,0,75,0,0
235614,-76.1963295795807,4,1,0,75,0,0
235703,-74.5680670581457,4,1,0,75,0,0
235792,-72.9791963318129,4,1,0,75,0,0
235881,-71.4285714285714,4,1,0,75,0,0
236147.333333333,-57.1428571428571,4,1,0,75,0,0
236415,-71.4285714285714,4,1,0,75,0,0
236681,-78.0868250865586,4,1,0,75,0,0
236815,-81.6725614511636,4,1,0,75,0,0
236948,-85.3943381420043,4,1,0,75,0,0
237081,-89.2857142857143,4,1,0,75,0,0
237214,-71.4285714285714,4,1,0,75,0,0
237249,-71.7582738785193,4,1,0,75,0,0
237348,-73.445127391965,4,1,0,75,0,0
237382,-73.7841379300957,4,1,0,75,0,0
237481,-75.5186143267079,4,1,0,75,0,0
237515,-75.8671957369507,4,1,0,75,0,0
237615,-77.6668956430507,4,1,0,75,0,0
237649,-78.0253931638779,4,1,0,75,0,0
237748,-79.8595706249929,4,1,0,75,0,0
237837,-81.36131456134,4,1,0,75,0,0
237926,-82.8912985049,4,1,0,75,0,0
238014,-84.4323776005536,4,1,0,75,0,0
238103,-86.020112296605,4,1,0,75,0,0
238192,-87.6377040396414,4,1,0,75,0,0
238280.666666667,-89.2857142857143,4,1,0,75,0,0
238548,-79.3650793650793,4,1,0,75,0,0
238815,-95.238095238095,4,1,0,75,0,0
238881,-93.984962406015,4,1,0,75,0,0
238948,-92.7643784786643,4,1,0,75,0,0
239014,-91.5750915750914,4,1,0,75,0,0
239081,-90.4159132007236,4,1,0,75,0,0
239214,-95.238095238095,4,1,0,75,0,0
239281,-93.984962406015,4,1,0,75,0,0
239347.333333333,-92.7643784786643,4,1,0,75,0,0
239414,-91.5750915750914,4,1,0,75,0,0
239481,-90.4159132007236,4,1,0,75,0,0
239614,-78.4929356357929,4,1,0,75,0,0
239703,-80.2568218298557,4,1,0,75,0,0
239792,-82.1018062397371,4,1,0,75,0,0
239881,-84.0336134453779,4,1,0,75,0,0
239970,-86.0585197934593,4,1,0,75,0,0
240059,-88.183421516755,4,1,0,75,0,0
240148,-90.4159132007236,4,1,0,75,0,0
240237,-92.7643784786643,4,1,0,75,0,0
240326,-95.238095238095,4,1,0,75,0,0
240414,-64.9350649350649,4,1,0,75,0,0
240681,-71.4285714285714,4,1,0,75,0,0
240726,-71.9641483280286,4,1,0,75,0,0
240770,-72.4917062316386,4,1,0,75,0,0
240814,-73.0231315796379,4,1,0,75,0,0
240881,-73.8398397054186,4,1,0,75,0,0
240948,-74.6656820897314,4,1,0,75,0,0
241081,-76.3325069881064,4,1,0,75,0,0
241214,-78.0365418223457,4,1,0,75,0,0
241348,-79.7918617984057,4,1,0,75,0,0
241480.666666667,-81.57312272325,4,1,0,75,0,0
241614,-83.3941482357457,4,1,0,75,0,0
241748,-85.2699798764907,4,1,0,75,0,0
241881,-87.1735334443971,4,1,0,75,0,0
242014,-89.1195816416114,4,1,0,75,0,0
242081,-90.1163163052493,4,1,0,75,0,0
242148,-91.1241986871707,4,1,0,75,0,0
242281,-93.1584409115129,4,1,0,75,0,0
242414,-95.238095238095,4,1,0,75,0,0
242547.333333333,-71.4285714285714,4,1,0,75,0,0
242582,-71.61673638855,4,1,0,75,0,0
242681,-72.5737007538343,4,1,0,75,0,0
242715,-72.7648823388043,4,1,0,75,0,0
242814,-73.7371885754993,4,1,0,75,0,0
242849,-73.9402766851693,4,1,0,75,0,0
242948,-74.9282888945371,4,1,0,75,0,0
242982,-75.1256731932729,4,1,0,75,0,0
243081,-76.1295250272057,4,1,0,75,0,0
243170,-76.9440960725671,4,1,0,75,0,0
243259,-77.7673828689821,4,1,0,75,0,0
243348,-78.5994786732843,4,1,0,75,0,0
243481,-79.8595706249929,4,1,0,75,0,0
243548,-80.5019852897964,4,1,0,75,0,0
243614,-59.5238095238095,4,1,0,75,0,0
243748,-64.9350649350649,4,1,0,75,0,0
244148,-59.5238095238095,4,1,0,75,0,0
244414,-64.9350649350649,4,1,0,75,0,0
244680.666666667,-68.0272108843537,4,1,0,75,0,0
244948,-71.4285714285714,4,1,0,75,0,0
245214,-78.0868250865586,4,1,0,75,0,0
245348,-81.6725614511636,4,1,0,75,0,0
245481,-85.3943381420043,4,1,0,75,0,0
245614,-89.2857142857143,4,1,0,75,0,0
245747.333333333,-71.4285714285714,4,1,0,75,0,0
245782,-71.7582738785193,4,1,0,75,0,0
245881,-73.445127391965,4,1,0,75,0,0
245915,-73.7841379300957,4,1,0,75,0,0
246014,-75.5186143267079,4,1,0,75,0,0
246049,-75.8830785207157,4,1,0,75,0,0
246148,-77.6668956430507,4,1,0,75,0,0
246170,-78.0253931638779,4,1,0,75,0,0
246281,-79.8595706249929,4,1,0,75,0,0
246370,-81.36131456134,4,1,0,75,0,0
246459,-82.8912985049,4,1,0,75,0,0
246547,-84.4323776005536,4,1,0,75,0,0
246637,-86.0381205916236,4,1,0,75,0,0
246726,-87.6560509772,4,1,0,75,0,0
246814,-89.2857142857143,4,1,0,75,0,0
247081,-79.3650793650793,4,1,0,75,0,0
247348,-95.238095238095,4,1,0,75,0,0
247414,-93.984962406015,4,1,0,75,0,0
247481,-92.7643784786643,4,1,0,75,0,0
247548,-91.5750915750914,4,1,0,75,0,0
247614,-90.4159132007236,4,1,0,75,0,0
247748,-95.238095238095,4,1,0,75,0,0
247814,-93.984962406015,4,1,0,75,0,0
247880.666666667,-92.7643784786643,4,1,0,75,0,0
247948,-91.5750915750914,4,1,0,75,0,0
248014,-90.4159132007236,4,1,0,75,0,0
248148,-78.4929356357929,4,1,0,75,0,0
248237,-80.2568218298557,4,1,0,75,0,0
248326,-82.1018062397371,4,1,0,75,0,0
248414,-84.03361326001,4,1,0,75,0,0
248503,-86.0585197934593,4,1,0,75,0,0
248592,-88.183421516755,4,1,0,75,0,0
248681,-90.4159132007236,4,1,0,75,0,0
248770,-92.7643784786643,4,1,0,75,0,0
248859,-95.238095,4,1,0,75,0,0
248947.333333333,-71.4285714285714,4,1,0,75,0,0
249748,-77.89340947609,4,1,0,60,0,0
250548,-84.9433653573371,4,1,0,60,0,0
251080.666666667,-89.9911118415986,4,1,0,60,0,0
251614,-95.33881988804,4,1,0,60,0,0
252147.333333333,-101.015254455221,4,1,0,60,0,0
252681,-107.018070489035,4,1,0,60,0,0
253214,-113.37760294682,4,1,0,60,0,0
254280.666666667,-127.266650859424,4,1,0,60,0,0
254814,-134.829452106312,4,1,0,60,0,0
255081,-138.785266872611,4,1,0,60,0,0
255170,-140.129497044257,4,1,0,60,0,0
255259,-141.486747003919,4,1,0,60,0,0
255347.333333333,-142.857142857143,4,1,0,60,0,0
257480.666666667,-102.040816326531,4,1,0,60,0,0
258281,-107.071118374707,4,1,0,60,0,0
259081,-112.431367907082,4,1,0,60,0,0
259614,-116.200554842099,4,1,0,60,0,0
260148,-120.146965679834,4,1,0,60,0,0
260680.666666667,-124.266511542714,4,1,0,60,0,0
261214,-128.578002813154,4,1,0,60,0,0
261747,-133.102700598394,4,1,0,60,0,0
262814,-142.805284651359,4,1,0,60,0,0
263880,-153.51818804714,4,1,0,60,0,0
264947,-165.383687626871,4,1,0,60,0,0
266019,255.31914893617,4,1,0,60,1,8
266019,-172.532781228434,4,1,0,60,0,0
267037.276595745,-172.532781228434,4,1,0,60,0,0
274186,-178.571428571429,4,1,0,60,0,0
274313,-176.475548775226,4,1,0,60,0,0
274569,-172.368282929634,4,1,0,60,0,0
274696,-170.38689035528,4,1,0,60,0,0
274824,-168.426260626305,4,1,0,60,0,0
274952,-166.501170147352,4,1,0,60,0,0
275207,-162.768272340964,4,1,0,60,0,0
275462,-159.165713983754,4,1,0,60,0,0
275590,-157.404426108594,4,1,0,60,0,0
275718,-155.673533764424,4,1,0,60,0,0
275845,-153.985454224179,4,1,0,60,0,0
275973,-152.312872556842,4,1,0,60,0,0
276101,-150.668483790654,4,1,0,60,0,0
276228,-149.064126387752,4,1,0,60,0,0
276611,-144.383256463824,4,1,0,60,0,0
276738,-142.881280042198,4,1,0,60,0,0
276867,-141.380229156134,4,1,0,60,0,0
276994,-139.926085825391,4,1,0,60,0,0
277250,-137.063997780456,4,1,0,60,0,0
277505,-134.301473652939,4,1,0,60,0,0
277633,-132.94680610332,4,1,0,60,0,0
277760,-131.6232430737,4,1,0,60,0,0
277888,-130.309485146695,4,1,0,60,0,0
278016,-129.015589054112,4,1,0,60,0,0
278143,-127.751004747483,4,1,0,60,0,0
278271,-126.495400048184,4,1,0,60,0,0
278398,-125.267992424867,4,1,0,60,0,0
278654,-122.847949574584,4,1,0,60,0,0
278781,-121.673471485391,4,1,0,60,0,0
279037,-119.356795915258,4,1,0,60,0,0
279164,-118.232008448613,4,1,0,60,0,0
279292,-117.114357839207,4,1,0,60,0,0
279547,-114.93436089584,4,1,0,60,0,0
279675,-113.862841845914,4,1,0,60,0,0
279803,-112.806128589669,4,1,0,60,0,0
279930,-111.772014852276,4,1,0,60,0,0
280058,-110.743931911933,4,1,0,60,0,0
280313,-108.737114391451,4,1,0,60,0,0
280441,-107.749977759401,4,1,0,60,0,0
280696,-105.822399248536,4,1,0,60,0,0
280824,-104.87390552217,4,1,0,60,0,0
281079,-103.021149399284,4,1,0,60,0,0
281207,-102.109164447311,4,1,0,60,0,0
281335,-101.208932183639,4,1,0,60,0,0
281590,-99.4496794033636,4,1,0,60,0,0
281718,-98.5833459366043,4,1,0,60,0,0
281845,-97.7345759225314,4,1,0,60,0,0
281973,-96.8898084704414,4,1,0,60,0,0
282101,-96.0555781325993,4,1,0,60,0,0
282228,-95.238095238095,4,1,0,60,0,0
282356,-95.238095238095,4,1,0,60,0,0
282866,-714.285714285714,4,1,0,60,0,0
283377,-95.2380952380952,4,1,0,60,0,0
283891,240,4,1,0,80,1,0
283891,-102.040816326531,4,1,0,80,0,0
284608,-99.4783541970907,4,1,0,80,0,0
285328,-96.9985916938086,4,1,0,80,0,0
285808,-95.3895932227829,4,1,0,80,0,0
286288,-93.8147568190343,4,1,0,80,0,0
286768,-92.273114184545,4,1,0,80,0,0
287248,-90.7637328000771,4,1,0,80,0,0
287728,-89.2857142857143,4,1,0,80,0,0
287968,-86.8850319165586,4,1,0,80,0,0
288208,-84.561124850695,4,1,0,80,0,0
288448,-82.3108974551686,4,1,0,80,0,0
288688,-80.1314131915443,4,1,0,80,0,0
288808,-79.0673230674907,4,1,0,80,0,0
288928,-78.0198845183421,4,1,0,80,0,0
289048,-76.9887708505771,4,1,0,80,0,0
289168,-75.9736635543729,4,1,0,80,0,0
289288,-74.9742520488679,4,1,0,80,0,0
289408,-73.9902334369043,4,1,0,80,0,0
289528,-73.0213122688421,4,1,0,80,0,0
289648,-64.9350649350649,4,1,0,80,0,0
291088,-71.4285714285714,4,1,0,80,0,0
291571,-77.639751552795,4,1,0,100,0,1
305971,-64.9350649350649,4,1,0,100,0,0
306931,-77.639751552795,4,1,0,100,0,1
320371,266.666666666667,4,1,0,100,1,0
320371,-59.5238095238095,4,1,0,100,0,0
321701,-71.4285714285714,4,1,0,100,0,0
321968,-70.3729767769176,4,1,0,100,0,0
322101,-69.3481276005548,4,1,0,100,0,0
322234,-68.3526999316473,4,1,0,100,0,0
322368,-67.3854447439353,4,1,0,100,0,0
322504,240,4,1,0,100,1,1
322504,-74.4047619047621,4,1,0,100,0,1
335944,-64.9350649350649,4,1,0,100,0,0
336181,-70.0280112044818,4,1,0,100,0,0
336241,-68.0272108843537,4,1,0,100,0,0
336301,-66.1375661375661,4,1,0,100,0,0
336541,-68.0272108843537,4,1,0,100,0,0
336661,-64.9350649350649,4,1,0,100,0,0
337141,-68.0272108843537,4,1,0,100,0,0
337201,-66.4451827242525,4,1,0,100,0,0
337261,-64.9350649350649,4,1,0,100,0,0
337621,-66.1375661375661,4,1,0,100,0,0
337681,-67.3854447439353,4,1,0,100,0,0
337741,-68.6813186813186,4,1,0,100,0,0
337801,-70.0280112044818,4,1,0,100,0,0
337861,-71.4285714285714,4,1,0,100,0,0
337981,-47.6190478571429,4,1,0,100,0,0

[HitObjects]
256,192,2326,8,0,9468,0:0:0:0:
256,192,9755,5,8,0:0:0:0:
256,192,9969,1,8,0:0:0:0:
256,192,10041,1,8,0:0:0:0:
256,192,10183,1,0,0:0:0:0:
256,192,10326,1,4,0:0:0:0:
256,192,10755,1,4,0:0:0:0:
256,192,11183,1,4,0:0:0:0:
256,192,11469,1,0,0:0:0:0:
256,192,11755,1,0,0:0:0:0:
256,192,11898,1,0,0:0:0:0:
256,192,12183,1,0,0:0:0:0:
256,192,12326,1,8,0:0:0:0:
256,192,12612,1,8,0:0:0:0:
256,192,13183,1,0,0:0:0:0:
256,192,13612,1,0,0:0:0:0:
256,192,13755,1,8,0:0:0:0:
256,192,14040,1,0,0:0:0:0:
256,192,14326,1,0,0:0:0:0:
256,192,14612,1,8,0:0:0:0:
256,192,14898,1,8,0:0:0:0:
256,192,15183,1,0,0:0:0:0:
256,192,15469,1,8,0:0:0:0:
256,192,15755,1,8,0:0:0:0:
256,192,16041,1,8,0:0:0:0:
256,192,16469,1,8,0:0:0:0:
256,192,16898,1,0,0:0:0:0:
256,192,17183,1,0,0:0:0:0:
256,192,17469,1,8,0:0:0:0:
256,192,17755,1,8,0:0:0:0:
256,192,18041,1,0,0:0:0:0:
256,192,18326,1,8,0:0:0:0:
256,192,18755,1,8,0:0:0:0:
256,192,19183,1,0,0:0:0:0:
256,192,19469,1,8,0:0:0:0:
256,192,19755,1,0,0:0:0:0:
256,192,20041,1,8,0:0:0:0:
256,192,20326,1,8,0:0:0:0:
256,192,20612,1,0,0:0:0:0:
256,192,20898,1,0,0:0:0:0:
256,192,21041,1,0,0:0:0:0:
256,192,21469,1,8,0:0:0:0:
256,192,21755,1,8,0:0:0:0:
256,192,22326,1,0,0:0:0:0:
256,192,22755,1,0,0:0:0:0:
256,192,22898,1,8,0:0:0:0:
256,192,23755,1,8,0:0:0:0:
256,192,24041,1,0,0:0:0:0:
256,192,24326,1,0,0:0:0:0:
256,192,24612,1,8,0:0:0:0:
256,192,24898,1,0,0:0:0:0:
256,192,25183,1,8,0:0:0:0:
256,192,25612,1,0,0:0:0:0:
256,192,25755,1,0,0:0:0:0:
256,192,26041,1,8,0:0:0:0:
256,192,26326,1,0,0:0:0:0:
256,192,26612,1,8,0:0:0:0:
256,192,26897,1,0,0:0:0:0:
256,192,27183,1,0,0:0:0:0:
256,192,27468,1,8,0:0:0:0:
256,192,27897,1,0,0:0:0:0:
256,192,28040,1,0,0:0:0:0:
256,192,28326,1,8,0:0:0:0:
256,192,28611,1,8,0:0:0:0:
256,192,28897,1,0,0:0:0:0:
256,192,29183,1,8,0:0:0:0:
256,192,29468,1,8,0:0:0:0:
256,192,29611,8,0,31182,0:0:0:0:
256,192,31469,5,4,0:0:0:0:
256,192,31754,1,0,0:0:0:0:
256,192,31897,1,0,0:0:0:0:
256,192,32040,1,0,0:0:0:0:
256,192,32326,1,0,0:0:0:0:
256,192,32469,1,8,0:0:0:0:
256,192,32754,1,0,0:0:0:0:
256,192,32897,1,8,0:0:0:0:
256,192,33183,1,0,0:0:0:0:
256,192,33326,1,8,0:0:0:0:
256,192,33469,1,0,0:0:0:0:
256,192,33540,1,0,0:0:0:0:
256,192,33611,1,0,0:0:0:0:
256,192,33754,1,8,0:0:0:0:
256,192,34040,1,8,0:0:0:0:
256,192,34183,1,8,0:0:0:0:
256,192,34254,1,8,0:0:0:0:
256,192,34326,1,8,0:0:0:0:
256,192,34611,1,0,0:0:0:0:
256,192,34754,1,8,0:0:0:0:
256,192,35040,1,0,0:0:0:0:
256,192,35183,1,8,0:0:0:0:
256,192,35469,1,0,0:0:0:0:
256,192,35611,1,8,0:0:0:0:
256,192,35683,1,8,0:0:0:0:
256,192,35754,1,0,0:0:0:0:
256,192,35897,1,8,0:0:0:0:
256,192,35969,1,8,0:0:0:0:
256,192,36040,1,0,0:0:0:0:
256,192,36183,1,0,0:0:0:0:
256,192,36326,1,8,0:0:0:0:
256,192,36469,1,8,0:0:0:0:
256,192,36611,1,0,0:0:0:0:
256,192,36754,1,0,0:0:0:0:
256,192,36826,1,8,0:0:0:0:
256,192,36897,1,0,0:0:0:0:
256,192,37040,1,8,0:0:0:0:
256,192,37183,1,0,0:0:0:0:
256,192,37326,1,0,0:0:0:0:
256,192,37469,1,8,0:0:0:0:
256,192,37611,1,8,0:0:0:0:
256,192,37754,1,0,0:0:0:0:
256,192,37826,1,0,0:0:0:0:
256,192,37897,1,8,0:0:0:0:
256,192,38040,1,0,0:0:0:0:
256,192,38183,1,8,0:0:0:0:
194,207,38326,2,0,L|335:179,24,83.9999974365235
256,192,40611,1,0,0:0:0:0:
256,192,40682,1,0,0:0:0:0:
256,192,40754,1,0,0:0:0:0:
256,192,40896,1,0,0:0:0:0:
256,192,40969,1,8,0:0:0:0:
256,192,41039,1,0,0:0:0:0:
256,192,41183,1,0,0:0:0:0:
256,192,41254,1,0,0:0:0:0:
256,192,41326,1,8,0:0:0:0:
256,192,41397,1,8,0:0:0:0:
256,192,41468,1,0,0:0:0:0:
256,192,41611,1,8,0:0:0:0:
256,192,41683,1,8,0:0:0:0:
256,192,41754,1,0,0:0:0:0:
256,192,41897,1,0,0:0:0:0:
256,192,41968,1,8,0:0:0:0:
256,192,42039,1,0,0:0:0:0:
256,192,42182,1,0,0:0:0:0:
256,192,42254,1,8,0:0:0:0:
256,192,42326,1,0,0:0:0:0:
256,192,42469,1,0,0:0:0:0:
256,192,42611,1,0,0:0:0:0:
256,192,42754,1,0,0:0:0:0:
256,192,42897,1,8,0:0:0:0:
256,192,42968,1,8,0:0:0:0:
256,192,43040,1,0,0:0:0:0:
256,192,43182,1,8,0:0:0:0:
256,192,43254,1,0,0:0:0:0:
256,192,43325,1,8,0:0:0:0:
256,192,43469,1,8,0:0:0:0:
256,192,43540,1,8,0:0:0:0:
256,192,43612,1,0,0:0:0:0:
256,192,43683,1,0,0:0:0:0:
256,192,43754,1,8,0:0:0:0:
256,192,43897,1,8,0:0:0:0:
256,192,43969,1,8,0:0:0:0:
256,192,44040,1,0,0:0:0:0:
256,192,44183,1,0,0:0:0:0:
256,192,44254,1,8,0:0:0:0:
256,192,44325,1,0,0:0:0:0:
256,192,44468,1,8,0:0:0:0:
256,192,44539,1,8,0:0:0:0:
256,192,44611,1,0,0:0:0:0:
256,192,44755,1,8,0:0:0:0:
256,192,44897,1,8,0:0:0:0:
256,192,45040,1,8,0:0:0:0:
256,192,45183,1,0,0:0:0:0:
256,192,45254,1,0,0:0:0:0:
256,192,45326,1,8,0:0:0:0:
256,192,45468,1,0,0:0:0:0:
256,192,45539,1,0,0:0:0:0:
256,192,45611,1,8,0:0:0:0:
256,192,45755,1,0,0:0:0:0:
256,192,45826,1,0,0:0:0:0:
256,192,45898,1,8,0:0:0:0:
256,192,45969,1,0,0:0:0:0:
256,192,46040,1,8,0:0:0:0:
256,192,46183,1,0,0:0:0:0:
256,192,46254,1,0,0:0:0:0:
256,192,46326,1,8,0:0:0:0:
256,192,46469,1,0,0:0:0:0:
256,192,46540,1,0,0:0:0:0:
256,192,46611,1,8,0:0:0:0:
256,192,46683,1,0,0:0:0:0:
256,192,46754,1,8,0:0:0:0:
256,192,46826,1,8,0:0:0:0:
256,192,46897,1,0,0:0:0:0:
256,192,47040,1,0,0:0:0:0:
256,192,47183,1,0,0:0:0:0:
256,192,47326,1,0,0:0:0:0:
256,192,47469,1,8,0:0:0:0:
256,192,47540,1,8,0:0:0:0:
256,192,47611,1,0,0:0:0:0:
256,192,47754,1,8,0:0:0:0:
256,192,47825,1,8,0:0:0:0:
256,192,47897,1,0,0:0:0:0:
256,192,48041,1,8,0:0:0:0:
256,192,48112,1,8,0:0:0:0:
256,192,48184,1,0,0:0:0:0:
256,192,48255,1,8,0:0:0:0:
256,192,48326,1,0,0:0:0:0:
256,192,48469,1,8,0:0:0:0:
256,192,48540,1,8,0:0:0:0:
256,192,48612,1,0,0:0:0:0:
256,192,48755,1,8,0:0:0:0:
256,192,48826,1,8,0:0:0:0:
256,192,48897,1,0,0:0:0:0:
256,192,48968,1,8,0:0:0:0:
256,192,49040,1,0,0:0:0:0:
256,192,49111,1,0,0:0:0:0:
256,192,49184,1,8,0:0:0:0:
256,192,49327,1,8,0:0:0:0:
256,192,49469,1,8,0:0:0:0:
256,192,49540,1,8,0:0:0:0:
256,192,49612,1,0,0:0:0:0:
256,192,49683,1,0,0:0:0:0:
256,192,49754,1,12,0:0:0:0:
256,192,50183,1,12,0:0:0:0:
256,192,50611,1,12,0:0:0:0:
256,192,50897,1,0,0:0:0:0:
256,192,51040,1,0,0:0:0:0:
256,192,51183,1,0,0:0:0:0:
256,192,51254,1,0,0:0:0:0:
256,192,51326,1,8,0:0:0:0:
256,192,51469,1,0,0:0:0:0:
256,192,51611,1,0,0:0:0:0:
256,192,51683,1,0,0:0:0:0:
256,192,51754,1,8,0:0:0:0:
256,192,51897,1,0,0:0:0:0:
256,192,51969,1,8,0:0:0:0:
256,192,52040,1,0,0:0:0:0:
256,192,52111,1,0,0:0:0:0:
256,192,52183,1,0,0:0:0:0:
256,192,52326,1,0,0:0:0:0:
256,192,52469,1,0,0:0:0:0:
256,192,52540,1,8,0:0:0:0:
256,192,52611,1,0,0:0:0:0:
256,192,52754,1,0,0:0:0:0:
256,192,52897,1,0,0:0:0:0:
256,192,52969,1,0,0:0:0:0:
256,192,53040,1,8,0:0:0:0:
256,192,53111,1,0,0:0:0:0:
256,192,53183,1,8,0:0:0:0:
256,192,53326,1,0,0:0:0:0:
256,192,53469,1,0,0:0:0:0:
256,192,53540,1,0,0:0:0:0:
256,192,53611,1,8,0:0:0:0:
256,192,53754,1,0,0:0:0:0:
256,192,53897,1,0,0:0:0:0:
256,192,53969,1,0,0:0:0:0:
256,192,54040,1,8,0:0:0:0:
256,192,54183,1,8,0:0:0:0:
256,192,54326,1,0,0:0:0:0:
256,192,54397,1,0,0:0:0:0:
256,192,54469,1,8,0:0:0:0:
256,192,54540,1,8,0:0:0:0:
256,192,54611,1,0,0:0:0:0:
256,192,54683,1,8,0:0:0:0:
256,192,54754,1,8,0:0:0:0:
256,192,54826,1,8,0:0:0:0:
256,192,54897,1,0,0:0:0:0:
256,192,55040,1,0,0:0:0:0:
256,192,55111,1,8,0:0:0:0:
256,192,55183,1,0,0:0:0:0:
256,192,55254,1,0,0:0:0:0:
256,192,55326,1,8,0:0:0:0:
256,192,55469,1,8,0:0:0:0:
256,192,55611,1,8,0:0:0:0:
256,192,55754,1,0,0:0:0:0:
256,192,55826,1,8,0:0:0:0:
256,192,55897,1,8,0:0:0:0:
256,192,56040,1,8,0:0:0:0:
256,192,56183,1,0,0:0:0:0:
256,192,56254,1,8,0:0:0:0:
256,192,56326,1,8,0:0:0:0:
256,192,56469,1,0,0:0:0:0:
256,192,56540,1,8,0:0:0:0:
256,192,56611,1,0,0:0:0:0:
256,192,56683,1,0,0:0:0:0:
256,192,56754,1,8,0:0:0:0:
256,192,56897,1,0,0:0:0:0:
256,192,57040,1,8,0:0:0:0:
256,192,57111,1,8,0:0:0:0:
256,192,57183,1,0,0:0:0:0:
256,192,57254,1,0,0:0:0:0:
256,192,57326,1,8,0:0:0:0:
256,192,57469,1,8,0:0:0:0:
256,192,57540,1,8,0:0:0:0:
256,192,57611,1,0,0:0:0:0:
256,192,57754,1,8,0:0:0:0:
256,192,57897,1,8,0:0:0:0:
256,192,58040,1,8,0:0:0:0:
256,192,58111,1,8,0:0:0:0:
256,192,58183,1,0,0:0:0:0:
256,192,58326,1,0,0:0:0:0:
256,192,58469,1,8,0:0:0:0:
256,192,58540,1,8,0:0:0:0:
256,192,58611,1,0,0:0:0:0:
256,192,58754,1,0,0:0:0:0:
256,192,58897,1,8,0:0:0:0:
256,192,58969,1,8,0:0:0:0:
256,192,59040,1,0,0:0:0:0:
256,192,59111,1,0,0:0:0:0:
256,192,59183,1,8,0:0:0:0:
256,192,59254,1,8,0:0:0:0:
256,192,59326,1,0,0:0:0:0:
256,192,59469,1,12,0:0:0:0:
256,192,60040,1,8,0:0:0:0:
256,192,60111,1,8,0:0:0:0:
256,192,60183,1,0,0:0:0:0:
256,192,60254,1,0,0:0:0:0:
256,192,60326,1,8,0:0:0:0:
256,192,60397,1,8,0:0:0:0:
256,192,60469,1,0,0:0:0:0:
256,192,60611,1,0,0:0:0:0:
256,192,60754,1,8,0:0:0:0:
256,192,60826,1,0,0:0:0:0:
256,192,60897,1,8,0:0:0:0:
256,192,60969,1,8,0:0:0:0:
256,192,61040,1,0,0:0:0:0:
256,192,61111,1,8,0:0:0:0:
256,192,61183,1,0,0:0:0:0:
256,192,61254,1,0,0:0:0:0:
256,192,61326,1,8,0:0:0:0:
256,192,61469,1,8,0:0:0:0:
256,192,61516,1,8,0:0:0:0:
256,192,61564,1,8,0:0:0:0:
256,192,61611,1,0,0:0:0:0:
256,192,61683,1,8,0:0:0:0:
256,192,61754,1,0,0:0:0:0:
256,192,61826,1,0,0:0:0:0:
256,192,61897,1,8,0:0:0:0:
256,192,62040,1,0,0:0:0:0:
256,192,62183,1,8,0:0:0:0:
256,192,62326,1,0,0:0:0:0:
256,192,62397,1,0,0:0:0:0:
256,192,62469,1,8,0:0:0:0:
256,192,62540,1,0,0:0:0:0:
256,192,62611,1,8,0:0:0:0:
256,192,62683,1,8,0:0:0:0:
256,192,62754,1,0,0:0:0:0:
256,192,62897,1,0,0:0:0:0:
256,192,62969,1,0,0:0:0:0:
256,192,63040,1,8,0:0:0:0:
256,192,63111,1,8,0:0:0:0:
256,192,63183,1,0,0:0:0:0:
256,192,63254,1,8,0:0:0:0:
256,192,63326,1,8,0:0:0:0:
256,192,63397,1,8,0:0:0:0:
256,192,63469,1,0,0:0:0:0:
256,192,63540,1,0,0:0:0:0:
256,192,63611,1,8,0:0:0:0:
256,192,63754,1,8,0:0:0:0:
256,192,63802,1,0,0:0:0:0:
256,192,63849,1,0,0:0:0:0:
256,192,63897,1,8,0:0:0:0:
256,192,63969,1,8,0:0:0:0:
256,192,64040,1,0,0:0:0:0:
256,192,64111,1,0,0:0:0:0:
256,192,64183,1,8,0:0:0:0:
256,192,64326,1,0,0:0:0:0:
256,192,64469,1,8,0:0:0:0:
256,192,64611,1,0,0:0:0:0:
256,192,64683,1,0,0:0:0:0:
256,192,64754,1,8,0:0:0:0:
256,192,64826,1,0,0:0:0:0:
256,192,64897,1,8,0:0:0:0:
256,192,64969,1,8,0:0:0:0:
256,192,65040,1,0,0:0:0:0:
256,192,65111,1,0,0:0:0:0:
256,192,65183,1,8,0:0:0:0:
256,192,65254,1,8,0:0:0:0:
256,192,65326,1,0,0:0:0:0:
256,192,65397,1,8,0:0:0:0:
256,192,65469,1,0,0:0:0:0:
256,192,65540,1,0,0:0:0:0:
256,192,65611,1,8,0:0:0:0:
256,192,65683,1,0,0:0:0:0:
256,192,65754,1,8,0:0:0:0:
256,192,65826,1,8,0:0:0:0:
256,192,65897,1,0,0:0:0:0:
256,192,65969,1,0,0:0:0:0:
256,192,66040,1,8,0:0:0:0:
256,192,66111,1,8,0:0:0:0:
256,192,66183,1,8,0:0:0:0:
256,192,66254,1,0,0:0:0:0:
256,192,66326,1,8,0:0:0:0:
256,192,66469,1,0,0:0:0:0:
256,192,66611,1,0,0:0:0:0:
256,192,66659,1,0,0:0:0:0:
256,192,66707,1,0,0:0:0:0:
256,192,66754,1,8,0:0:0:0:
256,192,66897,1,8,0:0:0:0:
256,192,66969,1,8,0:0:0:0:
256,192,67040,1,0,0:0:0:0:
256,192,67111,1,0,0:0:0:0:
256,192,67183,1,8,0:0:0:0:
256,192,67254,1,0,0:0:0:0:
256,192,67326,1,8,0:0:0:0:
256,192,67397,1,8,0:0:0:0:
256,192,67469,1,0,0:0:0:0:
256,192,67540,1,0,0:0:0:0:
256,192,67611,1,8,0:0:0:0:
256,192,67683,1,8,0:0:0:0:
256,192,67754,1,0,0:0:0:0:
256,192,67826,1,0,0:0:0:0:
256,192,67897,1,8,0:0:0:0:
256,192,67969,1,0,0:0:0:0:
256,192,68040,1,8,0:0:0:0:
256,192,68111,1,8,0:0:0:0:
256,192,68183,1,0,0:0:0:0:
256,192,68254,1,0,0:0:0:0:
256,192,68326,1,8,0:0:0:0:
256,192,68397,1,0,0:0:0:0:
256,192,68469,1,8,0:0:0:0:
256,192,68540,1,8,0:0:0:0:
256,192,68611,1,0,0:0:0:0:
256,192,68754,1,0,0:0:0:0:
256,192,68897,1,0,0:0:0:0:
256,192,68945,1,0,0:0:0:0:
256,192,68992,1,0,0:0:0:0:
256,192,69040,1,8,0:0:0:0:
256,192,69183,1,0,0:0:0:0:
256,192,69326,1,8,0:0:0:0:
256,192,69469,1,0,0:0:0:0:
256,192,69516,1,0,0:0:0:0:
256,192,69564,1,0,0:0:0:0:
256,192,69611,1,8,0:0:0:0:
256,192,69754,1,0,0:0:0:0:
256,192,69897,1,8,0:0:0:0:
256,192,69945,1,8,0:0:0:0:
256,192,69992,1,8,0:0:0:0:
256,192,70040,1,0,0:0:0:0:
256,192,70183,1,0,0:0:0:0:
256,192,70254,1,0,0:0:0:0:
256,192,70326,1,8,0:0:0:0:
256,192,70373,1,8,0:0:0:0:
256,192,70421,1,8,0:0:0:0:
256,192,70469,1,0,0:0:0:0:
256,192,70611,1,0,0:0:0:0:
256,192,70754,1,0,0:0:0:0:
256,192,70826,1,8,0:0:0:0:
256,192,70897,1,0,0:0:0:0:
256,192,71040,1,0,0:0:0:0:
256,192,71111,1,8,0:0:0:0:
256,192,71183,1,0,0:0:0:0:
256,192,71326,1,8,0:0:0:0:
256,192,71397,1,8,0:0:0:0:
256,192,71469,1,0,0:0:0:0:
256,192,71611,1,0,0:0:0:0:
256,192,71754,1,0,0:0:0:0:
256,192,71802,1,0,0:0:0:0:
256,192,71849,1,0,0:0:0:0:
256,192,71897,1,8,0:0:0:0:
256,192,72040,1,0,0:0:0:0:
256,192,72183,1,8,0:0:0:0:
256,192,72230,1,8,0:0:0:0:
256,192,72278,1,8,0:0:0:0:
256,192,72326,1,0,0:0:0:0:
256,192,72469,1,8,0:0:0:0:
256,192,72611,1,0,0:0:0:0:
256,192,72683,1,0,0:0:0:0:
256,192,72754,1,8,0:0:0:0:
256,192,72826,1,0,0:0:0:0:
256,192,72897,1,8,0:0:0:0:
256,192,72969,1,8,0:0:0:0:
256,192,73040,1,0,0:0:0:0:
256,192,73111,1,0,0:0:0:0:
256,192,73183,1,8,0:0:0:0:
256,192,73326,1,8,0:0:0:0:
256,192,73469,1,0,0:0:0:0:
256,192,73611,1,0,0:0:0:0:
256,192,73754,1,8,0:0:0:0:
256,192,73826,1,8,0:0:0:0:
256,192,73897,1,0,0:0:0:0:
256,192,73969,1,0,0:0:0:0:
256,192,74040,1,8,0:0:0:0:
256,192,74111,1,0,0:0:0:0:
256,192,74183,1,8,0:0:0:0:
256,192,74254,1,8,0:0:0:0:
256,192,74326,1,0,0:0:0:0:
256,192,74397,1,0,0:0:0:0:
256,192,74469,1,8,0:0:0:0:
256,192,74540,1,0,0:0:0:0:
256,192,74611,1,8,0:0:0:0:
256,192,74683,1,8,0:0:0:0:
256,192,74754,1,0,0:0:0:0:
256,192,74826,1,8,0:0:0:0:
256,192,74897,1,0,0:0:0:0:
256,192,74969,1,0,0:0:0:0:
256,192,75040,1,8,0:0:0:0:
256,192,75111,1,8,0:0:0:0:
256,192,75183,1,0,0:0:0:0:
256,192,75326,1,0,0:0:0:0:
256,192,75469,1,0,0:0:0:0:
256,192,75611,1,8,0:0:0:0:
256,192,75754,1,0,0:0:0:0:
256,192,75826,1,0,0:0:0:0:
256,192,75897,1,8,0:0:0:0:
256,192,76040,1,8,0:0:0:0:
256,192,76111,1,8,0:0:0:0:
256,192,76183,1,0,0:0:0:0:
256,192,76254,1,0,0:0:0:0:
256,192,76326,1,8,0:0:0:0:
256,192,76397,1,0,0:0:0:0:
256,192,76469,1,8,0:0:0:0:
256,192,76540,1,8,0:0:0:0:
256,192,76611,1,0,0:0:0:0:
256,192,76683,1,0,0:0:0:0:
256,192,76754,1,8,0:0:0:0:
256,192,76826,1,0,0:0:0:0:
256,192,76897,1,8,0:0:0:0:
256,192,76969,1,8,0:0:0:0:
256,192,77040,1,0,0:0:0:0:
256,192,77183,1,8,0:0:0:0:
256,192,77254,1,0,0:0:0:0:
256,192,77326,1,8,0:0:0:0:
256,192,77397,1,8,0:0:0:0:
256,192,77469,1,0,0:0:0:0:
256,192,77540,1,8,0:0:0:0:
256,192,77611,1,0,0:0:0:0:
256,192,77683,1,0,0:0:0:0:
256,192,77754,1,8,0:0:0:0:
256,192,77826,1,8,0:0:0:0:
256,192,77897,1,0,0:0:0:0:
256,192,77969,1,0,0:0:0:0:
256,192,78040,1,8,0:0:0:0:
256,192,78111,1,0,0:0:0:0:
256,192,78183,1,8,0:0:0:0:
256,192,78254,1,8,0:0:0:0:
256,192,78326,1,4,0:0:0:0:
256,192,78754,1,4,0:0:0:0:
256,192,79183,1,4,0:0:0:0:
256,192,79469,1,12,0:0:0:0:
256,192,79897,1,12,0:0:0:0:
256,192,80326,1,8,0:0:0:0:
256,192,80397,1,8,0:0:0:0:
256,192,80469,1,8,0:0:0:0:
256,192,80540,1,8,0:0:0:0:
256,192,80611,1,4,0:0:0:0:
256,192,85183,1,0,0:0:0:0:
256,192,85469,1,0,0:0:0:0:
256,192,85754,1,0,0:0:0:0:
256,192,86040,1,0,0:0:0:0:
256,192,86326,1,0,0:0:0:0:
256,192,86611,1,0,0:0:0:0:
256,192,86897,1,0,0:0:0:0:
256,192,87040,1,0,0:0:0:0:
256,192,87183,1,8,0:0:0:0:
256,192,87326,1,8,0:0:0:0:
256,192,87469,1,0,0:0:0:0:
256,192,87754,1,0,0:0:0:0:
256,192,88040,1,0,0:0:0:0:
256,192,88326,1,0,0:0:0:0:
256,192,88611,1,0,0:0:0:0:
256,192,88897,1,0,0:0:0:0:
256,192,89183,8,0,89469,0:0:0:0:
256,192,89754,5,8,0:0:0:0:
256,192,89900,1,0,0:0:0:0:
256,192,89973,1,0,0:0:0:0:
256,192,90046,1,0,0:0:0:0:
256,192,90193,1,8,0:0:0:0:
256,192,90339,1,0,0:0:0:0:
256,192,90414,1,0,0:0:0:0:
256,192,90489,1,0,0:0:0:0:
256,192,90639,1,8,0:0:0:0:
256,192,90789,1,0,0:0:0:0:
256,192,90864,1,0,0:0:0:0:
256,192,90939,1,0,0:0:0:0:
256,192,91092,1,8,0:0:0:0:
256,192,91246,1,0,0:0:0:0:
256,192,91323,1,0,0:0:0:0:
256,192,91400,1,0,0:0:0:0:
256,192,91554,1,8,0:0:0:0:
256,192,91632,1,0,0:0:0:0:
256,192,91711,1,8,0:0:0:0:
256,192,91790,1,0,0:0:0:0:
256,192,91869,1,8,0:0:0:0:
256,192,92027,1,8,0:0:0:0:
256,192,92186,1,0,0:0:0:0:
256,192,92348,1,0,0:0:0:0:
256,192,92510,1,0,0:0:0:0:
256,192,92672,1,0,0:0:0:0:
256,192,92834,1,0,0:0:0:0:
256,192,92996,1,0,0:0:0:0:
256,192,93158,1,0,0:0:0:0:
256,192,93321,1,0,0:0:0:0:
256,192,93483,1,8,0:0:0:0:
256,192,93564,1,8,0:0:0:0:
256,192,93645,1,8,0:0:0:0:
256,192,93726,1,8,0:0:0:0:
256,192,93807,1,8,0:0:0:0:
256,192,93888,1,8,0:0:0:0:
256,192,93969,1,8,0:0:0:0:
256,192,94050,1,8,0:0:0:0:
256,192,94131,1,8,0:0:0:0:
256,192,94213,1,8,0:0:0:0:
256,192,94294,1,0,0:0:0:0:
256,192,94375,1,0,0:0:0:0:
256,192,94456,1,8,0:0:0:0:
256,192,94537,1,0,0:0:0:0:
256,192,94618,1,8,0:0:0:0:
256,192,94780,1,0,0:0:0:0:
256,192,94861,1,0,0:0:0:0:
256,192,94942,1,0,0:0:0:0:
256,192,95023,1,0,0:0:0:0:
256,192,95104,1,8,0:0:0:0:
256,192,95267,1,8,0:0:0:0:
256,192,95348,1,0,0:0:0:0:
256,192,95510,1,8,0:0:0:0:
256,192,95591,1,0,0:0:0:0:
256,192,95672,1,0,0:0:0:0:
256,192,95753,1,8,0:0:0:0:
256,192,95834,1,8,0:0:0:0:
256,192,95915,1,0,0:0:0:0:
256,192,96077,1,0,0:0:0:0:
256,192,96240,1,8,0:0:0:0:
256,192,96321,1,0,0:0:0:0:
256,192,96402,1,8,0:0:0:0:
256,192,96564,1,8,0:0:0:0:
256,192,96645,1,0,0:0:0:0:
256,192,96807,1,8,0:0:0:0:
256,192,96888,1,0,0:0:0:0:
256,192,96969,1,0,0:0:0:0:
256,192,97050,1,8,0:0:0:0:
256,192,97213,1,0,0:0:0:0:
256,192,97294,1,8,0:0:0:0:
256,192,97375,1,0,0:0:0:0:
256,192,97456,1,0,0:0:0:0:
256,192,97537,1,0,0:0:0:0:
256,192,97618,1,0,0:0:0:0:
256,192,97699,1,8,0:0:0:0:
256,192,97861,1,0,0:0:0:0:
256,192,97942,1,0,0:0:0:0:
256,192,98104,1,8,0:0:0:0:
256,192,98186,1,0,0:0:0:0:
256,192,98267,1,0,0:0:0:0:
256,192,98348,1,8,0:0:0:0:
256,192,98510,1,8,0:0:0:0:
256,192,98591,1,0,0:0:0:0:
256,192,98672,1,0,0:0:0:0:
256,192,98753,1,8,0:0:0:0:
256,192,98834,1,8,0:0:0:0:
256,192,98996,1,8,0:0:0:0:
256,192,99158,1,8,0:0:0:0:
256,192,99240,1,0,0:0:0:0:
256,192,99321,1,8,0:0:0:0:
256,192,99375,1,0,0:0:0:0:
256,192,99429,1,0,0:0:0:0:
256,192,99483,1,8,0:0:0:0:
256,192,99564,1,0,0:0:0:0:
256,192,99645,1,8,0:0:0:0:
256,192,99726,1,0,0:0:0:0:
256,192,99807,1,0,0:0:0:0:
256,192,99888,1,8,0:0:0:0:
256,192,99969,1,0,0:0:0:0:
256,192,100131,1,8,0:0:0:0:
256,192,100213,1,0,0:0:0:0:
256,192,100294,1,8,0:0:0:0:
256,192,100456,1,8,0:0:0:0:
256,192,100537,1,0,0:0:0:0:
256,192,100699,1,8,0:0:0:0:
256,192,100780,1,0,0:0:0:0:
256,192,100861,1,0,0:0:0:0:
256,192,100942,1,8,0:0:0:0:
256,192,101023,1,0,0:0:0:0:
256,192,101104,1,8,0:0:0:0:
256,192,101267,1,0,0:0:0:0:
256,192,101429,1,8,0:0:0:0:
256,192,101510,1,0,0:0:0:0:
256,192,101591,1,8,0:0:0:0:
256,192,101753,1,0,0:0:0:0:
256,192,101834,1,0,0:0:0:0:
256,192,101996,1,8,0:0:0:0:
256,192,102077,1,0,0:0:0:0:
256,192,102158,1,0,0:0:0:0:
256,192,102240,1,8,0:0:0:0:
256,192,102402,1,0,0:0:0:0:
256,192,102483,1,8,0:0:0:0:
256,192,102564,1,0,0:0:0:0:
256,192,102726,1,0,0:0:0:0:
256,192,102807,1,0,0:0:0:0:
256,192,102888,1,8,0:0:0:0:
256,192,103050,1,8,0:0:0:0:
256,192,103131,1,0,0:0:0:0:
256,192,103213,1,8,0:0:0:0:
256,192,103294,1,8,0:0:0:0:
256,192,103375,1,0,0:0:0:0:
256,192,103537,1,8,0:0:0:0:
256,192,103699,1,0,0:0:0:0:
256,192,103780,1,8,0:0:0:0:
256,192,103861,1,0,0:0:0:0:
256,192,103942,1,0,0:0:0:0:
256,192,104023,1,8,0:0:0:0:
256,192,104104,1,0,0:0:0:0:
256,192,104185,1,8,0:0:0:0:
256,192,104226,1,8,0:0:0:0:
256,192,104267,1,0,0:0:0:0:
256,192,104348,1,8,0:0:0:0:
256,192,104429,1,8,0:0:0:0:
256,192,104510,1,0,0:0:0:0:
256,192,104672,1,0,0:0:0:0:
256,192,104834,1,8,0:0:0:0:
256,192,104996,1,8,0:0:0:0:
256,192,105158,1,0,0:0:0:0:
256,192,105240,1,0,0:0:0:0:
256,192,105321,1,0,0:0:0:0:
256,192,105402,1,0,0:0:0:0:
256,192,105483,1,8,0:0:0:0:
256,192,105645,1,0,0:0:0:0:
256,192,105726,1,0,0:0:0:0:
256,192,105807,1,0,0:0:0:0:
256,192,105888,1,0,0:0:0:0:
256,192,105969,1,8,0:0:0:0:
256,192,106050,1,0,0:0:0:0:
256,192,106131,1,8,0:0:0:0:
256,192,106294,1,0,0:0:0:0:
256,192,106375,1,8,0:0:0:0:
256,192,106456,1,0,0:0:0:0:
256,192,106618,1,0,0:0:0:0:
256,192,106699,1,0,0:0:0:0:
256,192,106780,1,8,0:0:0:0:
256,192,106942,1,8,0:0:0:0:
256,192,107023,1,0,0:0:0:0:
256,192,107185,1,0,0:0:0:0:
256,192,107267,1,0,0:0:0:0:
256,192,107348,1,0,0:0:0:0:
256,192,107429,1,8,0:0:0:0:
256,192,107591,1,0,0:0:0:0:
256,192,107672,1,8,0:0:0:0:
256,192,107753,1,0,0:0:0:0:
256,192,107834,1,0,0:0:0:0:
256,192,107915,1,0,0:0:0:0:
256,192,107996,1,0,0:0:0:0:
256,192,108077,1,8,0:0:0:0:
256,192,108240,1,0,0:0:0:0:
256,192,108321,1,0,0:0:0:0:
256,192,108483,1,8,0:0:0:0:
256,192,108564,1,0,0:0:0:0:
256,192,108645,1,0,0:0:0:0:
256,192,108726,1,8,0:0:0:0:
256,192,108807,1,0,0:0:0:0:
256,192,108888,1,0,0:0:0:0:
256,192,109050,1,0,0:0:0:0:
256,192,109131,1,0,0:0:0:0:
256,192,109213,1,0,0:0:0:0:
256,192,109294,1,0,0:0:0:0:
256,192,109375,1,8,0:0:0:0:
256,192,109537,1,0,0:0:0:0:
256,192,109618,1,8,0:0:0:0:
256,192,109699,1,0,0:0:0:0:
256,192,109780,1,0,0:0:0:0:
256,192,109861,1,0,0:0:0:0:
256,192,110023,1,8,0:0:0:0:
256,192,110104,1,8,0:0:0:0:
256,192,110185,1,0,0:0:0:0:
256,192,110348,1,0,0:0:0:0:
256,192,110429,1,8,0:0:0:0:
256,192,110510,1,0,0:0:0:0:
256,192,110591,1,0,0:0:0:0:
256,192,110672,1,8,0:0:0:0:
256,192,110753,1,0,0:0:0:0:
256,192,110834,1,8,0:0:0:0:
256,192,110915,1,0,0:0:0:0:
256,192,111077,1,8,0:0:0:0:
256,192,111158,1,0,0:0:0:0:
256,192,111240,1,8,0:0:0:0:
256,192,111321,1,8,0:0:0:0:
256,192,111402,1,0,0:0:0:0:
256,192,111483,1,0,0:0:0:0:
256,192,111645,1,0,0:0:0:0:
256,192,111726,1,0,0:0:0:0:
256,192,111807,1,0,0:0:0:0:
256,192,111888,1,0,0:0:0:0:
256,192,111969,1,8,0:0:0:0:
256,192,112131,1,0,0:0:0:0:
256,192,112213,1,0,0:0:0:0:
256,192,112375,1,8,0:0:0:0:
256,192,112456,1,0,0:0:0:0:
256,192,112537,1,0,0:0:0:0:
256,192,112618,1,8,0:0:0:0:
256,192,112780,1,0,0:0:0:0:
256,192,112861,1,8,0:0:0:0:
256,192,112942,1,0,0:0:0:0:
256,192,113023,1,0,0:0:0:0:
256,192,113104,1,0,0:0:0:0:
256,192,113185,1,0,0:0:0:0:
256,192,113267,1,8,0:0:0:0:
256,192,113429,1,8,0:0:0:0:
256,192,113510,1,0,0:0:0:0:
256,192,113591,1,8,0:0:0:0:
256,192,113672,1,8,0:0:0:0:
256,192,113753,1,0,0:0:0:0:
256,192,113915,1,8,0:0:0:0:
256,192,114077,1,0,0:0:0:0:
256,192,114158,1,8,0:0:0:0:
256,192,114240,1,0,0:0:0:0:
256,192,114321,1,0,0:0:0:0:
256,192,114402,1,8,0:0:0:0:
256,192,114442,1,8,0:0:0:0:
256,192,114483,1,0,0:0:0:0:
256,192,114564,1,8,0:0:0:0:
256,192,114645,1,0,0:0:0:0:
256,192,114726,1,8,0:0:0:0:
256,192,114807,1,8,0:0:0:0:
256,192,114888,1,0,0:0:0:0:
256,192,115050,1,0,0:0:0:0:
256,192,115213,1,8,0:0:0:0:
256,192,115375,1,8,0:0:0:0:
256,192,115537,1,0,0:0:0:0:
256,192,115618,1,8,0:0:0:0:
256,192,115699,1,0,0:0:0:0:
256,192,115753,1,0,0:0:0:0:
256,192,115807,1,0,0:0:0:0:
256,192,115861,1,8,0:0:0:0:
256,192,115942,1,0,0:0:0:0:
256,192,116023,1,8,0:0:0:0:
256,192,116104,1,0,0:0:0:0:
256,192,116267,1,0,0:0:0:0:
256,192,116348,1,0,0:0:0:0:
256,192,116429,1,0,0:0:0:0:
256,192,116510,1,8,0:0:0:0:
256,192,116672,1,0,0:0:0:0:
256,192,116753,1,8,0:0:0:0:
256,192,116834,1,0,0:0:0:0:
256,192,116915,1,0,0:0:0:0:
256,192,116996,1,0,0:0:0:0:
256,192,117158,1,8,0:0:0:0:
256,192,117240,1,0,0:0:0:0:
256,192,117321,1,0,0:0:0:0:
256,192,117402,1,0,0:0:0:0:
256,192,117564,1,8,0:0:0:0:
256,192,117645,1,0,0:0:0:0:
256,192,117726,1,0,0:0:0:0:
256,192,117807,1,8,0:0:0:0:
256,192,117861,1,8,0:0:0:0:
256,192,117915,1,8,0:0:0:0:
256,192,117969,1,0,0:0:0:0:
256,192,118050,1,8,0:0:0:0:
256,192,118131,1,0,0:0:0:0:
256,192,118213,1,0,0:0:0:0:
256,192,118294,1,8,0:0:0:0:
256,192,118375,1,0,0:0:0:0:
256,192,118456,1,8,0:0:0:0:
256,192,118618,1,8,0:0:0:0:
256,192,118699,1,0,0:0:0:0:
256,192,118780,1,0,0:0:0:0:
256,192,118861,1,8,0:0:0:0:
256,192,118942,1,0,0:0:0:0:
256,192,119104,1,8,0:0:0:0:
256,192,119267,1,8,0:0:0:0:
256,192,119348,1,8,0:0:0:0:
256,192,119429,1,0,0:0:0:0:
256,192,119510,1,8,0:0:0:0:
256,192,119591,1,8,0:0:0:0:
256,192,119753,1,8,0:0:0:0:
256,192,119915,1,8,0:0:0:0:
256,192,119996,1,0,0:0:0:0:
256,192,120077,1,8,0:0:0:0:
256,192,120131,1,0,0:0:0:0:
256,192,120185,1,0,0:0:0:0:
256,192,120240,1,8,0:0:0:0:
256,192,120321,1,0,0:0:0:0:
256,192,120402,1,8,0:0:0:0:
256,192,120483,1,0,0:0:0:0:
256,192,120564,1,0,0:0:0:0:
256,192,120645,1,8,0:0:0:0:
256,192,120726,1,0,0:0:0:0:
256,192,120888,1,0,0:0:0:0:
256,192,120969,1,0,0:0:0:0:
256,192,121050,1,8,0:0:0:0:
256,192,121213,1,8,0:0:0:0:
256,192,121294,1,0,0:0:0:0:
256,192,121456,1,8,0:0:0:0:
256,192,121537,1,0,0:0:0:0:
256,192,121618,1,0,0:0:0:0:
256,192,121699,1,8,0:0:0:0:
256,192,121780,1,0,0:0:0:0:
256,192,121861,1,8,0:0:0:0:
256,192,121915,1,8,0:0:0:0:
256,192,121969,1,8,0:0:0:0:
256,192,122023,1,0,0:0:0:0:
256,192,122186,1,8,0:0:0:0:
256,192,122267,1,0,0:0:0:0:
256,192,122348,1,8,0:0:0:0:
256,192,122510,1,0,0:0:0:0:
256,192,122591,1,0,0:0:0:0:
256,192,122753,1,8,0:0:0:0:
256,192,122834,1,0,0:0:0:0:
256,192,122915,1,0,0:0:0:0:
256,192,122996,1,8,0:0:0:0:
256,192,123158,1,0,0:0:0:0:
256,192,123240,1,8,0:0:0:0:
256,192,123321,1,0,0:0:0:0:
256,192,123375,1,0,0:0:0:0:
256,192,123429,1,0,0:0:0:0:
256,192,123483,1,8,0:0:0:0:
256,192,123564,1,0,0:0:0:0:
256,192,123645,1,8,0:0:0:0:
256,192,123807,1,8,0:0:0:0:
256,192,123888,1,0,0:0:0:0:
256,192,123969,1,8,0:0:0:0:
256,192,124050,1,0,0:0:0:0:
256,192,124131,1,0,0:0:0:0:
256,192,124294,1,8,0:0:0:0:
256,192,124456,1,8,0:0:0:0:
256,192,124537,1,8,0:0:0:0:
256,192,124618,1,0,0:0:0:0:
256,192,124699,1,0,0:0:0:0:
256,192,124780,1,8,0:0:0:0:
256,192,124821,1,8,0:0:0:0:
256,192,124861,1,0,0:0:0:0:
256,192,124942,1,8,0:0:0:0:
256,192,125023,1,0,0:0:0:0:
256,192,125104,1,8,0:0:0:0:
256,192,125185,1,8,0:0:0:0:
256,192,125267,1,0,0:0:0:0:
256,192,125429,1,8,0:0:0:0:
256,192,125591,1,0,0:0:0:0:
256,192,125753,1,0,0:0:0:0:
256,192,125915,1,0,0:0:0:0:
256,192,125996,1,0,0:0:0:0:
256,192,126077,1,8,0:0:0:0:
256,192,126158,1,0,0:0:0:0:
256,192,126239,1,8,0:0:0:0:
256,192,126320,1,8,0:0:0:0:
256,192,126401,1,0,0:0:0:0:
256,192,126482,1,0,0:0:0:0:
256,192,126564,1,0,0:0:0:0:
256,192,126645,1,8,0:0:0:0:
256,192,126726,1,8,0:0:0:0:
256,192,126807,1,0,0:0:0:0:
256,192,126888,1,8,0:0:0:0:
256,192,126969,1,8,0:0:0:0:
256,192,127050,1,0,0:0:0:0:
256,192,127131,1,0,0:0:0:0:
256,192,127213,1,8,0:0:0:0:
256,192,127294,1,0,0:0:0:0:
256,192,127375,1,0,0:0:0:0:
256,192,127456,1,0,0:0:0:0:
256,192,127537,1,8,0:0:0:0:
256,192,127618,1,8,0:0:0:0:
256,192,127699,1,8,0:0:0:0:
256,192,127780,1,0,0:0:0:0:
256,192,127862,1,0,0:0:0:0:
256,192,127943,1,8,0:0:0:0:
256,192,128024,1,0,0:0:0:0:
256,192,128105,1,0,0:0:0:0:
256,192,128186,1,8,0:0:0:0:
256,192,128267,1,0,0:0:0:0:
256,192,128348,1,8,0:0:0:0:
256,192,128429,1,8,0:0:0:0:
256,192,128510,1,0,0:0:0:0:
256,192,128591,1,0,0:0:0:0:
256,192,128672,1,8,0:0:0:0:
256,192,128753,1,0,0:0:0:0:
256,192,128834,1,8,0:0:0:0:
256,192,128915,1,8,0:0:0:0:
256,192,128996,1,0,0:0:0:0:
256,192,129077,1,8,0:0:0:0:
256,192,129159,1,8,0:0:0:0:
256,192,129240,1,8,0:0:0:0:
256,192,129321,1,0,0:0:0:0:
256,192,129402,1,0,0:0:0:0:
256,192,129483,1,8,0:0:0:0:
256,192,129564,1,0,0:0:0:0:
256,192,129645,1,8,0:0:0:0:
256,192,129726,1,8,0:0:0:0:
256,192,129807,1,0,0:0:0:0:
256,192,129888,1,0,0:0:0:0:
256,192,129969,1,8,0:0:0:0:
256,192,130050,1,0,0:0:0:0:
256,192,130131,1,8,0:0:0:0:
256,192,130212,1,8,0:0:0:0:
256,192,130293,1,0,0:0:0:0:
256,192,130374,1,8,0:0:0:0:
256,192,130456,1,0,0:0:0:0:
256,192,130537,1,8,0:0:0:0:
256,192,130618,1,0,0:0:0:0:
256,192,130699,1,8,0:0:0:0:
256,192,130780,1,8,0:0:0:0:
256,192,130861,1,8,0:0:0:0:
256,192,130942,1,0,0:0:0:0:
256,192,131023,1,8,0:0:0:0:
256,192,131104,1,0,0:0:0:0:
256,192,131266,1,0,0:0:0:0:
256,192,131428,1,8,0:0:0:0:
256,192,131510,1,0,0:0:0:0:
256,192,131590,1,8,0:0:0:0:
256,192,131753,1,0,0:0:0:0:
256,192,131834,1,8,0:0:0:0:
256,192,131915,1,0,0:0:0:0:
256,192,132077,1,8,0:0:0:0:
256,192,132239,1,0,0:0:0:0:
256,192,132402,1,0,0:0:0:0:
256,192,132483,1,0,0:0:0:0:
256,192,132564,1,8,0:0:0:0:
256,192,132726,1,8,0:0:0:0:
256,192,132888,1,0,0:0:0:0:
256,192,133051,1,8,0:0:0:0:
256,192,133132,1,8,0:0:0:0:
256,192,133213,1,0,0:0:0:0:
256,192,133294,1,0,0:0:0:0:
256,192,133375,1,8,0:0:0:0:
256,192,133537,1,0,0:0:0:0:
256,192,133699,1,4,0:0:0:0:
256,192,134023,1,8,0:0:0:0:
256,192,134185,1,4,0:0:0:0:
256,192,134510,1,8,0:0:0:0:
256,192,134672,1,4,0:0:0:0:
256,192,134996,1,8,0:0:0:0:
256,192,135158,1,4,0:0:0:0:
256,192,135645,1,4,0:0:0:0:
256,192,135888,1,4,0:0:0:0:
256,192,136131,1,4,0:0:0:0:
256,192,136294,1,4,0:0:0:0:
256,192,136618,1,8,0:0:0:0:
256,192,136699,1,0,0:0:0:0:
256,192,136780,1,8,0:0:0:0:
256,192,136861,1,0,0:0:0:0:
256,192,136942,1,0,0:0:0:0:
256,192,137022,1,0,0:0:0:0:
256,192,137103,1,8,0:0:0:0:
256,192,137183,1,0,0:0:0:0:
256,192,137264,1,8,0:0:0:0:
256,192,137344,1,0,0:0:0:0:
256,192,137424,1,0,0:0:0:0:
256,192,137504,1,0,0:0:0:0:
256,192,137584,1,8,0:0:0:0:
256,192,137663,1,0,0:0:0:0:
256,192,137743,1,8,0:0:0:0:
256,192,137823,1,0,0:0:0:0:
256,192,137903,1,0,0:0:0:0:
256,192,137982,1,0,0:0:0:0:
256,192,138061,1,8,0:0:0:0:
256,192,138141,1,0,0:0:0:0:
256,192,138220,1,8,0:0:0:0:
256,192,138298,1,0,0:0:0:0:
256,192,138377,1,0,0:0:0:0:
256,192,138456,1,0,0:0:0:0:
256,192,138535,1,8,0:0:0:0:
256,192,138613,1,0,0:0:0:0:
256,192,138692,1,8,0:0:0:0:
256,192,138770,1,0,0:0:0:0:
256,192,138849,1,8,0:0:0:0:
256,192,139159,1,8,0:0:0:0:
256,192,139236,1,0,0:0:0:0:
256,192,139313,1,8,0:0:0:0:
256,192,139390,1,8,0:0:0:0:
256,192,139468,1,0,0:0:0:0:
256,192,139544,1,0,0:0:0:0:
256,192,139621,1,8,0:0:0:0:
256,192,139698,1,0,0:0:0:0:
256,192,139775,1,8,0:0:0:0:
256,192,139851,1,8,0:0:0:0:
256,192,139928,1,0,0:0:0:0:
256,192,140004,1,0,0:0:0:0:
256,192,140081,1,8,0:0:0:0:
256,192,140157,1,0,0:0:0:0:
256,192,140233,1,8,0:0:0:0:
256,192,140309,1,8,0:0:0:0:
256,192,140385,1,0,0:0:0:0:
256,192,140460,1,0,0:0:0:0:
256,192,140536,1,8,0:0:0:0:
256,192,140612,1,0,0:0:0:0:
256,192,140688,1,8,0:0:0:0:
256,192,140763,1,8,0:0:0:0:
256,192,140838,1,0,0:0:0:0:
256,192,140914,1,0,0:0:0:0:
256,192,140989,1,8,0:0:0:0:
256,192,141064,1,0,0:0:0:0:
256,192,141140,1,8,0:0:0:0:
256,192,141291,1,8,0:0:0:0:
256,192,141366,1,0,0:0:0:0:
256,192,141441,1,8,0:0:0:0:
256,192,141591,1,8,0:0:0:0:
256,192,141666,1,0,0:0:0:0:
256,192,141741,1,8,0:0:0:0:
256,192,141816,1,8,0:0:0:0:
256,192,141891,1,0,0:0:0:0:
256,192,141941,1,0,0:0:0:0:
256,192,141991,1,0,0:0:0:0:
256,192,142041,1,8,0:0:0:0:
256,192,142116,1,8,0:0:0:0:
256,192,142191,1,0,0:0:0:0:
256,192,142341,1,8,0:0:0:0:
256,192,142491,1,8,0:0:0:0:
256,192,142541,1,0,0:0:0:0:
256,192,142591,1,0,0:0:0:0:
256,192,142641,1,8,0:0:0:0:
256,192,142716,1,0,0:0:0:0:
256,192,142791,1,8,0:0:0:0:
256,192,142866,1,8,0:0:0:0:
256,192,142941,1,0,0:0:0:0:
256,192,143016,1,0,0:0:0:0:
256,192,143091,1,8,0:0:0:0:
256,192,143166,1,0,0:0:0:0:
256,192,143241,1,8,0:0:0:0:
256,192,143391,1,8,0:0:0:0:
256,192,143466,1,0,0:0:0:0:
256,192,143541,1,8,0:0:0:0:
256,192,143691,1,0,0:0:0:0:
256,192,143741,1,0,0:0:0:0:
256,192,143791,1,0,0:0:0:0:
256,192,143841,1,8,0:0:0:0:
256,192,143916,1,0,0:0:0:0:
256,192,143991,1,8,0:0:0:0:
256,192,144066,1,8,0:0:0:0:
256,192,144141,1,0,0:0:0:0:
256,192,144216,1,0,0:0:0:0:
256,192,144291,1,8,0:0:0:0:
256,192,144366,1,0,0:0:0:0:
256,192,144441,1,8,0:0:0:0:
256,192,144516,1,0,0:0:0:0:
256,192,144591,1,8,0:0:0:0:
256,192,144666,1,8,0:0:0:0:
256,192,144741,1,0,0:0:0:0:
256,192,144816,1,8,0:0:0:0:
256,192,144891,1,0,0:0:0:0:
256,192,144966,1,0,0:0:0:0:
256,192,145041,1,8,0:0:0:0:
256,192,145116,1,0,0:0:0:0:
256,192,145191,1,8,0:0:0:0:
256,192,145266,1,8,0:0:0:0:
256,192,145341,1,0,0:0:0:0:
256,192,145416,1,0,0:0:0:0:
256,192,145491,1,8,0:0:0:0:
256,192,145641,1,0,0:0:0:0:
256,192,145691,1,0,0:0:0:0:
256,192,145741,1,0,0:0:0:0:
256,192,145791,1,8,0:0:0:0:
256,192,145941,1,8,0:0:0:0:
256,192,146091,1,4,0:0:0:0:
256,192,146391,1,8,0:0:0:0:
256,192,146441,1,8,0:0:0:0:
256,192,146491,1,8,0:0:0:0:
256,192,146541,1,8,0:0:0:0:
256,192,146616,1,8,0:0:0:0:
256,192,146691,1,8,0:0:0:0:
256,192,146841,1,8,0:0:0:0:
256,192,146991,1,8,0:0:0:0:
256,192,147141,1,8,0:0:0:0:
256,192,147291,1,4,0:0:0:0:
256,192,147591,1,0,0:0:0:0:
256,192,147891,1,8,0:0:0:0:
256,192,147966,1,8,0:0:0:0:
256,192,148041,1,0,0:0:0:0:
256,192,148091,1,0,0:0:0:0:
256,192,148141,1,0,0:0:0:0:
256,192,148191,1,8,0:0:0:0:
256,192,148341,1,8,0:0:0:0:
256,192,148491,1,12,0:0:0:0:
256,192,148941,1,0,0:0:0:0:
256,192,148978,1,0,0:0:0:0:
256,192,149091,1,8,0:0:0:0:
256,192,149128,1,8,0:0:0:0:
256,192,149241,1,0,0:0:0:0:
256,192,149278,1,0,0:0:0:0:
256,192,149391,1,8,0:0:0:0:
256,192,149428,1,8,0:0:0:0:
256,192,149541,1,8,0:0:0:0:
256,192,149578,1,8,0:0:0:0:
256,192,149691,1,0,0:0:0:0:
256,192,149766,1,0,0:0:0:0:
256,192,149841,1,0,0:0:0:0:
256,192,149916,1,0,0:0:0:0:
256,192,149991,1,8,0:0:0:0:
256,192,150066,1,8,0:0:0:0:
256,192,150141,1,0,0:0:0:0:
256,192,150191,1,0,0:0:0:0:
256,192,150241,1,0,0:0:0:0:
256,192,150291,1,8,0:0:0:0:
256,192,150441,1,0,0:0:0:0:
256,192,150478,1,0,0:0:0:0:
256,192,150591,1,8,0:0:0:0:
256,192,150628,1,8,0:0:0:0:
256,192,150741,1,8,0:0:0:0:
256,192,150778,1,8,0:0:0:0:
256,192,150891,1,4,0:0:0:0:
256,192,151191,1,8,0:0:0:0:
256,192,151241,1,8,0:0:0:0:
256,192,151291,1,8,0:0:0:0:
256,192,151341,1,8,0:0:0:0:
256,192,151416,1,8,0:0:0:0:
256,192,151491,1,8,0:0:0:0:
256,192,151641,1,8,0:0:0:0:
256,192,151791,1,8,0:0:0:0:
256,192,151941,1,0,0:0:0:0:
256,192,152091,1,8,0:0:0:0:
256,192,152241,1,8,0:0:0:0:
256,192,152391,1,0,0:0:0:0:
256,192,152541,1,8,0:0:0:0:
256,192,152691,1,0,0:0:0:0:
256,192,152766,1,0,0:0:0:0:
256,192,152841,1,8,0:0:0:0:
256,192,152916,1,0,0:0:0:0:
256,192,152991,1,8,0:0:0:0:
256,192,153066,1,8,0:0:0:0:
256,192,153141,1,0,0:0:0:0:
256,192,153216,1,0,0:0:0:0:
256,192,153291,1,12,0:0:0:0:
256,192,153741,1,0,0:0:0:0:
256,192,153778,1,0,0:0:0:0:
256,192,153891,1,8,0:0:0:0:
256,192,153928,1,8,0:0:0:0:
256,192,154041,1,0,0:0:0:0:
256,192,154078,1,0,0:0:0:0:
256,192,154191,1,8,0:0:0:0:
256,192,154228,1,8,0:0:0:0:
256,192,154341,1,8,0:0:0:0:
256,192,154378,1,8,0:0:0:0:
256,192,154491,1,0,0:0:0:0:
256,192,154566,1,0,0:0:0:0:
256,192,154641,1,8,0:0:0:0:
256,192,154716,1,0,0:0:0:0:
256,192,154791,1,8,0:0:0:0:
256,192,154866,1,8,0:0:0:0:
256,192,154941,1,0,0:0:0:0:
256,192,155091,1,8,0:0:0:0:
256,192,155166,1,8,0:0:0:0:
256,192,155241,1,8,0:0:0:0:
256,192,155316,1,8,0:0:0:0:
256,192,155391,1,8,0:0:0:0:
256,192,155466,1,8,0:0:0:0:
256,192,155541,1,0,0:0:0:0:
256,192,155616,1,0,0:0:0:0:
256,192,155691,1,12,0:0:0:0:
256,192,155991,1,8,0:0:0:0:
256,192,156041,1,8,0:0:0:0:
256,192,156091,1,8,0:0:0:0:
256,192,156141,1,8,0:0:0:0:
256,192,156216,1,8,0:0:0:0:
256,192,156291,1,8,0:0:0:0:
256,192,156441,1,8,0:0:0:0:
256,192,156591,1,8,0:0:0:0:
256,192,156741,1,0,0:0:0:0:
256,192,156891,1,8,0:0:0:0:
256,192,157041,1,8,0:0:0:0:
256,192,157191,1,0,0:0:0:0:
256,192,157341,1,8,0:0:0:0:
256,192,157491,1,0,0:0:0:0:
256,192,157541,1,0,0:0:0:0:
256,192,157591,1,0,0:0:0:0:
256,192,157641,1,8,0:0:0:0:
256,192,157716,1,0,0:0:0:0:
256,192,157791,1,8,0:0:0:0:
256,192,157866,1,8,0:0:0:0:
256,192,157941,1,0,0:0:0:0:
256,192,158016,1,0,0:0:0:0:
256,192,158091,1,12,0:0:0:0:
256,192,158541,1,0,0:0:0:0:
256,192,158578,1,0,0:0:0:0:
256,192,158691,1,8,0:0:0:0:
256,192,158728,1,8,0:0:0:0:
256,192,158841,1,0,0:0:0:0:
256,192,158878,1,0,0:0:0:0:
256,192,158991,1,8,0:0:0:0:
256,192,159028,1,8,0:0:0:0:
256,192,159141,1,8,0:0:0:0:
256,192,159178,1,8,0:0:0:0:
256,192,159291,1,0,0:0:0:0:
256,192,159366,1,0,0:0:0:0:
256,192,159441,1,8,0:0:0:0:
256,192,159516,1,0,0:0:0:0:
256,192,159591,1,8,0:0:0:0:
256,192,159666,1,8,0:0:0:0:
256,192,159741,1,0,0:0:0:0:
256,192,159816,1,0,0:0:0:0:
256,192,159891,1,12,0:0:0:0:
256,192,160191,1,12,0:0:0:0:
256,192,160491,1,0,0:0:0:0:
256,192,160566,1,0,0:0:0:0:
256,192,160641,1,0,0:0:0:0:
256,192,160716,1,0,0:0:0:0:
256,192,160866,1,8,0:0:0:0:
256,192,160941,1,0,0:0:0:0:
256,192,161091,1,0,0:0:0:0:
256,192,161241,1,0,0:0:0:0:
256,192,161316,1,8,0:0:0:0:
256,192,161391,1,0,0:0:0:0:
256,192,161541,1,0,0:0:0:0:
256,192,161691,1,8,0:0:0:0:
256,192,161766,1,0,0:0:0:0:
256,192,161916,1,8,0:0:0:0:
256,192,161991,1,0,0:0:0:0:
256,192,162066,1,0,0:0:0:0:
256,192,162141,1,0,0:0:0:0:
256,192,162291,1,0,0:0:0:0:
256,192,162516,1,0,0:0:0:0:
256,192,162591,1,0,0:0:0:0:
256,192,162741,1,0,0:0:0:0:
256,192,162891,1,8,0:0:0:0:
256,192,163116,1,0,0:0:0:0:
256,192,163191,1,0,0:0:0:0:
256,192,163266,1,0,0:0:0:0:
256,192,163341,1,8,0:0:0:0:
256,192,163491,1,0,0:0:0:0:
256,192,163566,1,8,0:0:0:0:
256,192,163641,1,0,0:0:0:0:
256,192,163791,1,0,0:0:0:0:
256,192,163866,1,8,0:0:0:0:
256,192,163941,1,0,0:0:0:0:
256,192,164091,1,0,0:0:0:0:
256,192,164166,1,0,0:0:0:0:
256,192,164241,1,8,0:0:0:0:
256,192,164316,1,0,0:0:0:0:
256,192,164466,1,8,0:0:0:0:
256,192,164541,1,0,0:0:0:0:
256,192,164691,1,0,0:0:0:0:
256,192,164991,1,0,0:0:0:0:
256,192,165291,1,0,0:0:0:0:
256,192,165366,1,0,0:0:0:0:
256,192,165441,1,8,0:0:0:0:
256,192,165516,1,0,0:0:0:0:
256,192,165666,1,8,0:0:0:0:
256,192,165741,1,0,0:0:0:0:
256,192,165816,1,8,0:0:0:0:
256,192,165891,1,0,0:0:0:0:
256,192,166041,1,8,0:0:0:0:
256,192,166116,1,0,0:0:0:0:
256,192,166341,1,0,0:0:0:0:
256,192,166416,1,0,0:0:0:0:
256,192,166491,1,8,0:0:0:0:
256,192,166566,1,0,0:0:0:0:
256,192,166716,1,8,0:0:0:0:
256,192,166791,1,0,0:0:0:0:
256,192,166941,1,8,0:0:0:0:
256,192,167016,1,0,0:0:0:0:
256,192,167091,1,0,0:0:0:0:
256,192,167166,1,8,0:0:0:0:
256,192,167241,1,0,0:0:0:0:
256,192,167541,1,0,0:0:0:0:
256,192,167616,1,8,0:0:0:0:
256,192,167691,1,0,0:0:0:0:
256,192,167841,1,8,0:0:0:0:
256,192,167916,1,0,0:0:0:0:
256,192,168066,1,8,0:0:0:0:
256,192,168141,1,0,0:0:0:0:
256,192,168216,1,8,0:0:0:0:
256,192,168291,1,0,0:0:0:0:
256,192,168441,1,8,0:0:0:0:
256,192,168516,1,0,0:0:0:0:
256,192,168741,1,0,0:0:0:0:
256,192,168891,1,8,0:0:0:0:
256,192,168966,1,0,0:0:0:0:
256,192,169191,1,0,0:0:0:0:
256,192,169341,1,8,0:0:0:0:
256,192,169416,1,0,0:0:0:0:
256,192,169641,1,0,0:0:0:0:
256,192,169716,1,8,0:0:0:0:
256,192,169791,1,0,0:0:0:0:
256,192,169866,1,8,0:0:0:0:
256,192,169941,1,0,0:0:0:0:
256,192,170016,1,0,0:0:0:0:
256,192,170091,1,8,0:0:0:0:
256,192,170316,1,0,0:0:0:0:
256,192,170466,1,8,0:0:0:0:
256,192,170541,1,0,0:0:0:0:
256,192,170691,1,0,0:0:0:0:
256,192,170841,1,8,0:0:0:0:
256,192,170916,1,8,0:0:0:0:
256,192,170991,1,0,0:0:0:0:
256,192,171141,1,8,0:0:0:0:
256,192,171291,1,0,0:0:0:0:
256,192,171366,1,0,0:0:0:0:
256,192,171516,1,8,0:0:0:0:
256,192,171591,1,0,0:0:0:0:
256,192,171741,1,0,0:0:0:0:
256,192,171816,1,8,0:0:0:0:
256,192,171891,1,0,0:0:0:0:
256,192,172116,1,0,0:0:0:0:
256,192,172266,1,8,0:0:0:0:
256,192,172341,1,0,0:0:0:0:
256,192,172491,1,0,0:0:0:0:
256,192,172641,1,8,0:0:0:0:
256,192,172716,1,0,0:0:0:0:
256,192,172941,1,8,0:0:0:0:
256,192,173016,1,0,0:0:0:0:
256,192,173091,1,0,0:0:0:0:
256,192,173166,1,8,0:0:0:0:
256,192,173241,1,0,0:0:0:0:
256,192,173391,1,0,0:0:0:0:
256,192,173466,1,8,0:0:0:0:
256,192,173541,1,0,0:0:0:0:
256,192,173616,1,8,0:0:0:0:
256,192,173691,1,0,0:0:0:0:
256,192,173841,1,8,0:0:0:0:
256,192,173916,1,0,0:0:0:0:
256,192,174066,1,8,0:0:0:0:
256,192,174141,1,0,0:0:0:0:
256,192,174291,1,0,0:0:0:0:
256,192,174591,1,0,0:0:0:0:
256,192,174891,1,0,0:0:0:0:
256,192,175041,1,8,0:0:0:0:
256,192,175116,1,0,0:0:0:0:
256,192,175266,1,8,0:0:0:0:
256,192,175341,1,0,0:0:0:0:
256,192,175416,1,8,0:0:0:0:
256,192,175491,1,0,0:0:0:0:
256,192,175716,1,0,0:0:0:0:
256,192,175866,1,8,0:0:0:0:
256,192,175941,1,0,0:0:0:0:
256,192,176166,1,0,0:0:0:0:
256,192,176241,1,0,0:0:0:0:
256,192,176391,1,0,0:0:0:0:
256,192,176541,1,8,0:0:0:0:
256,192,176616,1,0,0:0:0:0:
256,192,176841,1,0,0:0:0:0:
256,192,177141,1,0,0:0:0:0:
256,192,177216,1,8,0:0:0:0:
256,192,177291,1,0,0:0:0:0:
256,192,177441,1,8,0:0:0:0:
256,192,177516,1,0,0:0:0:0:
256,192,177741,1,0,0:0:0:0:
256,192,177816,1,8,0:0:0:0:
256,192,177891,1,0,0:0:0:0:
256,192,178041,1,8,0:0:0:0:
256,192,178116,1,0,0:0:0:0:
256,192,178266,1,8,0:0:0:0:
256,192,178341,1,0,0:0:0:0:
256,192,178491,1,8,0:0:0:0:
256,192,178566,1,0,0:0:0:0:
256,192,178716,1,8,0:0:0:0:
256,192,178791,1,0,0:0:0:0:
256,192,178866,1,0,0:0:0:0:
256,192,178941,1,0,0:0:0:0:
256,192,179016,1,0,0:0:0:0:
256,192,179091,1,0,0:0:0:0:
256,192,179166,1,8,0:0:0:0:
256,192,179691,1,4,0:0:0:0:
284,159,188091,5,8,0:0:0:0:
256,192,188237,5,0,0:0:0:0:
256,192,188383,1,0,0:0:0:0:
256,192,188525,1,8,0:0:0:0:
256,192,188668,1,0,0:0:0:0:
256,192,188807,1,8,0:0:0:0:
256,192,188947,1,8,0:0:0:0:
256,192,189083,1,0,0:0:0:0:
256,192,189219,1,8,0:0:0:0:
256,192,189486,1,0,0:0:0:0:
256,192,189620,1,8,0:0:0:0:
256,192,189753,1,0,0:0:0:0:
256,192,190020,1,8,0:0:0:0:
256,192,190286,1,8,0:0:0:0:
256,192,190553,1,0,0:0:0:0:
256,192,190686,1,0,0:0:0:0:
256,192,190820,1,8,0:0:0:0:
256,192,191086,1,0,0:0:0:0:
256,192,191220,1,8,0:0:0:0:
256,192,191353,1,0,0:0:0:0:
256,192,191620,1,0,0:0:0:0:
256,192,191753,1,8,0:0:0:0:
256,192,191886,1,0,0:0:0:0:
256,192,192020,1,8,0:0:0:0:
256,192,192153,1,8,0:0:0:0:
256,192,192286,1,0,0:0:0:0:
256,192,192420,1,8,0:0:0:0:
256,192,192553,1,0,0:0:0:0:
256,192,192686,1,0,0:0:0:0:
256,192,192820,1,0,0:0:0:0:
256,192,192953,1,8,0:0:0:0:
256,192,193086,1,0,0:0:0:0:
256,192,193220,1,0,0:0:0:0:
256,192,193353,1,0,0:0:0:0:
256,192,193486,1,8,0:0:0:0:
256,192,193620,1,8,0:0:0:0:
256,192,193753,1,0,0:0:0:0:
256,192,193886,1,0,0:0:0:0:
256,192,194020,1,8,0:0:0:0:
256,192,194153,1,0,0:0:0:0:
256,192,194286,1,8,0:0:0:0:
256,192,194420,1,0,0:0:0:0:
256,192,194553,1,8,0:0:0:0:
256,192,194686,1,0,0:0:0:0:
256,192,194820,1,0,0:0:0:0:
256,192,194952,1,0,0:0:0:0:
256,192,195085,1,8,0:0:0:0:
256,192,195219,1,0,0:0:0:0:
256,192,195352,1,8,0:0:0:0:
256,192,195485,1,0,0:0:0:0:
256,192,195619,1,0,0:0:0:0:
256,192,195685,1,0,0:0:0:0:
256,192,195752,1,8,0:0:0:0:
256,192,195819,1,0,0:0:0:0:
256,192,195885,1,8,0:0:0:0:
256,192,195952,1,8,0:0:0:0:
256,192,196019,1,0,0:0:0:0:
256,192,196085,1,0,0:0:0:0:
256,192,196152,1,8,0:0:0:0:
256,192,196219,1,8,0:0:0:0:
256,192,196285,1,0,0:0:0:0:
256,192,196352,1,0,0:0:0:0:
256,192,196419,1,8,0:0:0:0:
256,192,196485,1,8,0:0:0:0:
256,192,196552,1,8,0:0:0:0:
256,192,196620,1,0,0:0:0:0:
256,192,196685,1,8,0:0:0:0:
256,192,197219,1,0,0:0:0:0:
256,192,197752,1,0,0:0:0:0:
256,192,197886,1,8,0:0:0:0:
256,192,198019,1,0,0:0:0:0:
256,192,198086,1,0,0:0:0:0:
256,192,198153,1,8,0:0:0:0:
256,192,198286,1,0,0:0:0:0:
256,192,198353,1,0,0:0:0:0:
256,192,198419,1,8,0:0:0:0:
256,192,198486,1,8,0:0:0:0:
256,192,198552,1,0,0:0:0:0:
256,192,198619,1,8,0:0:0:0:
256,192,198685,1,8,0:0:0:0:
256,192,198819,1,0,0:0:0:0:
256,192,198886,1,0,0:0:0:0:
256,192,198953,1,8,0:0:0:0:
256,192,199086,1,0,0:0:0:0:
256,192,199219,1,8,0:0:0:0:
256,192,199286,1,8,0:0:0:0:
256,192,199353,1,0,0:0:0:0:
256,192,199486,1,8,0:0:0:0:
256,192,199553,1,8,0:0:0:0:
256,192,199619,1,0,0:0:0:0:
256,192,199686,1,8,0:0:0:0:
256,192,199753,1,8,0:0:0:0:
256,192,199886,1,0,0:0:0:0:
256,192,199953,1,0,0:0:0:0:
256,192,200019,1,8,0:0:0:0:
256,192,200153,1,0,0:0:0:0:
256,192,200219,1,8,0:0:0:0:
256,192,200286,1,8,0:0:0:0:
256,192,200419,1,0,0:0:0:0:
256,192,200486,1,8,0:0:0:0:
256,192,200553,1,8,0:0:0:0:
256,192,200619,1,8,0:0:0:0:
256,192,200686,1,0,0:0:0:0:
256,192,200819,1,8,0:0:0:0:
256,192,200953,1,0,0:0:0:0:
256,192,201019,1,8,0:0:0:0:
256,192,201086,1,0,0:0:0:0:
256,192,201219,1,0,0:0:0:0:
256,192,201286,1,8,0:0:0:0:
256,192,201353,1,8,0:0:0:0:
256,192,201419,1,8,0:0:0:0:
256,192,201486,1,0,0:0:0:0:
256,192,201553,1,0,0:0:0:0:
256,192,201619,1,8,0:0:0:0:
256,192,201753,1,8,0:0:0:0:
256,192,201819,1,0,0:0:0:0:
256,192,201886,1,8,0:0:0:0:
256,192,201953,1,8,0:0:0:0:
256,192,202019,1,0,0:0:0:0:
256,192,202219,1,8,0:0:0:0:
256,192,202286,1,0,0:0:0:0:
256,192,202419,1,8,0:0:0:0:
256,192,202553,1,0,0:0:0:0:
256,192,202619,1,8,0:0:0:0:
256,192,202686,1,8,0:0:0:0:
256,192,202753,1,8,0:0:0:0:
256,192,202819,1,0,0:0:0:0:
256,192,202953,1,8,0:0:0:0:
256,192,203019,1,8,0:0:0:0:
256,192,203086,1,0,0:0:0:0:
256,192,203153,1,8,0:0:0:0:
256,192,203219,1,8,0:0:0:0:
256,192,203286,1,8,0:0:0:0:
256,192,203353,1,0,0:0:0:0:
256,192,203419,1,0,0:0:0:0:
256,192,203486,1,8,0:0:0:0:
256,192,203619,1,0,0:0:0:0:
256,192,203686,1,0,0:0:0:0:
256,192,203753,1,8,0:0:0:0:
256,192,203819,1,8,0:0:0:0:
256,192,203886,1,0,0:0:0:0:
256,192,204019,1,0,0:0:0:0:
256,192,204153,1,0,0:0:0:0:
256,192,204219,1,8,0:0:0:0:
256,192,204286,1,8,0:0:0:0:
256,192,204419,1,0,0:0:0:0:
256,192,204486,1,0,0:0:0:0:
256,192,204553,1,8,0:0:0:0:
256,192,204686,1,0,0:0:0:0:
256,192,204753,1,8,0:0:0:0:
256,192,204819,1,8,0:0:0:0:
256,192,204886,1,8,0:0:0:0:
256,192,204953,1,0,0:0:0:0:
256,192,205086,1,8,0:0:0:0:
256,192,205153,1,8,0:0:0:0:
256,192,205219,1,0,0:0:0:0:
256,192,205286,1,0,0:0:0:0:
256,192,205353,1,8,0:0:0:0:
256,192,205419,1,0,0:0:0:0:
256,192,205486,1,8,0:0:0:0:
256,192,205553,1,8,0:0:0:0:
256,192,205619,1,0,0:0:0:0:
256,192,205753,1,0,0:0:0:0:
256,192,205819,1,0,0:0:0:0:
256,192,205886,1,8,0:0:0:0:
256,192,206019,1,0,0:0:0:0:
256,192,206086,1,0,0:0:0:0:
256,192,206153,1,8,0:0:0:0:
256,192,206219,1,8,0:0:0:0:
256,192,206286,1,0,0:0:0:0:
256,192,206486,1,8,0:0:0:0:
256,192,206553,1,0,0:0:0:0:
256,192,206686,1,8,0:0:0:0:
256,192,206819,1,0,0:0:0:0:
256,192,206886,1,8,0:0:0:0:
256,192,206953,1,0,0:0:0:0:
256,192,207086,1,8,0:0:0:0:
256,192,207153,1,0,0:0:0:0:
256,192,207219,1,8,0:0:0:0:
256,192,207286,1,8,0:0:0:0:
256,192,207353,1,0,0:0:0:0:
256,192,207419,1,8,0:0:0:0:
256,192,207486,1,0,0:0:0:0:
256,192,207619,1,0,0:0:0:0:
256,192,207686,1,8,0:0:0:0:
256,192,207753,1,8,0:0:0:0:
256,192,207886,1,0,0:0:0:0:
256,192,207953,1,0,0:0:0:0:
256,192,208019,1,8,0:0:0:0:
256,192,208153,1,8,0:0:0:0:
256,192,208219,1,0,0:0:0:0:
256,192,208286,1,8,0:0:0:0:
256,192,208353,1,8,0:0:0:0:
256,192,208419,1,0,0:0:0:0:
256,192,208553,1,8,0:0:0:0:
256,192,208686,1,0,0:0:0:0:
256,192,208753,1,0,0:0:0:0:
256,192,208819,1,8,0:0:0:0:
256,192,208886,1,8,0:0:0:0:
256,192,208953,1,0,0:0:0:0:
256,192,209019,1,8,0:0:0:0:
256,192,209086,1,8,0:0:0:0:
256,192,209153,1,8,0:0:0:0:
256,192,209219,1,0,0:0:0:0:
256,192,209353,1,0,0:0:0:0:
256,192,209486,1,0,0:0:0:0:
256,192,209553,1,0,0:0:0:0:
256,192,209619,1,8,0:0:0:0:
256,192,209753,1,0,0:0:0:0:
256,192,209819,1,8,0:0:0:0:
256,192,209886,1,8,0:0:0:0:
256,192,209953,1,8,0:0:0:0:
256,192,210019,1,0,0:0:0:0:
256,192,210086,1,8,0:0:0:0:
256,192,210153,1,0,0:0:0:0:
256,192,210286,1,0,0:0:0:0:
256,192,210353,1,0,0:0:0:0:
256,192,210419,1,8,0:0:0:0:
256,192,210486,1,0,0:0:0:0:
256,192,210553,1,0,0:0:0:0:
256,192,210753,1,8,0:0:0:0:
256,192,210819,1,0,0:0:0:0:
256,192,210953,1,8,0:0:0:0:
256,192,211018,1,8,0:0:0:0:
256,192,211085,1,0,0:0:0:0:
256,192,211152,1,8,0:0:0:0:
256,192,211218,1,8,0:0:0:0:
256,192,211352,1,0,0:0:0:0:
256,192,211418,1,8,0:0:0:0:
256,192,211485,1,8,0:0:0:0:
256,192,211618,1,0,0:0:0:0:
256,192,211685,1,0,0:0:0:0:
256,192,211752,1,8,0:0:0:0:
256,192,211886,1,0,0:0:0:0:
256,192,211953,1,0,0:0:0:0:
256,192,212019,1,8,0:0:0:0:
256,192,212153,1,0,0:0:0:0:
256,192,212219,1,0,0:0:0:0:
256,192,212286,1,8,0:0:0:0:
256,192,212353,1,8,0:0:0:0:
256,192,212419,1,0,0:0:0:0:
256,192,212486,1,8,0:0:0:0:
256,192,212553,1,0,0:0:0:0:
256,192,212619,1,0,0:0:0:0:
256,192,212686,1,8,0:0:0:0:
256,192,212819,1,8,0:0:0:0:
256,192,212953,1,0,0:0:0:0:
256,192,213019,1,8,0:0:0:0:
256,192,213086,1,8,0:0:0:0:
256,192,213153,1,8,0:0:0:0:
256,192,213219,1,0,0:0:0:0:
256,192,213286,1,0,0:0:0:0:
256,192,213353,1,8,0:0:0:0:
256,192,213419,1,0,0:0:0:0:
256,192,213486,1,0,0:0:0:0:
256,192,213553,1,8,0:0:0:0:
256,192,213619,1,0,0:0:0:0:
256,192,213753,1,12,0:0:0:0:
256,192,213886,1,12,0:0:0:0:
256,192,214153,1,12,0:0:0:0:
256,192,214286,1,12,0:0:0:0:
256,192,214553,1,12,0:0:0:0:
256,192,214686,1,12,0:0:0:0:
256,192,214819,1,8,0:0:0:0:
256,192,214886,1,8,0:0:0:0:
256,192,214953,1,0,0:0:0:0:
256,192,215019,1,0,0:0:0:0:
256,192,215086,1,8,0:0:0:0:
256,192,215153,1,0,0:0:0:0:
256,192,215219,1,8,0:0:0:0:
256,192,215286,1,8,0:0:0:0:
256,192,215353,1,0,0:0:0:0:
256,192,215486,1,0,0:0:0:0:
256,192,215553,1,0,0:0:0:0:
256,192,215619,1,8,0:0:0:0:
256,192,215753,1,8,0:0:0:0:
256,192,215886,1,8,0:0:0:0:
256,192,215953,1,8,0:0:0:0:
256,192,216019,1,0,0:0:0:0:
256,192,216086,1,8,0:0:0:0:
256,192,216153,1,0,0:0:0:0:
256,192,216219,1,0,0:0:0:0:
256,192,216286,1,8,0:0:0:0:
256,192,216353,1,8,0:0:0:0:
256,192,216419,1,0,0:0:0:0:
256,192,216553,1,8,0:0:0:0:
256,192,216619,1,8,0:0:0:0:
256,192,216686,1,0,0:0:0:0:
256,192,216819,1,8,0:0:0:0:
256,192,216953,1,0,0:0:0:0:
256,192,217019,1,0,0:0:0:0:
256,192,217086,1,8,0:0:0:0:
256,192,217153,1,8,0:0:0:0:
256,192,217219,1,0,0:0:0:0:
256,192,217286,1,8,0:0:0:0:
256,192,217353,1,8,0:0:0:0:
256,192,217419,1,8,0:0:0:0:
256,192,217486,1,0,0:0:0:0:
256,192,217553,1,8,0:0:0:0:
256,192,217619,1,8,0:0:0:0:
256,192,217753,1,0,0:0:0:0:
256,192,217819,1,0,0:0:0:0:
256,192,217886,1,8,0:0:0:0:
256,192,218019,1,0,0:0:0:0:
256,192,218086,1,0,0:0:0:0:
256,192,218153,1,8,0:0:0:0:
256,192,218219,1,0,0:0:0:0:
256,192,218286,1,8,0:0:0:0:
256,192,218353,1,8,0:0:0:0:
256,192,218419,1,0,0:0:0:0:
256,192,218486,1,8,0:0:0:0:
256,192,218553,1,0,0:0:0:0:
256,192,218619,1,8,0:0:0:0:
256,192,218686,1,8,0:0:0:0:
256,192,218753,1,8,0:0:0:0:
256,192,218819,1,0,0:0:0:0:
256,192,218953,1,8,0:0:0:0:
256,192,219019,1,8,0:0:0:0:
256,192,219086,1,0,0:0:0:0:
256,192,219219,1,8,0:0:0:0:
256,192,219286,1,8,0:0:0:0:
256,192,219353,1,0,0:0:0:0:
256,192,219419,1,8,0:0:0:0:
256,192,219486,1,8,0:0:0:0:
256,192,219553,1,8,0:0:0:0:
256,192,219619,1,0,0:0:0:0:
256,192,219686,1,0,0:0:0:0:
256,192,219753,1,8,0:0:0:0:
256,192,219819,1,0,0:0:0:0:
256,192,219886,1,0,0:0:0:0:
256,192,219953,1,8,0:0:0:0:
256,192,220019,1,8,0:0:0:0:
256,192,220153,1,0,0:0:0:0:
256,192,220219,1,0,0:0:0:0:
256,192,220286,1,8,0:0:0:0:
256,192,220353,1,8,0:0:0:0:
256,192,220419,1,0,0:0:0:0:
256,192,220486,1,0,0:0:0:0:
256,192,220553,1,8,0:0:0:0:
256,192,220619,1,0,0:0:0:0:
256,192,220686,1,8,0:0:0:0:
256,192,220753,1,8,0:0:0:0:
256,192,220819,1,0,0:0:0:0:
256,192,220886,1,0,0:0:0:0:
256,192,220953,1,8,0:0:0:0:
256,192,221086,1,8,0:0:0:0:
256,192,221219,1,0,0:0:0:0:
256,192,221286,1,0,0:0:0:0:
256,192,221353,1,8,0:0:0:0:
256,192,221419,1,8,0:0:0:0:
256,192,221486,1,0,0:0:0:0:
256,192,221553,1,8,0:0:0:0:
256,192,221619,1,0,0:0:0:0:
256,192,221686,1,0,0:0:0:0:
256,192,221753,1,8,0:0:0:0:
256,192,221819,1,0,0:0:0:0:
256,192,221886,1,8,0:0:0:0:
256,192,222019,1,0,0:0:0:0:
256,192,222153,1,8,0:0:0:0:
256,192,222286,1,0,0:0:0:0:
256,192,222353,1,0,0:0:0:0:
256,192,222419,1,8,0:0:0:0:
256,192,222486,1,8,0:0:0:0:
256,192,222553,1,0,0:0:0:0:
256,192,222619,1,0,0:0:0:0:
256,192,222686,1,8,0:0:0:0:
256,192,222753,1,0,0:0:0:0:
256,192,222819,1,8,0:0:0:0:
256,192,222886,1,0,0:0:0:0:
256,192,222953,1,8,0:0:0:0:
256,192,223019,1,8,0:0:0:0:
256,192,223086,1,0,0:0:0:0:
256,192,223219,1,8,0:0:0:0:
256,192,223353,1,0,0:0:0:0:
256,192,223553,1,8,0:0:0:0:
256,192,223619,1,0,0:0:0:0:
256,192,223753,1,8,0:0:0:0:
256,192,223886,1,0,0:0:0:0:
256,192,223953,1,0,0:0:0:0:
256,192,224019,1,8,0:0:0:0:
256,192,224086,1,8,0:0:0:0:
256,192,224153,1,0,0:0:0:0:
256,192,224219,1,8,0:0:0:0:
256,192,224286,1,8,0:0:0:0:
256,192,224419,1,0,0:0:0:0:
256,192,224486,1,0,0:0:0:0:
256,192,224553,1,8,0:0:0:0:
256,192,224686,1,0,0:0:0:0:
256,192,224819,1,8,0:0:0:0:
256,192,224886,1,8,0:0:0:0:
256,192,224953,1,0,0:0:0:0:
256,192,225086,1,8,0:0:0:0:
256,192,225153,1,0,0:0:0:0:
256,192,225219,1,0,0:0:0:0:
256,192,225286,1,8,0:0:0:0:
256,192,225353,1,8,0:0:0:0:
256,192,225486,1,0,0:0:0:0:
256,192,225553,1,8,0:0:0:0:
256,192,225619,1,8,0:0:0:0:
256,192,225753,1,0,0:0:0:0:
256,192,225819,1,0,0:0:0:0:
256,192,225886,1,8,0:0:0:0:
256,192,226019,1,0,0:0:0:0:
256,192,226086,1,0,0:0:0:0:
256,192,226153,1,8,0:0:0:0:
256,192,226219,1,8,0:0:0:0:
256,192,226286,1,0,0:0:0:0:
256,192,226419,1,8,0:0:0:0:
256,192,226553,1,0,0:0:0:0:
256,192,226619,1,0,0:0:0:0:
256,192,226686,1,8,0:0:0:0:
256,192,226819,1,0,0:0:0:0:
256,192,226886,1,8,0:0:0:0:
256,192,226953,1,8,0:0:0:0:
256,192,227019,1,8,0:0:0:0:
256,192,227086,1,0,0:0:0:0:
256,192,227153,1,0,0:0:0:0:
256,192,227219,1,8,0:0:0:0:
256,192,227353,1,0,0:0:0:0:
256,192,227419,1,0,0:0:0:0:
256,192,227486,1,8,0:0:0:0:
256,192,227553,1,8,0:0:0:0:
256,192,227619,1,0,0:0:0:0:
256,192,227686,1,8,0:0:0:0:
256,192,227753,1,0,0:0:0:0:
256,192,227886,1,0,0:0:0:0:
256,192,227953,1,8,0:0:0:0:
256,192,228019,1,8,0:0:0:0:
256,192,228153,1,0,0:0:0:0:
256,192,228219,1,8,0:0:0:0:
256,192,228286,1,0,0:0:0:0:
256,192,228353,1,8,0:0:0:0:
256,192,228419,1,0,0:0:0:0:
256,192,228486,1,0,0:0:0:0:
256,192,228553,1,8,0:0:0:0:
256,192,228686,1,0,0:0:0:0:
256,192,228753,1,8,0:0:0:0:
256,192,228819,1,0,0:0:0:0:
256,192,228953,1,0,0:0:0:0:
256,192,229019,1,0,0:0:0:0:
256,192,229085,1,8,0:0:0:0:
256,192,229219,1,8,0:0:0:0:
256,192,229285,1,0,0:0:0:0:
256,192,229352,1,8,0:0:0:0:
256,192,229419,1,0,0:0:0:0:
256,192,229485,1,8,0:0:0:0:
256,192,229552,1,8,0:0:0:0:
256,192,229619,1,0,0:0:0:0:
256,192,229752,1,4,0:0:0:0:
256,192,229885,1,4,0:0:0:0:
256,192,230152,1,4,0:0:0:0:
256,192,230285,1,4,0:0:0:0:
256,192,230552,1,4,0:0:0:0:
256,192,230685,1,4,0:0:0:0:
256,192,230819,1,12,0:0:0:0:
256,192,230952,1,12,0:0:0:0:
256,192,231219,1,12,0:0:0:0:
256,192,231352,1,12,0:0:0:0:
256,192,231618,1,12,0:0:0:0:
256,192,231752,1,12,0:0:0:0:
256,192,231885,1,4,0:0:0:0:
256,192,232152,1,8,0:0:0:0:
256,192,232419,1,8,0:0:0:0:
256,192,232552,1,0,0:0:0:0:
256,192,232685,1,8,0:0:0:0:
256,192,232819,1,0,0:0:0:0:
256,192,232952,1,8,0:0:0:0:
256,192,232985,1,8,0:0:0:0:
256,192,233085,1,8,0:0:0:0:
256,192,233119,1,8,0:0:0:0:
256,192,233219,1,8,0:0:0:0:
256,192,233252,1,8,0:0:0:0:
256,192,233352,1,8,0:0:0:0:
256,192,233385,1,8,0:0:0:0:
256,192,233485,1,0,0:0:0:0:
256,192,233619,1,8,0:0:0:0:
256,192,233752,1,8,0:0:0:0:
256,192,233885,1,8,0:0:0:0:
256,192,233952,1,8,0:0:0:0:
256,192,234019,1,0,0:0:0:0:
256,192,234285,1,8,0:0:0:0:
256,192,234552,1,8,0:0:0:0:
256,192,234585,1,8,0:0:0:0:
256,192,234685,1,8,0:0:0:0:
256,192,234719,1,8,0:0:0:0:
256,192,234819,1,8,0:0:0:0:
256,192,234852,1,8,0:0:0:0:
256,192,234952,1,0,0:0:0:0:
256,192,235085,1,0,0:0:0:0:
256,192,235219,1,0,0:0:0:0:
256,192,235285,1,0,0:0:0:0:
256,192,235352,1,8,0:0:0:0:
256,192,235486,1,0,0:0:0:0:
256,192,235619,1,8,0:0:0:0:
256,192,235707,1,0,0:0:0:0:
256,192,235796,1,0,0:0:0:0:
256,192,235885,1,8,0:0:0:0:
256,192,236152,1,4,0:0:0:0:
256,192,236419,1,8,0:0:0:0:
256,192,236685,1,8,0:0:0:0:
256,192,236819,1,0,0:0:0:0:
256,192,236952,1,8,0:0:0:0:
256,192,237085,1,0,0:0:0:0:
256,192,237219,1,8,0:0:0:0:
256,192,237252,1,8,0:0:0:0:
256,192,237352,1,8,0:0:0:0:
256,192,237385,1,8,0:0:0:0:
256,192,237485,1,8,0:0:0:0:
256,192,237519,1,8,0:0:0:0:
256,192,237619,1,8,0:0:0:0:
256,192,237652,1,8,0:0:0:0:
256,192,237752,1,0,0:0:0:0:
256,192,237841,1,0,0:0:0:0:
256,192,237930,1,0,0:0:0:0:
256,192,238019,1,8,0:0:0:0:
256,192,238107,1,8,0:0:0:0:
256,192,238196,1,8,0:0:0:0:
256,192,238285,1,0,0:0:0:0:
256,192,238552,1,8,0:0:0:0:
256,192,238819,1,0,0:0:0:0:
256,192,238885,1,0,0:0:0:0:
256,192,238952,1,0,0:0:0:0:
256,192,239019,1,0,0:0:0:0:
256,192,239085,1,8,0:0:0:0:
256,192,239219,1,0,0:0:0:0:
256,192,239285,1,8,0:0:0:0:
256,192,239352,1,0,0:0:0:0:
256,192,239419,1,0,0:0:0:0:
256,192,239485,1,8,0:0:0:0:
256,192,239619,1,0,0:0:0:0:
256,192,239707,1,0,0:0:0:0:
256,192,239796,1,0,0:0:0:0:
256,192,239885,1,8,0:0:0:0:
256,192,239974,1,0,0:0:0:0:
256,192,240063,1,0,0:0:0:0:
256,192,240152,1,8,0:0:0:0:
256,192,240241,1,8,0:0:0:0:
256,192,240330,1,8,0:0:0:0:
256,192,240419,1,4,0:0:0:0:
256,192,240685,1,8,0:0:0:0:
256,192,240730,1,8,0:0:0:0:
256,192,240774,1,8,0:0:0:0:
256,192,240819,1,8,0:0:0:0:
256,192,240885,1,8,0:0:0:0:
256,192,240952,1,8,0:0:0:0:
256,192,241085,1,8,0:0:0:0:
256,192,241219,1,8,0:0:0:0:
256,192,241352,1,8,0:0:0:0:
256,192,241485,1,0,0:0:0:0:
256,192,241618,1,8,0:0:0:0:
256,192,241753,1,8,0:0:0:0:
256,192,241886,1,8,0:0:0:0:
256,192,242018,1,0,0:0:0:0:
256,192,242085,1,0,0:0:0:0:
256,192,242152,1,0,0:0:0:0:
256,192,242285,1,0,0:0:0:0:
256,192,242419,1,0,0:0:0:0:
256,192,242552,1,8,0:0:0:0:
256,192,242585,1,8,0:0:0:0:
256,192,242685,1,8,0:0:0:0:
256,192,242718,1,8,0:0:0:0:
256,192,242818,1,8,0:0:0:0:
256,192,242852,1,8,0:0:0:0:
256,192,242952,1,8,0:0:0:0:
256,192,242985,1,8,0:0:0:0:
256,192,243085,1,0,0:0:0:0:
256,192,243174,1,8,0:0:0:0:
256,192,243263,1,8,0:0:0:0:
256,192,243352,1,0,0:0:0:0:
256,192,243485,1,8,0:0:0:0:
256,192,243552,1,8,0:0:0:0:
256,192,243618,1,4,0:0:0:0:
256,192,243752,1,0,0:0:0:0:
256,192,244152,1,12,0:0:0:0:
256,192,244418,1,0,0:0:0:0:
256,192,244685,1,4,0:0:0:0:
256,192,244952,1,8,0:0:0:0:
256,192,245218,1,8,0:0:0:0:
256,192,245352,1,0,0:0:0:0:
256,192,245485,1,8,0:0:0:0:
256,192,245618,1,0,0:0:0:0:
256,192,245752,1,8,0:0:0:0:
256,192,245785,1,8,0:0:0:0:
256,192,245885,1,8,0:0:0:0:
256,192,245918,1,8,0:0:0:0:
256,192,246018,1,8,0:0:0:0:
256,192,246052,1,8,0:0:0:0:
256,192,246152,1,8,0:0:0:0:
256,192,246185,1,8,0:0:0:0:
256,192,246285,1,0,0:0:0:0:
256,192,246374,1,0,0:0:0:0:
256,192,246463,1,0,0:0:0:0:
256,192,246552,1,8,0:0:0:0:
256,192,246641,1,8,0:0:0:0:
256,192,246730,1,8,0:0:0:0:
256,192,246818,1,0,0:0:0:0:
256,192,247085,1,8,0:0:0:0:
256,192,247352,1,0,0:0:0:0:
256,192,247418,1,0,0:0:0:0:
256,192,247485,1,0,0:0:0:0:
256,192,247552,1,0,0:0:0:0:
256,192,247618,1,8,0:0:0:0:
256,192,247752,1,0,0:0:0:0:
256,192,247818,1,8,0:0:0:0:
256,192,247885,1,0,0:0:0:0:
256,192,247952,1,0,0:0:0:0:
256,192,248018,1,8,0:0:0:0:
256,192,248152,1,0,0:0:0:0:
256,192,248241,1,0,0:0:0:0:
256,192,248330,1,0,0:0:0:0:
256,192,248418,1,8,0:0:0:0:
256,192,248507,1,0,0:0:0:0:
256,192,248596,1,0,0:0:0:0:
256,192,248685,1,8,0:0:0:0:
256,192,248774,1,8,0:0:0:0:
256,192,248863,1,8,0:0:0:0:
256,192,248952,1,4,0:0:0:0:
256,192,249752,1,8,0:0:0:0:
256,192,250552,1,8,0:0:0:0:
256,192,251085,1,0,0:0:0:0:
256,192,251618,1,8,0:0:0:0:
256,192,252152,1,8,0:0:0:0:
256,192,252685,1,0,0:0:0:0:
256,192,253218,1,0,0:0:0:0:
256,192,254285,1,0,0:0:0:0:
256,192,254818,1,8,0:0:0:0:
256,192,255085,1,8,0:0:0:0:
256,192,255174,1,8,0:0:0:0:
256,192,255263,1,8,0:0:0:0:
256,192,255352,1,0,0:0:0:0:
256,192,257485,1,12,0:0:0:0:
256,192,258285,1,8,0:0:0:0:
256,192,259130,1,8,0:0:0:0:
256,192,259618,1,0,0:0:0:0:
256,192,260152,1,8,0:0:0:0:
256,192,260685,1,8,0:0:0:0:
256,192,261218,1,0,0:0:0:0:
256,192,261752,1,8,0:0:0:0:
256,192,262818,1,8,0:0:0:0:
256,192,263885,1,8,0:0:0:0:
256,192,264952,1,0,0:0:0:0:
256,192,266019,1,12,0:0:0:0:
256,192,274189,5,8,0:0:0:0:
256,192,274316,1,0,0:0:0:0:
256,192,274572,1,0,0:0:0:0:
256,192,274699,1,8,0:0:0:0:
256,192,274827,1,0,0:0:0:0:
256,192,274955,1,8,0:0:0:0:
256,192,275210,1,8,0:0:0:0:
256,192,275465,1,0,0:0:0:0:
256,192,275593,1,8,0:0:0:0:
256,192,275721,1,0,0:0:0:0:
256,192,275848,1,0,0:0:0:0:
256,192,275976,1,8,0:0:0:0:
256,192,276104,1,0,0:0:0:0:
256,192,276231,1,8,0:0:0:0:
256,192,276614,1,0,0:0:0:0:
256,192,276741,1,8,0:0:0:0:
256,192,276870,1,0,0:0:0:0:
256,192,276997,1,8,0:0:0:0:
256,192,277253,1,8,0:0:0:0:
256,192,277508,1,0,0:0:0:0:
256,192,277636,1,0,0:0:0:0:
256,192,277763,1,8,0:0:0:0:
256,192,277891,1,0,0:0:0:0:
256,192,278019,1,8,0:0:0:0:
256,192,278146,1,0,0:0:0:0:
256,192,278274,1,8,0:0:0:0:
256,192,278401,1,8,0:0:0:0:
256,192,278657,1,0,0:0:0:0:
256,192,278784,1,0,0:0:0:0:
256,192,279040,1,8,0:0:0:0:
256,192,279167,1,0,0:0:0:0:
256,192,279295,1,8,0:0:0:0:
256,192,279550,1,0,0:0:0:0:
256,192,279678,1,0,0:0:0:0:
256,192,279806,1,8,0:0:0:0:
256,192,279933,1,0,0:0:0:0:
256,192,280061,1,8,0:0:0:0:
256,192,280316,1,8,0:0:0:0:
256,192,280444,1,0,0:0:0:0:
256,192,280699,1,8,0:0:0:0:
256,192,280827,1,8,0:0:0:0:
256,192,281082,1,8,0:0:0:0:
256,192,281210,1,0,0:0:0:0:
256,192,281338,1,8,0:0:0:0:
256,192,281593,1,0,0:0:0:0:
256,192,281721,1,0,0:0:0:0:
256,192,281848,1,8,0:0:0:0:
256,192,281976,1,0,0:0:0:0:
256,192,282104,1,8,0:0:0:0:
256,192,282231,1,8,0:0:0:0:
256,192,282870,8,0,283636,0:0:0:0:
256,192,283891,5,0,0:0:0:0:
256,192,284611,1,8,0:0:0:0:
256,192,285331,1,8,0:0:0:0:
256,192,285811,1,0,0:0:0:0:
256,192,286291,1,0,0:0:0:0:
256,192,286771,1,8,0:0:0:0:
256,192,287251,1,0,0:0:0:0:
256,192,287731,1,0,0:0:0:0:
256,192,287971,1,0,0:0:0:0:
256,192,288211,1,8,0:0:0:0:
256,192,288451,1,8,0:0:0:0:
256,192,288691,1,0,0:0:0:0:
256,192,288811,1,0,0:0:0:0:
256,192,288931,1,8,0:0:0:0:
256,192,289051,1,8,0:0:0:0:
256,192,289171,1,0,0:0:0:0:
256,192,289291,1,0,0:0:0:0:
256,192,289411,1,8,0:0:0:0:
256,192,289531,1,8,0:0:0:0:
256,192,289651,1,4,0:0:0:0:
256,192,289771,1,4,0:0:0:0:
256,192,290011,1,4,0:0:0:0:
256,192,290131,1,4,0:0:0:0:
256,192,290371,1,4,0:0:0:0:
256,192,290491,1,4,0:0:0:0:
256,192,290611,1,12,0:0:0:0:
256,192,291091,1,8,0:0:0:0:
256,192,291571,1,0,0:0:0:0:
256,192,291691,1,8,0:0:0:0:
256,192,291811,1,8,0:0:0:0:
256,192,291871,1,8,0:0:0:0:
256,192,291931,1,0,0:0:0:0:
256,192,292051,1,0,0:0:0:0:
256,192,292111,1,0,0:0:0:0:
256,192,292171,1,8,0:0:0:0:
256,192,292291,1,8,0:0:0:0:
256,192,292351,1,8,0:0:0:0:
256,192,292411,1,0,0:0:0:0:
256,192,292531,1,0,0:0:0:0:
256,192,292651,1,8,0:0:0:0:
256,192,292711,1,8,0:0:0:0:
256,192,292771,1,0,0:0:0:0:
256,192,292831,1,0,0:0:0:0:
256,192,292891,1,8,0:0:0:0:
256,192,293011,1,8,0:0:0:0:
256,192,293071,1,8,0:0:0:0:
256,192,293131,1,0,0:0:0:0:
256,192,293251,1,0,0:0:0:0:
256,192,293311,1,0,0:0:0:0:
256,192,293371,1,8,0:0:0:0:
256,192,293491,1,0,0:0:0:0:
256,192,293611,1,8,0:0:0:0:
256,192,293671,1,8,0:0:0:0:
256,192,293731,1,0,0:0:0:0:
256,192,293851,1,8,0:0:0:0:
256,192,293971,1,0,0:0:0:0:
256,192,294031,1,0,0:0:0:0:
256,192,294091,1,8,0:0:0:0:
256,192,294211,1,8,0:0:0:0:
256,192,294271,1,8,0:0:0:0:
256,192,294331,1,0,0:0:0:0:
256,192,294451,1,0,0:0:0:0:
256,192,294571,1,0,0:0:0:0:
256,192,294631,1,0,0:0:0:0:
256,192,294691,1,8,0:0:0:0:
256,192,294811,1,0,0:0:0:0:
256,192,294931,1,8,0:0:0:0:
256,192,294991,1,0,0:0:0:0:
256,192,295051,1,8,0:0:0:0:
256,192,295111,1,8,0:0:0:0:
256,192,295171,1,0,0:0:0:0:
256,192,295291,1,8,0:0:0:0:
256,192,295411,1,0,0:0:0:0:
256,192,295531,1,8,0:0:0:0:
256,192,295651,1,8,0:0:0:0:
256,192,295711,1,8,0:0:0:0:
256,192,295771,1,0,0:0:0:0:
256,192,295891,1,0,0:0:0:0:
256,192,295951,1,0,0:0:0:0:
256,192,296011,1,8,0:0:0:0:
256,192,296131,1,8,0:0:0:0:
256,192,296191,1,8,0:0:0:0:
256,192,296251,1,0,0:0:0:0:
256,192,296371,1,0,0:0:0:0:
256,192,296491,1,8,0:0:0:0:
256,192,296611,1,8,0:0:0:0:
256,192,296671,1,8,0:0:0:0:
256,192,296731,1,0,0:0:0:0:
256,192,296851,1,0,0:0:0:0:
256,192,296971,1,8,0:0:0:0:
256,192,297031,1,8,0:0:0:0:
256,192,297091,1,0,0:0:0:0:
256,192,297151,1,0,0:0:0:0:
256,192,297211,1,8,0:0:0:0:
256,192,297331,1,0,0:0:0:0:
256,192,297511,1,8,0:0:0:0:
256,192,297571,1,0,0:0:0:0:
256,192,297691,1,8,0:0:0:0:
256,192,297811,1,0,0:0:0:0:
256,192,297931,1,0,0:0:0:0:
256,192,297991,1,0,0:0:0:0:
256,192,298051,1,8,0:0:0:0:
256,192,298171,1,8,0:0:0:0:
256,192,298231,1,8,0:0:0:0:
256,192,298291,1,0,0:0:0:0:
256,192,298351,1,0,0:0:0:0:
256,192,298411,1,8,0:0:0:0:
256,192,298471,1,8,0:0:0:0:
256,192,298531,1,0,0:0:0:0:
256,192,298651,1,0,0:0:0:0:
256,192,298711,1,0,0:0:0:0:
256,192,298771,1,0,0:0:0:0:
256,192,298831,1,8,0:0:0:0:
256,192,298891,1,0,0:0:0:0:
256,192,299011,1,0,0:0:0:0:
256,192,299131,1,8,0:0:0:0:
256,192,299251,1,0,0:0:0:0:
256,192,299371,1,8,0:0:0:0:
256,192,299491,1,0,0:0:0:0:
256,192,299551,1,0,0:0:0:0:
256,192,299611,1,8,0:0:0:0:
256,192,299731,1,0,0:0:0:0:
256,192,299791,1,0,0:0:0:0:
256,192,299851,1,8,0:0:0:0:
256,192,299911,1,8,0:0:0:0:
256,192,299971,1,0,0:0:0:0:
256,192,300091,1,0,0:0:0:0:
256,192,300211,1,0,0:0:0:0:
256,192,300331,1,8,0:0:0:0:
256,192,300451,1,0,0:0:0:0:
256,192,300511,1,0,0:0:0:0:
256,192,300571,1,8,0:0:0:0:
256,192,300631,1,8,0:0:0:0:
256,192,300691,1,0,0:0:0:0:
256,192,300751,1,0,0:0:0:0:
256,192,300811,1,8,0:0:0:0:
256,192,300871,1,0,0:0:0:0:
256,192,300931,1,0,0:0:0:0:
256,192,301051,1,8,0:0:0:0:
256,192,301171,1,0,0:0:0:0:
256,192,301291,1,8,0:0:0:0:
256,192,301411,1,0,0:0:0:0:
256,192,301471,1,0,0:0:0:0:
256,192,301531,1,8,0:0:0:0:
256,192,301591,1,8,0:0:0:0:
256,192,301651,1,0,0:0:0:0:
256,192,301771,1,8,0:0:0:0:
256,192,301831,1,0,0:0:0:0:
256,192,301891,1,0,0:0:0:0:
256,192,302011,1,0,0:0:0:0:
256,192,302131,1,0,0:0:0:0:
256,192,302191,1,0,0:0:0:0:
256,192,302251,1,0,0:0:0:0:
256,192,302311,1,0,0:0:0:0:
256,192,302371,1,8,0:0:0:0:
256,192,302491,1,0,0:0:0:0:
256,192,302611,1,8,0:0:0:0:
256,192,302671,1,0,0:0:0:0:
256,192,302731,1,8,0:0:0:0:
256,192,302791,1,8,0:0:0:0:
256,192,302851,1,0,0:0:0:0:
256,192,302971,1,8,0:0:0:0:
256,192,303091,1,0,0:0:0:0:
256,192,303211,1,8,0:0:0:0:
256,192,303331,1,8,0:0:0:0:
256,192,303391,1,8,0:0:0:0:
256,192,303451,1,0,0:0:0:0:
256,192,303571,1,0,0:0:0:0:
256,192,303631,1,0,0:0:0:0:
256,192,303691,1,8,0:0:0:0:
256,192,303751,1,0,0:0:0:0:
256,192,303811,1,0,0:0:0:0:
256,192,303871,1,0,0:0:0:0:
256,192,303931,1,8,0:0:0:0:
256,192,304051,1,0,0:0:0:0:
256,192,304171,1,8,0:0:0:0:
256,192,304231,1,8,0:0:0:0:
256,192,304291,1,8,0:0:0:0:
256,192,304411,1,0,0:0:0:0:
256,192,304471,1,0,0:0:0:0:
256,192,304531,1,8,0:0:0:0:
256,192,304591,1,0,0:0:0:0:
256,192,304651,1,8,0:0:0:0:
256,192,304711,1,0,0:0:0:0:
256,192,304771,1,8,0:0:0:0:
256,192,304831,1,8,0:0:0:0:
256,192,304891,1,0,0:0:0:0:
256,192,305011,1,0,0:0:0:0:
256,192,305191,1,8,0:0:0:0:
256,192,305251,1,0,0:0:0:0:
256,192,305371,1,8,0:0:0:0:
256,192,305431,1,8,0:0:0:0:
256,192,305491,1,0,0:0:0:0:
256,192,305611,1,0,0:0:0:0:
256,192,305671,1,8,0:0:0:0:
256,192,305731,1,0,0:0:0:0:
256,192,305791,1,0,0:0:0:0:
256,192,305851,1,0,0:0:0:0:
256,192,305971,1,12,0:0:0:0:
256,192,306091,1,12,0:0:0:0:
256,192,306331,1,12,0:0:0:0:
256,192,306451,1,12,0:0:0:0:
256,192,306691,1,12,0:0:0:0:
256,192,306811,1,12,0:0:0:0:
256,192,306931,1,0,0:0:0:0:
256,192,306991,1,0,0:0:0:0:
256,192,307051,1,8,0:0:0:0:
256,192,307111,1,0,0:0:0:0:
256,192,307171,1,8,0:0:0:0:
256,192,307291,1,0,0:0:0:0:
256,192,307351,1,0,0:0:0:0:
256,192,307411,1,8,0:0:0:0:
256,192,307531,1,0,0:0:0:0:
256,192,307651,1,8,0:0:0:0:
256,192,307711,1,8,0:0:0:0:
256,192,307771,1,0,0:0:0:0:
256,192,307831,1,0,0:0:0:0:
256,192,307891,1,8,0:0:0:0:
256,192,308011,1,8,0:0:0:0:
256,192,308131,1,0,0:0:0:0:
256,192,308191,1,0,0:0:0:0:
256,192,308251,1,8,0:0:0:0:
256,192,308311,1,0,0:0:0:0:
256,192,308371,1,8,0:0:0:0:
256,192,308491,1,0,0:0:0:0:
256,192,308611,1,8,0:0:0:0:
256,192,308671,1,8,0:0:0:0:
256,192,308731,1,8,0:0:0:0:
256,192,308851,1,0,0:0:0:0:
256,192,308911,1,0,0:0:0:0:
256,192,308971,1,8,0:0:0:0:
256,192,309031,1,0,0:0:0:0:
256,192,309091,1,8,0:0:0:0:
256,192,309151,1,8,0:0:0:0:
256,192,309211,1,0,0:0:0:0:
256,192,309271,1,0,0:0:0:0:
256,192,309331,1,8,0:0:0:0:
256,192,309391,1,8,0:0:0:0:
256,192,309451,1,8,0:0:0:0:
256,192,309511,1,0,0:0:0:0:
256,192,309571,1,8,0:0:0:0:
256,192,309691,1,8,0:0:0:0:
256,192,309811,1,0,0:0:0:0:
256,192,309871,1,0,0:0:0:0:
256,192,309931,1,8,0:0:0:0:
256,192,309991,1,8,0:0:0:0:
256,192,310051,1,0,0:0:0:0:
256,192,310111,1,0,0:0:0:0:
256,192,310171,1,0,0:0:0:0:
256,192,310231,1,0,0:0:0:0:
256,192,310291,1,8,0:0:0:0:
256,192,310351,1,0,0:0:0:0:
256,192,310411,1,8,0:0:0:0:
256,192,310471,1,0,0:0:0:0:
256,192,310531,1,8,0:0:0:0:
256,192,310591,1,8,0:0:0:0:
256,192,310651,1,0,0:0:0:0:
256,192,310711,1,8,0:0:0:0:
256,192,310771,1,0,0:0:0:0:
256,192,310891,1,8,0:0:0:0:
256,192,310951,1,8,0:0:0:0:
256,192,311011,1,0,0:0:0:0:
256,192,311131,1,8,0:0:0:0:
256,192,311251,1,0,0:0:0:0:
256,192,311311,1,0,0:0:0:0:
256,192,311371,1,0,0:0:0:0:
256,192,311431,1,0,0:0:0:0:
256,192,311491,1,8,0:0:0:0:
256,192,311551,1,8,0:0:0:0:
256,192,311611,1,0,0:0:0:0:
256,192,311671,1,0,0:0:0:0:
256,192,311731,1,8,0:0:0:0:
256,192,311851,1,0,0:0:0:0:
256,192,311971,1,8,0:0:0:0:
256,192,312091,1,0,0:0:0:0:
256,192,312211,1,8,0:0:0:0:
256,192,312271,1,8,0:0:0:0:
256,192,312331,1,0,0:0:0:0:
256,192,312391,1,0,0:0:0:0:
256,192,312451,1,8,0:0:0:0:
256,192,312511,1,8,0:0:0:0:
256,192,312571,1,0,0:0:0:0:
256,192,312631,1,8,0:0:0:0:
256,192,312691,1,0,0:0:0:0:
256,192,312811,1,0,0:0:0:0:
256,192,312871,1,0,0:0:0:0:
256,192,312931,1,8,0:0:0:0:
256,192,313051,1,8,0:0:0:0:
256,192,313171,1,0,0:0:0:0:
256,192,313231,1,0,0:0:0:0:
256,192,313291,1,0,0:0:0:0:
256,192,313351,1,0,0:0:0:0:
256,192,313411,1,8,0:0:0:0:
256,192,313471,1,8,0:0:0:0:
256,192,313531,1,0,0:0:0:0:
256,192,313591,1,0,0:0:0:0:
256,192,313651,1,8,0:0:0:0:
256,192,313711,1,8,0:0:0:0:
256,192,313771,1,0,0:0:0:0:
256,192,313831,1,8,0:0:0:0:
256,192,313891,1,0,0:0:0:0:
256,192,314011,1,8,0:0:0:0:
256,192,314131,1,0,0:0:0:0:
256,192,314191,1,0,0:0:0:0:
256,192,314251,1,0,0:0:0:0:
256,192,314311,1,0,0:0:0:0:
256,192,314371,1,8,0:0:0:0:
256,192,314491,1,0,0:0:0:0:
256,192,314611,1,8,0:0:0:0:
256,192,314671,1,8,0:0:0:0:
256,192,314731,1,0,0:0:0:0:
256,192,314791,1,0,0:0:0:0:
256,192,314851,1,8,0:0:0:0:
256,192,314971,1,8,0:0:0:0:
256,192,315091,1,0,0:0:0:0:
256,192,315151,1,0,0:0:0:0:
256,192,315211,1,8,0:0:0:0:
256,192,315271,1,0,0:0:0:0:
256,192,315331,1,8,0:0:0:0:
256,192,315451,1,0,0:0:0:0:
256,192,315571,1,8,0:0:0:0:
256,192,315631,1,8,0:0:0:0:
256,192,315691,1,0,0:0:0:0:
256,192,315751,1,0,0:0:0:0:
256,192,315811,1,8,0:0:0:0:
256,192,315871,1,8,0:0:0:0:
256,192,315931,1,0,0:0:0:0:
256,192,315991,1,0,0:0:0:0:
256,192,316051,1,8,0:0:0:0:
256,192,316171,1,0,0:0:0:0:
256,192,316231,1,0,0:0:0:0:
256,192,316291,1,8,0:0:0:0:
256,192,316411,1,8,0:0:0:0:
256,192,316531,1,0,0:0:0:0:
256,192,316591,1,0,0:0:0:0:
256,192,316651,1,8,0:0:0:0:
256,192,316711,1,0,0:0:0:0:
256,192,316771,1,8,0:0:0:0:
256,192,316891,1,0,0:0:0:0:
256,192,317011,1,8,0:0:0:0:
256,192,317071,1,8,0:0:0:0:
256,192,317131,1,0,0:0:0:0:
256,192,317191,1,0,0:0:0:0:
256,192,317251,1,8,0:0:0:0:
256,192,317371,1,0,0:0:0:0:
256,192,317431,1,8,0:0:0:0:
256,192,317491,1,0,0:0:0:0:
256,192,317611,1,8,0:0:0:0:
256,192,317731,1,0,0:0:0:0:
256,192,317791,1,0,0:0:0:0:
256,192,317851,1,8,0:0:0:0:
256,192,317911,1,0,0:0:0:0:
256,192,317971,1,8,0:0:0:0:
256,192,318031,1,0,0:0:0:0:
256,192,318091,1,8,0:0:0:0:
256,192,318151,1,0,0:0:0:0:
256,192,318211,1,8,0:0:0:0:
256,192,318271,1,8,0:0:0:0:
256,192,318331,1,0,0:0:0:0:
256,192,318391,1,0,0:0:0:0:
256,192,318451,1,8,0:0:0:0:
256,192,318571,1,0,0:0:0:0:
256,192,318631,1,0,0:0:0:0:
256,192,318691,1,8,0:0:0:0:
256,192,318811,1,8,0:0:0:0:
256,192,318931,1,0,0:0:0:0:
256,192,318991,1,0,0:0:0:0:
256,192,319051,1,8,0:0:0:0:
256,192,319111,1,0,0:0:0:0:
256,192,319171,1,8,0:0:0:0:
256,192,319231,1,8,0:0:0:0:
256,192,319291,1,0,0:0:0:0:
256,192,319351,1,0,0:0:0:0:
256,192,319411,1,8,0:0:0:0:
256,192,319471,1,0,0:0:0:0:
256,192,319531,1,8,0:0:0:0:
256,192,319591,1,8,0:0:0:0:
256,192,319651,1,0,0:0:0:0:
256,192,319771,1,0,0:0:0:0:
256,192,319891,1,8,0:0:0:0:
256,192,319951,1,8,0:0:0:0:
256,192,320011,1,0,0:0:0:0:
256,192,320071,1,0,0:0:0:0:
256,192,320131,1,8,0:0:0:0:
256,192,320191,1,8,0:0:0:0:
256,192,320251,1,8,0:0:0:0:
256,192,320311,1,8,0:0:0:0:
256,192,320371,1,4,0:0:0:0:
256,192,320504,1,4,0:0:0:0:
256,192,320771,1,4,0:0:0:0:
256,192,320904,1,4,0:0:0:0:
256,192,321171,1,4,0:0:0:0:
256,192,321304,1,4,0:0:0:0:
256,192,321437,1,12,0:0:0:0:
256,192,321704,1,0,0:0:0:0:
256,192,321971,1,0,0:0:0:0:
256,192,322104,1,0,0:0:0:0:
256,192,322237,1,0,0:0:0:0:
256,192,322371,1,0,0:0:0:0:
256,192,322504,1,8,0:0:0:0:
256,192,322564,1,8,0:0:0:0:
256,192,322624,1,8,0:0:0:0:
256,192,322744,1,0,0:0:0:0:
256,192,322804,1,0,0:0:0:0:
256,192,322864,1,8,0:0:0:0:
256,192,322924,1,8,0:0:0:0:
256,192,322984,1,0,0:0:0:0:
256,192,323104,1,8,0:0:0:0:
256,192,323224,1,0,0:0:0:0:
256,192,323284,1,0,0:0:0:0:
256,192,323344,1,8,0:0:0:0:
256,192,323404,1,0,0:0:0:0:
256,192,323464,1,8,0:0:0:0:
256,192,323584,1,0,0:0:0:0:
256,192,323644,1,0,0:0:0:0:
256,192,323704,1,8,0:0:0:0:
256,192,323824,1,0,0:0:0:0:
256,192,323884,1,0,0:0:0:0:
256,192,323944,1,8,0:0:0:0:
256,192,324004,1,0,0:0:0:0:
256,192,324064,1,8,0:0:0:0:
256,192,324184,1,0,0:0:0:0:
256,192,324304,1,0,0:0:0:0:
256,192,324364,1,0,0:0:0:0:
256,192,324424,1,8,0:0:0:0:
256,192,324484,1,8,0:0:0:0:
256,192,324544,1,0,0:0:0:0:
256,192,324604,1,0,0:0:0:0:
256,192,324664,1,8,0:0:0:0:
256,192,324784,1,0,0:0:0:0:
256,192,324844,1,0,0:0:0:0:
256,192,324904,1,8,0:0:0:0:
256,192,324964,1,0,0:0:0:0:
256,192,325024,1,8,0:0:0:0:
256,192,325084,1,8,0:0:0:0:
256,192,325144,1,0,0:0:0:0:
256,192,325264,1,8,0:0:0:0:
256,192,325324,1,0,0:0:0:0:
256,192,325384,1,8,0:0:0:0:
256,192,325504,1,0,0:0:0:0:
256,192,325564,1,0,0:0:0:0:
256,192,325624,1,8,0:0:0:0:
256,192,325684,1,0,0:0:0:0:
256,192,325744,1,8,0:0:0:0:
256,192,325804,1,8,0:0:0:0:
256,192,325864,1,0,0:0:0:0:
256,192,325924,1,0,0:0:0:0:
256,192,325984,1,8,0:0:0:0:
256,192,326104,1,0,0:0:0:0:
256,192,326164,1,0,0:0:0:0:
256,192,326224,1,8,0:0:0:0:
256,192,326344,1,0,0:0:0:0:
256,192,326404,1,0,0:0:0:0:
256,192,326464,1,8,0:0:0:0:
256,192,326524,1,0,0:0:0:0:
256,192,326584,1,8,0:0:0:0:
256,192,326644,1,0,0:0:0:0:
256,192,326704,1,8,0:0:0:0:
256,192,326764,1,8,0:0:0:0:
256,192,326824,1,0,0:0:0:0:
256,192,326944,1,8,0:0:0:0:
256,192,327004,1,8,0:0:0:0:
256,192,327064,1,0,0:0:0:0:
256,192,327184,1,0,0:0:0:0:
256,192,327244,1,0,0:0:0:0:
256,192,327304,1,8,0:0:0:0:
256,192,327424,1,0,0:0:0:0:
256,192,327544,1,0,0:0:0:0:
256,192,327604,1,0,0:0:0:0:
256,192,327664,1,8,0:0:0:0:
256,192,327724,1,8,0:0:0:0:
256,192,327784,1,0,0:0:0:0:
256,192,327904,1,0,0:0:0:0:
256,192,328024,1,0,0:0:0:0:
256,192,328084,1,0,0:0:0:0:
256,192,328144,1,8,0:0:0:0:
256,192,328264,1,0,0:0:0:0:
256,192,328324,1,0,0:0:0:0:
256,192,328384,1,8,0:0:0:0:
256,192,328444,1,8,0:0:0:0:
256,192,328504,1,0,0:0:0:0:
256,192,328624,1,8,0:0:0:0:
256,192,328684,1,8,0:0:0:0:
256,192,328744,1,0,0:0:0:0:
256,192,328864,1,0,0:0:0:0:
256,192,328924,1,0,0:0:0:0:
256,192,328984,1,0,0:0:0:0:
256,192,329104,1,8,0:0:0:0:
256,192,329224,1,0,0:0:0:0:
256,192,329284,1,8,0:0:0:0:
256,192,329344,1,0,0:0:0:0:
256,192,329464,1,8,0:0:0:0:
256,192,329584,1,0,0:0:0:0:
256,192,329644,1,0,0:0:0:0:
256,192,329704,1,8,0:0:0:0:
256,192,329824,1,0,0:0:0:0:
256,192,329944,1,0,0:0:0:0:
256,192,330064,1,0,0:0:0:0:
256,192,330184,1,8,0:0:0:0:
256,192,330304,1,8,0:0:0:0:
256,192,330424,1,0,0:0:0:0:
256,192,330484,1,0,0:0:0:0:
256,192,330544,1,0,0:0:0:0:
256,192,330664,1,0,0:0:0:0:
256,192,330784,1,8,0:0:0:0:
256,192,330844,1,8,0:0:0:0:
256,192,330904,1,0,0:0:0:0:
256,192,331024,1,8,0:0:0:0:
256,192,331084,1,8,0:0:0:0:
256,192,331144,1,0,0:0:0:0:
256,192,331204,1,0,0:0:0:0:
256,192,331264,1,8,0:0:0:0:
256,192,331384,1,0,0:0:0:0:
256,192,331504,1,0,0:0:0:0:
256,192,331624,1,0,0:0:0:0:
256,192,331744,1,8,0:0:0:0:
256,192,331864,1,0,0:0:0:0:
256,192,331924,1,0,0:0:0:0:
256,192,331984,1,8,0:0:0:0:
256,192,332044,1,0,0:0:0:0:
256,192,332104,1,8,0:0:0:0:
256,192,332224,1,0,0:0:0:0:
256,192,332344,1,0,0:0:0:0:
256,192,332404,1,0,0:0:0:0:
256,192,332464,1,8,0:0:0:0:
256,192,332584,1,0,0:0:0:0:
256,192,332704,1,0,0:0:0:0:
256,192,332764,1,0,0:0:0:0:
256,192,332824,1,8,0:0:0:0:
256,192,332944,1,0,0:0:0:0:
256,192,333064,1,0,0:0:0:0:
256,192,333124,1,0,0:0:0:0:
256,192,333184,1,8,0:0:0:0:
256,192,333244,1,8,0:0:0:0:
256,192,333304,1,0,0:0:0:0:
256,192,333364,1,0,0:0:0:0:
256,192,333424,1,8,0:0:0:0:
256,192,333484,1,8,0:0:0:0:
256,192,333544,1,0,0:0:0:0:
256,192,333664,1,0,0:0:0:0:
256,192,333784,1,0,0:0:0:0:
256,192,333904,1,0,0:0:0:0:
256,192,334024,1,0,0:0:0:0:
256,192,334084,1,0,0:0:0:0:
256,192,334144,1,8,0:0:0:0:
256,192,334204,1,8,0:0:0:0:
256,192,334264,1,0,0:0:0:0:
256,192,334324,1,0,0:0:0:0:
256,192,334384,1,8,0:0:0:0:
256,192,334444,1,0,0:0:0:0:
256,192,334504,1,8,0:0:0:0:
256,192,334564,1,8,0:0:0:0:
256,192,334624,1,8,0:0:0:0:
256,192,334684,1,8,0:0:0:0:
256,192,334744,1,0,0:0:0:0:
256,192,334804,1,0,0:0:0:0:
256,192,334864,1,8,0:0:0:0:
256,192,334924,1,8,0:0:0:0:
256,192,334984,1,0,0:0:0:0:
256,192,335044,1,8,0:0:0:0:
256,192,335104,1,8,0:0:0:0:
256,192,335164,1,8,0:0:0:0:
256,192,335224,1,0,0:0:0:0:
256,192,335344,1,0,0:0:0:0:
256,192,335464,1,8,0:0:0:0:
256,192,335584,1,0,0:0:0:0:
256,192,335704,1,0,0:0:0:0:
256,192,335764,1,0,0:0:0:0:
256,192,335824,1,0,0:0:0:0:
256,192,335944,1,12,0:0:0:0:
256,192,336184,1,0,0:0:0:0:
256,192,336244,1,0,0:0:0:0:
256,192,336304,1,12,0:0:0:0:
256,192,336544,1,0,0:0:0:0:
256,192,336664,1,12,0:0:0:0:
256,192,336904,1,12,0:0:0:0:
256,192,337144,1,0,0:0:0:0:
256,192,337204,1,0,0:0:0:0:
256,192,337264,1,12,0:0:0:0:
256,192,337624,1,8,0:0:0:0:
256,192,337684,1,8,0:0:0:0:
256,192,337744,1,8,0:0:0:0:
256,192,337804,1,8,0:0:0:0:
256,192,337864,1,4,0:0:0:0:
256,192,337984,8,0,341704,0:0:0:0:
