osu file format v14

[General]
AudioFilename: audio.mp3
AudioLeadIn: 0
PreviewTime: 48345
Countdown: 0
SampleSet: None
StackLeniency: 0.7
Mode: 0
LetterboxInBreaks: 0
WidescreenStoryboard: 0

[Editor]
Bookmarks: 25227,34227
DistanceSpacing: 1.1
BeatDivisor: 4
GridSize: 16
TimelineZoom: 2.7

[Metadata]
Title:Sahara Bounce
TitleUnicode:Sahara Bounce
Artist:Ganar
ArtistUnicode:Ganar
Creator:Chalwa
Version:Hard
Source:
Tags:harddance hardcore cut dance refaller asserin havkz
BeatmapID:981615
BeatmapSetID:458051

[Difficulty]
HPDrainRate:5
CircleSize:4
OverallDifficulty:6
ApproachRate:7.5
SliderMultiplier:1.3
SliderTickRate:1

[Events]
//Background and Video events
0,0,"bg.png",0,0
//Break Periods
//Storyboard Layer 0 (Background)
//Storyboard Layer 1 (Fail)
//Storyboard Layer 2 (Pass)
//Storyboard Layer 3 (Foreground)
//Storyboard Sound Samples

[TimingPoints]
3169,352.941176470588,4,3,10,20,1,0
3169,-100,4,3,10,20,0,0
5992,-100,4,3,10,30,0,0
8816,-100,4,3,10,40,0,0
9257,-100,4,3,10,10,0,0
9433,-100,4,3,10,40,0,0
10668,-100,4,3,10,10,0,0
10845,-100,4,3,10,40,0,0
14463,-100,4,3,10,50,0,0
26816,-100,4,3,10,60,0,0
37051,-100,4,3,10,70,0,0
48345,-100,4,3,10,80,0,1
70933,-100,4,3,10,80,0,0
80463,-100,4,3,10,40,0,0
80816,-100,4,3,10,40,0,0
81874,-100,4,3,10,10,0,0

[Colours]
Combo1 : 128,0,255
Combo2 : 0,0,255
Combo3 : 128,0,128
Combo4 : 0,0,160

[HitObjects]
193,339,3169,5,0,0:0:0:0:
108,129,4580,1,0,0:0:0:0:
318,44,5992,1,0,0:0:0:0:
403,254,7404,1,0,0:0:0:0:
369,96,8816,5,0,0:0:0:0:
151,28,10227,1,0,0:0:0:0:
85,244,11639,1,0,0:0:0:0:
302,311,13051,1,0,0:0:0:0:
242,343,14463,6,0,P|305:326|366:344,1,130
420,208,15168,2,0,P|403:145|419:80,1,130
276,69,15874,1,0,0:0:0:0:
137,31,16227,1,0,0:0:0:0:
59,152,16580,1,0,0:0:0:0:
148,262,16933,1,0,0:0:0:0:
282,211,17286,6,0,L|421:227,1,130
469,95,17992,2,0,L|330:79,1,130
206,130,18698,1,0,0:0:0:0:
82,58,19051,1,0,0:0:0:0:
10,182,19404,1,0,0:0:0:0:
134,253,19757,2,0,P|177:270|236:265,1,97.5
262,257,20110,5,0,0:0:0:0:
262,113,20463,1,0,0:0:0:0:
385,185,20816,1,0,0:0:0:0:
385,328,21168,1,0,0:0:0:0:
261,258,21521,2,0,P|201:240|165:184,1,130
186,44,22227,2,0,P|246:62|282:118,1,130
261,258,22933,6,0,P|261:323|203:358,2,130
165,152,23992,1,0,0:0:0:0:
271,56,24345,2,0,P|336:56|371:114,2,130
165,152,25404,1,0,0:0:0:0:
144,256,25757,6,0,B|240:272|336:272|352:208|288:144|208:192|224:240|288:288|400:320,1,390
485,222,27168,1,0,0:0:0:0:
423,93,27521,1,0,0:0:0:0:
485,222,27874,1,0,0:0:0:0:
423,93,28227,1,0,0:0:0:0:
290,42,28580,6,0,B|209:42|209:42|159:59,1,130
63,161,29286,2,0,B|63:242|63:242|80:292,1,130
204,356,29992,1,0,0:0:0:0:
346,367,30345,1,0,0:0:0:0:
420,243,30698,1,0,0:0:0:0:
344,122,31051,1,0,0:0:0:0:
344,122,31404,6,0,B|281:103|216:124|216:124|211:92|194:77|194:77|150:96|113:81|113:81|49:106|23:178,1,390
25,305,32816,2,0,L|156:318,1,130
293,355,33521,2,0,L|424:342,1,130
431,199,34227,1,0,0:0:0:0:
401,61,34580,1,0,0:0:0:0:
262,48,34933,1,0,0:0:0:0:
206,175,35286,1,0,0:0:0:0:
309,268,35639,5,0,0:0:0:0:
407,169,35992,1,0,0:0:0:0:
309,70,36345,1,0,0:0:0:0:
210,169,36698,1,0,0:0:0:0:
132,289,37051,6,0,P|107:265|83:220,1,65,8|0,0:0|0:0,0:0:0:0:
78,203,37316,1,0,0:0:0:0:
71,164,37404,2,0,P|85:132|119:94,1,65
173,72,37757,2,0,P|224:89|303:69,1,130,8|0,0:0|0:0,0:0:0:0:
372,92,38286,1,0,0:0:0:0:
372,92,38463,6,0,L|411:168,1,65,8|0,0:0|0:0,0:0:0:0:
387,227,38816,2,0,L|311:266,1,65
245,280,39168,1,8,0:0:0:0:
167,273,39345,1,0,0:0:0:0:
174,195,39521,1,0,0:0:0:0:
187,39,39874,6,0,P|228:39|277:44,1,65,8|0,0:0|0:0,0:0:0:0:
294,49,40139,1,0,0:0:0:0:
294,49,40227,1,0,0:0:0:0:
361,89,40404,2,0,P|378:113|396:147,1,65,0|8,0:0|0:0,0:0:0:0:
234,283,41110,1,0,0:0:0:0:
234,283,41286,6,0,L|157:239,1,65,8|0,0:0|0:0,0:0:0:0:
158,181,41639,2,0,L|202:104,1,65
251,75,41992,1,8,0:0:0:0:
323,47,42168,1,0,0:0:0:0:
380,100,42345,1,0,0:0:0:0:
368,219,42610,1,0,0:0:0:0:
368,219,42698,6,0,B|330:293,1,65,8|0,0:0|0:0,0:0:0:0:
291,339,43051,2,0,B|217:301,1,65
183,256,43404,1,8,0:0:0:0:
183,256,43580,1,0,0:0:0:0:
140,191,43757,2,0,B|178:117,1,65
219,72,44110,6,0,P|254:78|295:70,1,65,8|0,0:0|0:0,0:0:0:0:
350,114,44463,2,0,P|344:149|352:190,1,65
377,250,44816,2,0,P|356:282|322:312,2,65,8|0|0,0:0|0:0|0:0,0:0:0:0:
416,101,45521,6,0,L|371:92,3,32.5,8|0|0|0,0:0|0:0|0:0|0:0,0:0:0:0:
350,114,45874,2,0,L|305:123,3,32.5,8|0|0|0,0:0|0:0|0:0|0:0,0:0:0:0:
284,101,46227,2,0,L|239:92,3,32.5,8|0|0|0,0:0|0:0|0:0|0:0,0:0:0:0:
218,114,46580,2,0,L|173:123,3,32.5,8|0|0|0,0:0|0:0|0:0|0:0,0:0:0:0:
147,128,46933,6,0,P|117:151|97:190,1,65,8|0,0:0|0:0,0:0:0:0:
97,213,47198,1,0,0:0:0:0:
97,213,47286,1,0,0:0:0:0:
223,304,47639,1,8,0:0:0:0:
223,304,47816,1,0,0:0:0:0:
223,304,47992,2,0,P|257:301|291:294,1,65
373,260,48345,5,8,0:0:0:0:
399,186,48521,1,0,0:0:0:0:
399,186,48610,1,0,0:0:0:0:
399,186,48698,2,0,P|374:149|342:117,1,65
285,84,49051,2,0,P|214:75|142:90,1,130,8|0,0:0|0:0,0:0:0:0:
96,134,49580,1,0,0:0:0:0:
96,134,49757,6,0,L|81:209,1,65,8|0,0:0|0:0,0:0:0:0:
83,276,50110,2,0,L|148:315,1,65
215,327,50463,2,0,P|216:284|198:256,2,65,8|0|0,0:0|0:0|0:0,0:0:0:0:
370,314,51168,6,0,L|377:240,1,65,8|0,0:0|0:0,0:0:0:0:
376,210,51433,1,0,0:0:0:0:
376,210,51521,1,0,0:0:0:0:
339,141,51698,1,0,0:0:0:0:
339,141,51874,2,0,P|281:113|214:120,1,130,8|0,0:0|0:0,0:0:0:0:
159,172,52404,1,0,0:0:0:0:
159,172,52580,6,0,P|155:202|141:240,1,65,8|0,0:0|0:0,0:0:0:0:
139,313,52933,2,0,P|169:317|207:331,1,65
279,344,53286,1,8,0:0:0:0:
279,344,53463,1,0,0:0:0:0:
375,324,53639,2,0,P|408:290|368:291,1,97.5
344,267,53992,6,0,P|309:249|286:218,1,65,8|0,0:0|0:0,0:0:0:0:
275,195,54257,1,0,0:0:0:0:
275,195,54345,1,0,0:0:0:0:
257,119,54521,2,0,P|234:95|205:81,1,65,0|8,0:0|0:0,0:0:0:0:
51,56,55051,2,0,L|32:120,1,65
35,203,55404,6,0,L|72:278,1,65,8|0,0:0|0:0,0:0:0:0:
105,328,55757,2,0,L|188:326,1,65
248,318,56110,1,8,0:0:0:0:
295,255,56286,1,0,0:0:0:0:
248,193,56463,1,0,0:0:0:0:
128,94,56816,5,8,0:0:0:0:
199,62,56992,1,0,0:0:0:0:
199,62,57080,1,0,0:0:0:0:
199,62,57168,2,0,L|281:68,1,65
335,100,57521,1,8,0:0:0:0:
375,251,57874,1,0,0:0:0:0:
375,251,58051,1,0,0:0:0:0:
288,281,58227,5,8,0:0:0:0:
217,321,58404,1,0,0:0:0:0:
157,267,58580,1,0,0:0:0:0:
190,193,58757,1,0,0:0:0:0:
271,201,58933,2,0,P|290:170|322:153,1,65,8|0,0:0|0:0,0:0:0:0:
436,57,59639,6,0,L|454:138,1,65,8|0,0:0|0:0,0:0:0:0:
463,158,59904,1,0,0:0:0:0:
463,158,59992,1,0,0:0:0:0:
468,235,60168,2,0,L|450:316,1,65,0|8,0:0|0:0,0:0:0:0:
301,333,60698,1,0,0:0:0:0:
248,276,60874,1,0,0:0:0:0:
248,276,61051,6,0,P|229:250|225:202,1,65,8|0,0:0|0:0,0:0:0:0:
144,235,61404,2,0,P|142:202|165:160,1,65
80,145,61757,2,0,P|96:117|138:93,1,65,8|0,0:0|0:0,0:0:0:0:
197,73,62110,1,0,0:0:0:0:
353,67,62463,6,0,L|389:129,1,65,8|0,0:0|0:0,0:0:0:0:
423,192,62816,2,0,L|387:254,1,65
349,314,63168,1,8,0:0:0:0:
195,284,63521,1,0,0:0:0:0:
195,284,63698,1,0,0:0:0:0:
143,226,63874,6,0,P|146:179|132:141,1,65,8|0,0:0|0:0,0:0:0:0:
124,85,64227,2,0,P|155:79|187:83,1,65
250,133,64580,1,8,0:0:0:0:
305,183,64757,1,0,0:0:0:0:
321,109,64933,2,0,P|345:74|370:110,1,97.5
383,144,65286,6,0,P|394:183|435:207,1,65,8|0,0:0|0:0,0:0:0:0:
455,263,65639,2,0,P|426:292|426:339,1,65,0|0,0:3|0:3,0:3:0:0:
357,358,65992,1,8,0:0:0:0:
204,328,66345,2,0,L|159:272,1,65
110,220,66698,6,0,P|105:182|123:143,1,65,8|0,0:0|0:0,0:0:0:0:
149,88,67051,2,0,P|182:70|225:73,1,65
279,104,67404,2,0,P|311:101|339:85,1,65,8|0,0:0|0:0,0:0:0:0:
394,34,67757,1,0,0:0:0:0:
489,158,68110,6,0,L|473:229,1,65,8|0,0:0|0:0,0:0:0:0:
464,259,68374,1,0,0:0:0:0:
464,259,68463,1,0,0:0:0:0:
408,313,68639,2,0,L|335:304,1,65,0|8,0:0|0:0,0:0:0:0:
232,196,69168,2,0,L|304:204,1,65
375,203,69521,5,8,0:0:0:0:
452,207,69698,1,0,0:0:0:0:
456,129,69874,1,8,0:0:0:0:
379,125,70051,1,0,0:0:0:0:
301,124,70227,2,0,L|221:113,2,65,8|0|0,0:0|0:0|0:0,0:0:0:0:
430,36,70933,6,0,P|367:42|288:31,2,130,8|0|8,0:0|0:0|0:0,0:0:0:0:
481,184,71992,1,0,0:0:0:0:
430,330,72345,2,0,P|365:322|300:328,1,130,8|0,0:0|0:0,0:0:0:0:
146,334,73051,2,0,P|81:339|16:332,1,130,8|0,0:0|0:0,0:0:0:0:
126,220,73757,5,8,0:3:0:0:
75,72,74110,1,0,0:3:0:0:
222,21,74463,1,8,0:3:0:0:
273,169,74816,1,0,0:3:0:0:
299,242,74992,1,0,0:0:0:0:
330,313,75168,2,0,B|396:312|396:312|452:268,1,130,8|0,0:0|0:0,0:0:0:0:
389,128,75874,2,0,B|323:128|323:128|267:172,1,130,8|0,0:0|0:0,0:0:0:0:
220,228,76404,1,0,0:0:0:0:
163,281,76580,6,0,P|126:277|97:243,1,65,8|0,0:0|0:0,0:0:0:0:
88,224,76845,1,0,0:0:0:0:
88,224,76933,1,0,0:0:0:0:
63,149,77110,2,0,P|54:112|76:73,1,65,0|8,0:0|0:0,0:0:0:0:
216,58,77639,2,0,P|255:66|295:54,1,65
357,48,77992,5,8,0:0:0:0:
357,48,78168,1,0,0:0:0:0:
414,103,78345,1,0,0:0:0:0:
414,103,78521,1,0,0:0:0:0:
357,157,78698,1,8,0:0:0:0:
357,157,78874,1,0,0:0:0:0:
410,215,79051,1,0,0:0:0:0:
256,192,79404,12,14,81874,0:0:0:0:
