osu file format v14

[General]
AudioFilename: audio.mp3
AudioLeadIn: 0
PreviewTime: 7444
Countdown: 0
SampleSet: Soft
StackLeniency: 0.4
Mode: 0
LetterboxInBreaks: 0
WidescreenStoryboard: 1

[Editor]
Bookmarks: 7444,18111,28777,37944,51444,71089,74089
DistanceSpacing: 0.7
BeatDivisor: 4
GridSize: 4
TimelineZoom: 1.8

[Metadata]
Title:Pon De Beach (M@STER VERSION)
TitleUnicode:Pon De Beach (M@STER VERSION)
Artist:Ganaha Hibiki (CV:Numakura Manami)
ArtistUnicode:我那覇響 (CV: Numakura Manami)
Creator:Rishe
Version:ime
Source:THE iDOLM@STER ONE FOR ALL
Tags:
BeatmapID:1183941
BeatmapSetID:524980

[Difficulty]
HPDrainRate:6
CircleSize:4
OverallDifficulty:8
ApproachRate:9.3
SliderMultiplier:1.8
SliderTickRate:1

[Events]
//Background and Video events
0,0,"ime.jpg",0,0
//Break Periods
//Storyboard Layer 0 (Background)
//Storyboard Layer 1 (Fail)
//Storyboard Layer 2 (Pass)
//Storyboard Layer 3 (Foreground)
//Storyboard Sound Samples

[TimingPoints]
756,333.333333333333,4,2,1,40,1,0
7422,-100,4,2,1,50,0,0
17422,-142.857142857143,4,2,1,50,0,0
18089,-125,4,2,1,50,0,0
26922,-83.3333333333333,4,2,1,50,0,0
28089,-125,4,2,1,50,0,0
28755,-100,4,2,1,50,0,0
35422,-66.6666666666667,4,2,1,50,0,0
35922,-100,4,2,1,50,0,0
47422,-142.857142857143,4,2,1,50,0,0
51422,-76.9230769230769,4,2,1,50,0,0
52005,-100,4,2,1,50,0,0
54089,-76.9230769230769,4,2,1,50,0,0
54589,-100,4,2,1,50,0,0
56755,-76.9230769230769,4,2,1,50,0,0
57422,-100,4,2,1,50,0,0
62089,-76.9230769230769,4,2,1,50,0,0
62755,-100,4,2,1,50,0,0
64755,-76.9230769230769,4,2,1,50,0,0
65255,-100,4,2,1,50,0,0
65755,-100,4,2,1,50,0,0
67422,-76.9230769230769,4,2,1,50,0,0
68089,-100,4,2,1,50,0,0
69089,-76.9230769230769,4,2,1,50,0,0
69422,-100,4,2,1,50,0,0
71755,-142.857142857143,4,2,1,50,0,0
73755,-66.6666666666667,4,2,1,50,0,0

[Colours]
Combo1 : 206,164,232
Combo2 : 137,218,171
Combo3 : 73,125,248
Combo4 : 255,111,114

[HitObjects]
256,192,6089,12,0,7089,0:0:0:0:
254,202,7422,6,0,P|197:219|110:125,1,180
25,69,7922,1,0,0:0:0:0:
25,69,8005,1,0,0:0:0:0:
25,69,8089,2,0,P|77:49|117:37,1,90
337,128,8422,2,0,P|295:111|252:97,1,90
112,147,8755,6,0,L|126:255,2,90
257,53,9255,2,0,L|251:106,1,45
222,142,9422,2,0,P|285:138|321:139,1,90
463,167,9755,1,0,0:0:0:0:
381,34,9922,1,0,0:0:0:0:
296,222,10089,5,0,0:0:0:0:
296,222,10422,1,0,0:0:0:0:
437,313,10589,2,0,L|428:370,2,45
463,167,10922,1,0,0:0:0:0:
283,332,11089,1,0,0:0:0:0:
198,269,11255,6,0,P|184:217|190:87,1,180
295,220,11755,1,0,0:0:0:0:
96,286,11922,1,0,0:0:0:0:
92,263,12005,1,0,0:0:0:0:
88,240,12089,1,0,0:0:0:0:
73,151,12255,1,0,0:0:0:0:
59,61,12422,1,0,0:0:0:0:
6,207,12589,1,0,0:0:0:0:
186,91,12755,6,0,B|279:81|270:123|363:109,1,180
459,24,13255,1,0,0:0:0:0:
459,24,13339,1,0,0:0:0:0:
459,24,13422,2,0,L|366:16,1,90
284,206,13755,1,0,0:0:0:0:
450,156,13922,2,0,L|443:97,1,45
362,109,14089,5,0,0:0:0:0:
438,230,14255,1,0,0:0:0:0:
327,322,14422,1,0,0:0:0:0:
327,322,14589,2,0,B|258:307|258:307|213:315|213:315|144:298,1,180
80,287,15005,1,0,0:0:0:0:
53,281,15089,2,0,P|46:321|46:349,1,45
211,228,15255,2,0,P|208:205|203:183,1,45
60,134,15422,6,0,P|108:153|218:69,1,180
109,11,15922,2,0,L|103:68,1,45
299,77,16089,1,0,0:0:0:0:
205,7,16255,1,0,0:0:0:0:
271,174,16422,1,0,0:0:0:0:
404,80,16589,5,0,0:0:0:0:
404,80,16922,6,0,P|426:129|433:155,1,67.5
422,157,17089,2,0,P|388:174|358:195,1,67.5
349,218,17255,2,0,P|399:227|426:237,1,67.5
427,254,17422,6,0,L|415:357,2,94.499997116089
211,335,18089,6,0,P|164:345|80:276,1,144
9,344,18589,1,0,0:0:0:0:
94,268,18755,2,0,L|101:185,1,72
17,56,19089,2,0,P|7:113|34:176,1,108
100,196,19422,6,0,P|159:201|250:214,1,144
242,212,19922,2,0,L|230:266,1,36
326,186,20089,1,0,0:0:0:0:
124,103,20255,2,0,L|91:89,2,36
28,160,20589,1,0,0:0:0:0:
236,76,20755,6,0,P|292:75|393:83,1,144
496,200,21255,1,0,0:0:0:0:
466,113,21422,2,0,P|459:73|459:34,1,72
397,172,21755,2,0,P|396:207|389:243,1,72
314,260,22089,6,0,P|361:266|429:352,1,144
252,321,22589,2,0,L|261:164,1,144
331,342,23089,1,0,0:0:0:0:
202,349,23255,1,0,0:0:0:0:
72,357,23422,6,0,L|-5:336,1,72
129,207,23755,2,0,L|147:276,1,72
4,249,24089,2,0,L|37:105,1,144
237,113,24755,6,0,P|189:98|118:15,1,144
235,13,25255,1,0,0:0:0:0:
291,178,25422,2,0,L|270:273,1,72
328,84,25755,2,0,L|398:68,1,72
498,198,26089,5,0,0:0:0:0:
372,171,26255,1,0,0:0:0:0:
378,195,26339,1,0,0:0:0:0:
385,219,26422,1,0,0:0:0:0:
437,358,26589,5,0,0:0:0:0:
262,296,26755,1,0,0:0:0:0:
268,272,26839,1,0,0:0:0:0:
275,246,26922,2,0,L|265:192,1,53.9999983520508
122,126,27089,2,0,L|132:180,1,53.9999983520508
230,80,27255,5,0,0:0:0:0:
251,83,27589,5,0,0:0:0:0:
272,87,27922,5,0,0:0:0:0:
397,180,28089,2,0,L|390:220,1,36
314,220,28255,2,0,L|321:260,1,36
222,341,28422,2,0,P|216:298|216:215,1,108
214,233,28755,5,0,0:0:0:0:
105,230,28922,1,0,0:0:0:0:
95,351,29089,2,0,P|45:337|3:320,1,90
222,341,29422,1,0,0:0:0:0:
21,247,29589,1,0,0:0:0:0:
21,247,29672,1,0,0:0:0:0:
21,247,29755,1,0,0:0:0:0:
186,139,29922,1,0,0:0:0:0:
44,161,30089,6,0,L|34:62,1,90
138,40,30422,1,0,0:0:0:0:
186,139,30589,2,0,P|245:162|340:102,1,180
342,88,31005,1,0,0:0:0:0:
345,70,31089,2,0,L|236:54,1,90
299,213,31422,6,0,L|461:200,1,135
458,185,31755,2,0,P|473:236|463:284,1,90
312,356,32089,1,0,0:0:0:0:
289,352,32172,1,0,0:0:0:0:
267,349,32255,1,0,0:0:0:0:
245,345,32338,1,0,0:0:0:0:
218,342,32422,2,0,L|204:249,1,90
32,158,32755,5,0,0:0:0:0:
32,158,33089,1,0,0:0:0:0:
149,230,33255,1,0,0:0:0:0:
188,219,33339,1,0,0:0:0:0:
227,209,33422,1,0,0:0:0:0:
44,263,33589,1,0,0:0:0:0:
133,137,33755,2,0,L|140:48,1,90
360,126,34089,6,0,P|312:125|241:20,1,180
434,52,34589,1,0,0:0:0:0:
470,140,34755,2,0,P|467:186|452:239,1,90
356,293,35089,1,0,0:0:0:0:
308,194,35255,1,0,0:0:0:0:
209,359,35422,6,0,P|163:308|225:350,1,202.500007724762
235,333,35755,1,0,0:0:0:0:
54,264,35922,1,0,0:0:0:0:
49,241,36005,1,0,0:0:0:0:
46,219,36088,1,0,0:0:0:0:
45,197,36172,1,0,0:0:0:0:
46,172,36255,2,0,P|74:165|100:160,1,45
194,219,36422,1,0,0:0:0:0:
284,92,36589,1,0,0:0:0:0:
144,32,36755,5,0,0:0:0:0:
144,32,36922,1,0,0:0:0:0:
286,185,37089,2,0,L|395:166,1,90
397,166,37339,1,0,0:0:0:0:
419,163,37422,2,0,L|402:229,1,45
323,329,37589,2,0,L|311:285,1,45
453,310,37755,1,0,0:0:0:0:
157,254,37922,5,0,0:0:0:0:
157,254,38255,5,0,0:0:0:0:
163,227,38339,1,0,0:0:0:0:
53,113,38505,1,0,0:0:0:0:
59,140,38589,1,0,0:0:0:0:
252,185,38755,5,0,0:0:0:0:
256,158,38839,1,0,0:0:0:0:
259,131,38922,1,0,0:0:0:0:
259,104,39005,1,0,0:0:0:0:
257,76,39089,2,0,P|202:62|155:57,1,90
347,221,39422,6,0,P|417:196|524:158,1,180
487,272,39922,1,0,0:0:0:0:
354,130,40089,2,0,L|362:17,1,90
230,168,40422,1,0,0:0:0:0:
468,77,40589,1,0,0:0:0:0:
275,254,40755,6,0,P|209:267|144:181,1,180
251,44,41255,1,0,0:0:0:0:
267,65,41339,1,0,0:0:0:0:
285,84,41422,2,0,P|297:119|302:139,2,45
40,78,41755,1,0,0:0:0:0:
230,168,41922,5,0,0:0:0:0:
47,313,42089,1,0,0:0:0:0:
133,356,42255,1,0,0:0:0:0:
47,313,42422,2,0,P|38:263|33:210,1,90
59,192,42672,1,0,0:0:0:0:
95,174,42755,2,0,P|126:173|160:182,1,45
190,334,42922,2,0,P|173:318|160:300,1,45
248,245,43089,2,0,L|365:231,1,90
367,262,43339,1,0,0:0:0:0:
395,290,43422,6,0,L|409:97,1,180
301,351,43922,2,0,P|360:317|469:354,1,180
500,215,44422,2,0,L|491:271,1,45
301,361,44589,5,0,0:0:0:0:
224,247,44755,2,0,P|216:192|210:147,1,90
448,70,45089,1,0,0:0:0:0:
325,172,45255,1,0,0:0:0:0:
332,131,45339,1,0,0:0:0:0:
340,91,45422,1,0,0:0:0:0:
226,41,45589,1,0,0:0:0:0:
420,169,45755,2,0,P|483:163|513:144,1,90
226,41,46089,6,0,P|172:37|57:102,1,180
192,279,46589,1,0,0:0:0:0:
190,256,46672,1,0,0:0:0:0:
189,234,46755,1,0,0:0:0:0:
187,211,46839,1,0,0:0:0:0:
186,189,46922,1,0,0:0:0:0:
185,166,47005,1,0,0:0:0:0:
182,143,47089,2,0,L|125:137,1,45
35,303,47255,2,0,L|79:298,1,45
329,352,47422,6,0,B|361:220|259:241|306:110,1,251.999992309571
385,58,48255,1,0,0:0:0:0:
385,58,48589,2,0,P|325:54|243:43,1,125.999996154785
397,158,49089,2,0,P|446:144|470:141,1,62.9999980773926
471,52,49422,5,0,0:0:0:0:
297,155,49589,1,0,0:0:0:0:
124,52,49755,1,0,0:0:0:0:
124,52,50089,6,0,P|115:117|109:187,1,125.999996154785
235,354,50589,1,0,0:0:0:0:
224,264,50755,2,0,L|215:184,1,62.9999980773926
114,280,51089,2,0,L|121:342,1,62.9999980773926
460,327,51422,6,0,P|399:337|319:197,1,233.999989288331
490,69,51922,1,0,0:0:0:0:
486,97,52005,1,0,0:0:0:0:
481,128,52089,2,0,L|469:221,1,90
238,108,52422,2,0,L|377:93,1,135
372,93,52755,5,0,0:0:0:0:
292,13,52922,1,0,0:0:0:0:
292,13,53005,1,0,0:0:0:0:
292,13,53089,1,0,0:0:0:0:
195,196,53255,1,0,0:0:0:0:
46,75,53422,1,0,0:0:0:0:
291,181,53589,1,0,0:0:0:0:
112,275,53755,1,0,0:0:0:0:
195,37,53922,1,0,0:0:0:0:
224,253,54089,6,0,B|344:208|337:302|466:264,1,233.999989288331
286,341,54589,1,0,0:0:0:0:
409,192,54755,2,0,L|401:89,1,90
224,253,55089,6,0,P|118:270|43:133,1,270
216,43,55755,1,0,0:0:0:0:
62,68,55922,2,0,L|51:20,2,45
312,177,56255,5,0,0:0:0:0:
165,173,56422,1,0,0:0:0:0:
413,38,56589,1,0,0:0:0:0:
254,261,56755,6,0,B|351:287|399:199|399:199|406:240|389:273,1,233.999989288331
322,368,57255,2,0,P|320:340|319:299,1,58.4999973220826
428,152,57422,2,0,P|440:202|439:253,1,90
219,355,57755,6,0,B|144:343|144:343|118:353|118:353|38:342,1,180
116,131,58255,1,0,0:0:0:0:
133,172,58339,1,0,0:0:0:0:
149,213,58422,1,0,0:0:0:0:
43,270,58589,1,0,0:0:0:0:
234,116,58755,2,0,P|242:33|243:12,2,90
48,64,59255,1,0,0:0:0:0:
250,230,59422,6,0,P|299:238|397:145,1,180
340,59,59922,1,0,0:0:0:0:
340,59,60255,1,0,0:0:0:0:
492,139,60422,2,0,P|479:180|468:231,1,90
443,361,60755,5,0,0:0:0:0:
416,346,60922,1,0,0:0:0:0:
476,327,61089,1,0,0:0:0:0:
346,304,61255,1,0,0:0:0:0:
488,281,61422,1,0,0:0:0:0:
216,264,61589,1,0,0:0:0:0:
395,129,61755,1,0,0:0:0:0:
416,346,61922,1,0,0:0:0:0:
239,166,62089,6,0,P|166:152|6:130,1,233.999989288331
82,222,62589,1,0,0:0:0:0:
211,83,62755,2,0,P|274:70|326:63,1,90
82,222,63089,6,0,L|96:31,1,180
336,146,63589,1,0,0:0:0:0:
336,146,63672,1,0,0:0:0:0:
336,146,63755,1,0,0:0:0:0:
379,37,63922,1,0,0:0:0:0:
483,89,64089,1,0,0:0:0:0:
440,197,64255,5,0,0:0:0:0:
254,289,64422,1,0,0:0:0:0:
84,170,64589,1,0,0:0:0:0:
332,271,64755,6,0,P|303:353|180:322,1,233.999989288331
446,211,65255,2,0,L|431:324,1,90
102,279,65589,1,0,0:0:0:0:
257,178,65755,2,0,L|245:31,1,135
315,13,66089,5,0,0:0:0:0:
135,167,66255,1,0,0:0:0:0:
104,158,66339,1,0,0:0:0:0:
73,150,66422,1,0,0:0:0:0:
212,243,66589,1,0,0:0:0:0:
160,78,66755,1,0,0:0:0:0:
81,264,66922,1,0,0:0:0:0:
352,135,67089,2,0,P|397:136|451:140,1,90
247,364,67422,6,0,P|211:314|249:146,1,233.999989288331
314,298,67922,1,0,0:0:0:0:
376,235,68089,2,0,P|427:222|469:218,1,90
138,323,68422,1,0,0:0:0:0:
239,154,68589,1,0,0:0:0:0:
239,154,68672,1,0,0:0:0:0:
239,154,68755,2,0,L|246:76,1,45
140,121,68922,2,0,L|133:42,1,45
233,28,69089,6,0,P|258:29|301:40,1,58.4999973220826
142,212,69255,2,0,P|112:210|84:203,1,58.4999973220826
342,113,69422,5,0,0:0:0:0:
342,113,69589,2,0,P|356:206|368:299,1,180
456,352,70089,2,0,L|235:342,1,180
179,365,70589,1,0,0:0:0:0:
222,276,70755,2,0,P|226:226|228:183,1,90
0,259,71089,6,0,P|51:278|123:126,1,270
57,199,71755,2,0,B|204:152|170:241|318:192,1,251.999992309571
217,97,72589,5,0,0:0:0:0:
217,97,72672,1,0,0:0:0:0:
217,97,72755,1,0,0:0:0:0:
311,286,72922,1,0,0:0:0:0:
311,286,73255,5,0,0:0:0:0:
403,293,73422,2,0,P|454:307|480:318,1,62.9999980773926
200,362,73755,6,0,B|166:318|194:277|194:277|180:262|180:262|211:226|182:168,1,202.500007724762
166,144,74089,5,0,0:0:0:0:
