osu file format v14

[General]
AudioFilename: audio.mp3
AudioLeadIn: 0
PreviewTime: 7444
Countdown: 1
SampleSet: None
StackLeniency: 0.7
Mode: 0
LetterboxInBreaks: 0
WidescreenStoryboard: 0

[Editor]
Bookmarks: 79444
DistanceSpacing: 1.5
BeatDivisor: 4
GridSize: 32
TimelineZoom: 1

[Metadata]
Title:Pon De Beach (M@STER VERSION)
TitleUnicode:Pon De Beach (M@STER VERSION)
Artist:Ganaha Hibiki (CV:Numakura Manami)
ArtistUnicode:我那覇響 (CV: Numakura Manami)
Creator:Rishe
Version:an
Source:THE iDOLM@STER ONE FOR ALL
Tags:
BeatmapID:1205798
BeatmapSetID:524980

[Difficulty]
HPDrainRate:6
CircleSize:4
OverallDifficulty:8
ApproachRate:9.4
SliderMultiplier:1.87
SliderTickRate:1

[Events]
//Background and Video events
0,0,"2.png",0,0
//Break Periods
//Storyboard Layer 0 (Background)
//Storyboard Layer 1 (Fail)
//Storyboard Layer 2 (Pass)
//Storyboard Layer 3 (Foreground)
//Storyboard Sound Samples

[TimingPoints]
756,333.333333333333,4,2,1,40,1,0
756,-133.333333333333,4,3,1,15,0,0
7422,-100,4,2,1,45,0,0
12755,-83.3333333333333,4,2,1,45,0,0
12922,-100,4,2,1,45,0,0
16589,-66.6666666666667,4,2,1,45,0,0
16922,-111.111111111111,4,2,1,20,0,0
17005,-111.111111111111,4,2,1,5,0,0
17089,-111.111111111111,4,2,1,20,0,0
17172,-111.111111111111,4,2,1,5,0,0
17255,-111.111111111111,4,2,1,20,0,0
17339,-111.111111111111,4,2,1,5,0,0
17422,-125,4,2,1,5,0,0
18089,-125,4,2,1,30,0,0
20422,-100,4,2,1,30,0,0
20589,-125,4,2,1,30,0,0
25089,-100,4,2,1,30,0,0
27255,-142.857142857143,4,2,1,30,0,0
28089,-100,4,2,1,30,0,0
28589,-100,4,2,1,45,0,0
37922,-125,4,2,1,45,0,0
39422,-100,4,2,1,45,0,0
47422,-166.666666666667,4,3,1,45,0,0
48589,-133.333333333333,4,3,1,45,0,0
50089,-153.846153846153,4,3,1,45,0,0
50755,-200,4,3,1,45,0,0
51422,-100,4,3,1,45,0,1
51839,-125,4,3,1,45,0,1
52339,-166.666666666667,4,3,1,45,0,1
52922,-100,4,2,1,20,0,1
54089,-100,4,3,1,45,0,1
54589,-125,4,3,1,45,0,1
55089,-166.666666666667,4,3,1,45,0,1
55755,-133.333333333333,4,2,1,20,0,1
56755,-100,4,3,1,45,0,1
57255,-125,4,3,1,45,0,1
57755,-166.666666666667,4,3,1,45,0,1
58250,-166.666666666667,4,2,1,45,0,1
59089,-133.333333333333,4,2,1,45,0,1
62089,-100,4,3,1,45,0,1
62589,-125,4,3,1,45,0,1
63089,-166.666666666667,4,3,1,45,0,1
63505,-133.333333333333,4,2,1,45,0,1
64755,-100,4,3,1,45,0,1
65255,-125,4,3,1,45,0,1
65755,-166.666666666667,4,3,1,45,0,1
66422,-133.333333333333,4,2,1,45,0,1
67422,-100,4,3,1,45,0,1
67922,-125,4,3,1,45,0,1
68422,-166.666666666667,4,3,1,45,0,1
68839,-133.333333333333,4,2,1,45,0,1
71089,-133.333333333333,4,3,1,45,0,1
71172,-133.333333333333,4,2,1,45,0,0
74089,-100,4,2,1,45,0,0
84755,-100,4,3,1,65,0,0
94755,-100,4,2,1,45,0,0
94867,-100,4,2,1,5,0,0
94978,-100,4,2,1,45,0,0
95089,-100,4,2,1,5,0,0
95189,-100,4,2,1,45,0,0
95311,-100,4,2,1,5,0,0
95423,-76.9230769230769,4,3,1,45,0,0
95922,-100,4,3,1,65,0,0

[Colours]
Combo1 : 255,51,51
Combo2 : 71,235,1
Combo3 : 73,125,248
Combo4 : 248,255,203
Combo5 : 255,255,255
Combo6 : 243,238,35

[HitObjects]
200,126,756,6,0,P|183:175|183:215,2,70.1250026750566
295,193,1255,2,0,L|273:54,1,140.250005350113,0|0,0:0|0:0,0:0:0:0:
270,37,1672,1,0,0:0:0:0:
270,37,1755,1,0,0:0:0:0:
191,98,1922,1,0,0:0:0:0:
164,12,2089,1,0,0:0:0:0:
301,50,2255,1,0,0:0:0:0:
207,159,2422,1,0,0:0:0:0:
316,47,2589,6,0,L|162:84,1,140.250005350113
157,90,3005,1,0,0:0:0:0:
157,90,3089,1,0,0:0:0:0:
142,186,3255,1,0,0:0:0:0:
18,123,3422,6,0,L|115:136,2,70.1250026750566
188,233,3922,2,0,P|131:260|52:205,1,140.250005350113
49,211,4339,1,0,0:0:0:0:
49,211,4422,1,0,0:0:0:0:
256,192,4589,12,0,7255,0:0:0:0:
223,139,7422,6,0,L|235:243,1,93.5
239,258,7672,1,0,0:0:0:0:
239,258,7755,1,0,0:0:0:0:
147,176,7922,1,0,0:0:0:0:
147,176,8005,1,0,0:0:0:0:
147,176,8089,2,0,P|142:153|139:129,1,46.75
305,46,8255,2,0,P|302:70|298:93,1,46.75
205,58,8422,1,0,0:0:0:0:
145,178,8589,5,0,0:0:0:0:
145,178,8672,1,0,0:0:0:0:
145,178,8755,2,0,L|41:192,1,93.5
175,98,9089,1,0,0:0:0:0:
131,271,9255,6,0,B|196:261|196:261|246:281|246:281|331:265,1,187
336,269,9672,1,0,0:0:0:0:
336,269,9755,1,0,0:0:0:0:
292,180,9922,5,0,0:0:0:0:
292,180,10005,1,0,0:0:0:0:
292,180,10089,2,0,L|229:191,1,46.75
132,266,10255,2,0,L|179:259,1,46.75
385,284,10422,2,0,L|320:295,1,46.75
234,327,10589,6,0,P|259:238|175:168,1,187
182,171,11005,1,0,0:0:0:0:
182,171,11089,1,0,0:0:0:0:
37,248,11255,5,0,0:0:0:0:
67,264,11338,1,0,0:0:0:0:
101,271,11421,1,0,0:0:0:0:
136,269,11505,1,0,0:0:0:0:
169,258,11588,5,0,0:0:0:0:
201,244,11672,1,0,0:0:0:0:
234,233,11755,1,0,0:0:0:0:
269,231,11839,1,0,0:0:0:0:
303,238,11922,5,0,0:0:0:0:
334,255,12005,1,0,0:0:0:0:
358,271,12089,5,0,0:0:0:0:
389,288,12172,1,0,0:0:0:0:
423,295,12255,6,0,L|434:243,1,46.75
391,143,12422,2,0,L|377:211,1,46.75
311,373,12589,2,0,L|322:327,1,46.75
271,201,12755,6,0,P|209:211|136:217,1,112.199996575928
131,220,13005,1,0,0:0:0:0:
131,220,13089,1,0,0:0:0:0:
39,65,13255,2,0,P|76:71|106:79,1,46.75
157,142,13422,2,0,P|191:138|228:131,1,46.75
260,34,13589,2,0,P|297:40|327:48,1,46.75
391,131,13755,1,0,0:0:0:0:
291,216,13922,5,0,0:0:0:0:
291,216,14005,1,0,0:0:0:0:
291,216,14089,2,0,B|297:166|309:101,1,93.5
390,40,14422,1,0,0:0:0:0:
225,112,14589,5,0,0:0:0:0:
225,112,14672,1,0,0:0:0:0:
225,112,14755,2,0,B|217:154|211:204,1,93.5
482,356,15089,6,0,P|442:336|418:329,1,46.75
317,303,15255,2,0,P|253:300|231:304,1,46.75
155,325,15422,1,0,0:0:0:0:
325,373,15589,1,0,0:0:0:0:
275,196,15755,1,0,0:0:0:0:
162,330,15922,1,0,0:0:0:0:
332,378,16089,1,0,0:0:0:0:
282,201,16255,1,0,0:0:0:0:
170,334,16422,1,0,0:0:0:0:
263,296,16589,5,0,0:0:0:0:
263,296,16922,6,0,P|270:259|277:235,1,42.0749987159729
240,278,17089,6,0,P|247:241|254:217,1,42.0749987159729
216,257,17255,6,0,P|223:220|230:196,1,42.0749987159729
151,325,17422,6,0,L|22:348,2,112.2
263,362,18089,2,0,B|271:320|271:320|254:241,1,112.2
252,222,18422,2,0,P|189:233|152:236,1,74.8
44,155,18755,2,0,P|107:144|144:141,1,74.8
117,142,19005,1,0,0:0:0:0:
117,142,19089,1,0,0:0:0:0:
224,177,19255,1,0,0:0:0:0:
296,63,19422,6,0,L|309:164,1,74.8
311,162,19672,1,0,0:0:0:0:
311,162,19755,1,0,0:0:0:0:
315,277,19922,1,0,0:0:0:0:
349,264,20005,1,0,0:0:0:0:
387,262,20088,1,0,0:0:0:0:
423,272,20171,1,0,0:0:0:0:
453,293,20255,1,0,0:0:0:0:
476,322,20338,1,0,0:0:0:0:
489,357,20422,6,0,P|430:353|376:348,1,93.5
371,352,20672,1,0,0:0:0:0:
371,352,20755,1,0,0:0:0:0:
424,260,20922,1,0,0:0:0:0:
308,276,21089,1,0,0:0:0:0:
471,323,21255,1,0,0:0:0:0:
242,283,21422,6,0,P|233:328|225:373,1,74.8
166,244,21755,2,0,P|156:290|147:337,1,74.8
146,342,22005,1,0,0:0:0:0:
146,342,22089,1,0,0:0:0:0:
236,302,22255,1,0,0:0:0:0:
92,236,22422,1,0,0:0:0:0:
19,358,22589,6,0,P|79:317|158:359,1,149.6
161,359,23005,1,0,0:0:0:0:
161,359,23089,1,0,0:0:0:0:
242,253,23255,5,0,0:0:0:0:
242,253,23339,1,0,0:0:0:0:
242,253,23422,2,0,L|229:165,1,74.8
144,56,23755,2,0,L|130:147,1,74.8
98,241,24005,1,0,0:0:0:0:
98,241,24089,2,0,L|-4:250,1,74.8
160,198,24422,1,0,0:0:0:0:
210,297,24589,1,0,0:0:0:0:
210,297,24672,1,0,0:0:0:0:
210,297,24755,6,0,L|301:287,1,74.8
391,195,25089,6,0,L|379:252,1,46.75
257,141,25255,2,0,L|264:194,1,46.75
378,130,25422,6,0,L|368:180,1,46.75
219,89,25589,2,0,L|226:142,1,46.75
355,69,25755,6,0,L|345:119,1,46.75
184,36,25922,2,0,L|191:89,1,46.75
126,204,26089,6,0,P|159:187|229:174,1,93.5
218,178,26339,1,0,0:0:0:0:
218,178,26422,1,0,0:0:0:0:
158,286,26589,1,0,0:0:0:0:
121,293,26672,1,0,0:0:0:0:
85,283,26755,1,0,0:0:0:0:
58,258,26838,1,0,0:0:0:0:
44,224,26922,6,0,P|46:198|54:177,1,46.75
214,99,27089,2,0,P|197:115|175:129,1,46.75
19,51,27255,6,0,B|66:37|66:37|147:51,2,130.899996005249
110,132,28089,2,0,B|106:165|103:179,1,46.75
34,250,28255,1,0,0:0:0:0:
34,250,28339,1,0,0:0:0:0:
34,250,28422,2,0,P|39:284|41:300,1,46.75
177,264,28589,1,0,0:0:0:0:
177,264,28672,1,0,0:0:0:0:
177,264,28755,2,0,P|181:236|186:211,1,46.75
83,175,28922,5,0,0:0:0:0:
238,130,29089,1,0,0:0:0:0:
130,46,29255,1,0,0:0:0:0:
137,54,29339,1,0,0:0:0:0:
137,54,29422,2,0,L|150:152,1,93.5
223,254,29755,2,0,P|261:248|282:244,1,46.75
346,132,29922,2,0,P|384:138|405:142,1,46.75
430,273,30089,5,0,0:0:0:0:
317,335,30255,2,0,P|286:333|253:326,1,46.75
354,206,30422,2,0,P|388:209|411:215,1,46.75
499,331,30589,2,0,P|474:329|446:325,1,46.75
299,269,30755,1,0,0:0:0:0:
275,229,30838,1,0,0:0:0:0:
275,183,30921,1,0,0:0:0:0:
299,143,31004,1,0,0:0:0:0:
340,122,31088,1,0,0:0:0:0:
356,208,31255,6,0,B|290:222|290:222|231:206|231:206|173:220,1,187
155,228,31672,1,0,0:0:0:0:
155,228,31755,1,0,0:0:0:0:
74,307,31922,1,0,0:0:0:0:
74,307,32005,1,0,0:0:0:0:
74,307,32089,6,0,L|63:235,1,46.75
138,147,32255,2,0,L|130:209,1,46.75
101,279,32422,2,0,L|90:207,1,46.75
177,127,32589,2,0,L|169:189,1,46.75
130,305,32755,6,0,L|27:320,1,93.5
11,324,33005,1,0,0:0:0:0:
11,324,33089,1,0,0:0:0:0:
123,211,33255,2,0,P|164:216|180:220,1,46.75
243,298,33422,2,0,P|284:293|300:289,1,46.75
376,190,33589,1,0,0:0:0:0:
376,190,33672,1,0,0:0:0:0:
376,190,33755,2,0,P|367:156|362:132,1,46.75
452,27,33922,2,0,P|441:48|425:71,1,46.75
233,56,34089,6,0,P|291:37|348:43,1,93.5
345,44,34339,1,0,0:0:0:0:
345,44,34422,1,0,0:0:0:0:
450,140,34589,1,0,0:0:0:0:
450,140,34672,1,0,0:0:0:0:
450,140,34755,2,0,P|446:163|442:186,1,46.75
289,259,34922,2,0,P|283:227|279:174,1,46.75
365,145,35089,2,0,L|359:272,1,93.5
146,336,35422,6,0,P|190:299|297:359,1,187
231,214,35922,1,0,0:0:0:0:
225,191,36005,1,0,0:0:0:0:
223,168,36088,1,0,0:0:0:0:
226,144,36172,1,0,0:0:0:0:
231,121,36255,2,0,P|244:88|254:68,1,46.75
398,50,36422,2,0,P|371:70|344:81,1,46.75
112,94,36589,6,0,B|249:78|249:78|237:101|229:127,1,187
312,129,37005,1,0,0:0:0:0:
312,129,37089,1,0,0:0:0:0:
214,229,37255,1,0,0:0:0:0:
214,229,37339,1,0,0:0:0:0:
214,229,37422,2,0,L|79:218,1,93.5
60,160,37755,1,0,0:0:0:0:
28,341,37922,6,0,P|83:300|171:341,3,149.6
205,236,39089,1,0,0:0:0:0:
205,236,39255,1,0,0:0:0:0:
440,183,39422,6,0,L|428:282,1,93.5
431,307,39672,1,0,0:0:0:0:
431,307,39755,1,0,0:0:0:0:
356,239,39922,2,0,P|357:214|364:189,1,46.75
512,224,40089,2,0,P|511:249|504:274,1,46.75
431,305,40255,1,0,0:0:0:0:
304,261,40422,6,0,L|205:273,1,93.5
179,282,40672,1,0,0:0:0:0:
179,282,40755,1,0,0:0:0:0:
214,182,40922,1,0,0:0:0:0:
275,339,41089,1,0,0:0:0:0:
99,272,41255,6,0,B|79:139|79:139|96:163|129:184,1,187
152,99,41672,1,0,0:0:0:0:
152,99,41755,1,0,0:0:0:0:
239,190,41922,1,0,0:0:0:0:
239,190,42005,1,0,0:0:0:0:
239,190,42089,2,0,L|226:263,1,46.75
129,302,42255,2,0,L|122:256,1,46.75
256,353,42422,2,0,L|372:369,1,93.5
474,202,42755,5,0,0:0:0:0:
442,188,42838,1,0,0:0:0:0:
407,192,42921,1,0,0:0:0:0:
379,212,43005,1,0,0:0:0:0:
364,243,43089,2,0,P|368:297|373:310,1,46.75
477,264,43255,2,0,P|514:258|527:254,1,46.75
464,97,43422,6,0,P|445:157|442:230,1,93.5
336,258,43755,2,0,P|345:286|349:317,1,46.75
466,347,43922,1,0,0:0:0:0:
466,347,44005,1,0,0:0:0:0:
466,347,44089,2,0,P|470:324|477:301,1,46.75
382,192,44255,2,0,P|358:211|318:226,1,46.75
285,330,44422,2,0,P|316:353|327:369,1,46.75
389,295,44589,5,0,0:0:0:0:
207,148,44755,1,0,0:0:0:0:
382,192,44922,1,0,0:0:0:0:
382,192,45089,2,0,L|280:214,1,93.5
133,245,45422,1,0,0:0:0:0:
166,252,45505,1,0,0:0:0:0:
194,274,45588,1,0,0:0:0:0:
210,304,45672,1,0,0:0:0:0:
212,339,45755,2,0,B|159:332|109:327,1,93.5
34,235,46089,6,0,L|47:174,1,46.75
47,328,46256,2,0,L|35:392,1,46.75
151,222,46422,2,0,L|212:211,1,46.75
232,353,46589,6,0,L|42:327,1,187
17,329,47005,1,0,0:0:0:0:
17,329,47089,1,0,0:0:0:0:
151,237,47255,1,0,0:0:0:0:
121,95,47422,6,0,P|76:130|13:132,1,112.199996575928
182,18,48089,2,0,P|217:69|212:135,1,112.199996575928
101,200,48589,2,0,B|121:95|121:95|87:121,1,140.250005350113,4|0,0:0|0:0,0:0:0:0:
64,40,49089,1,0,0:0:0:0:
20,158,49255,1,0,0:0:0:0:
161,119,49422,1,0,0:0:0:0:
37,83,49589,1,0,0:0:0:0:
126,163,49755,1,0,0:0:0:0:
180,44,49922,1,0,0:0:0:0:
63,104,50089,6,0,B|36:83|36:83|57:209,1,151.937493044854,4|0,0:0|0:0,0:0:0:0:
174,273,50755,6,0,B|194:168|194:168|167:188,1,140.250005350113,4|0,0:0|0:0,0:0:0:0:
167,188,51339,1,0,0:0:0:0:
167,188,51422,6,0,B|322:176|322:176|275:217,1,187,4|0,0:0|0:0,0:0:0:0:
237,266,51922,6,0,B|104:277|104:277|129:255,1,149.6,4|0,0:0|0:0,0:0:0:0:
168,187,52422,6,0,L|290:178,1,112.199996575928,4|0,0:0|0:0,0:0:0:0:
357,110,52922,1,0,0:0:0:0:
357,110,53005,1,0,0:0:0:0:
357,110,53089,2,0,L|351:208,1,93.5
287,266,53422,1,0,0:0:0:0:
424,203,53589,1,0,0:0:0:0:
400,298,53755,1,0,0:0:0:0:
321,157,53922,1,0,0:0:0:0:
270,272,54089,6,0,P|192:228|194:139,1,187,4|0,0:0|0:0,0:0:0:0:
239,65,54589,6,0,P|166:61|114:112,1,149.6,4|0,0:0|0:0,0:0:0:0:
54,170,55089,6,0,P|32:114|50:56,1,112.199996575928,4|0,0:0|0:0,0:0:0:0:
209,206,55755,2,0,P|196:263|146:299,1,105.187504012585
146,300,56089,1,0,0:0:0:0:
45,232,56255,1,0,0:0:0:0:
128,216,56422,1,0,0:0:0:0:
128,216,56589,1,0,0:0:0:0:
59,329,56755,6,0,B|196:307|196:307|164:353,1,187,4|0,0:0|0:0,0:0:0:0:
357,353,57255,6,0,B|240:368|240:368|268:324,1,149.6,4|0,0:0|0:0,0:0:0:0:
60,328,57755,6,0,L|178:312,1,112.199996575928
358,354,58422,1,0,0:0:0:0:
358,354,58755,1,0,0:0:0:0:
358,354,59089,6,0,P|316:295|366:229,1,140.250005350113
485,81,59589,1,0,0:0:0:0:
485,81,59672,1,0,0:0:0:0:
485,81,59755,6,0,L|335:60,2,140.250005350113
323,140,60922,1,0,0:0:0:0:
323,140,61089,1,0,0:0:0:0:
219,74,61255,1,0,0:0:0:0:
219,74,61339,1,0,0:0:0:0:
219,74,61422,1,0,0:0:0:0:
321,30,61589,1,0,0:0:0:0:
213,151,61755,1,0,0:0:0:0:
166,15,61922,1,0,0:0:0:0:
243,109,62089,6,0,P|188:158|67:126,1,187,4|0,0:0|0:0,0:0:0:0:
300,29,62589,6,0,P|341:99|316:172,1,149.6,4|0,0:0|0:0,0:0:0:0:
426,35,63089,6,0,P|387:85|317:93,1,112.199996575928,4|0,0:0|0:0,0:0:0:0:
182,26,63589,1,0,0:0:0:0:
270,144,63755,1,0,0:0:0:0:
182,26,63922,1,0,0:0:0:0:
182,26,64005,1,0,0:0:0:0:
182,26,64089,2,0,L|266:35,1,70.1250026750566
323,117,64422,5,0,0:0:0:0:
181,170,64589,1,0,0:0:0:0:
181,170,64672,1,0,0:0:0:0:
181,170,64755,6,0,B|87:152|87:152|-19:187,1,187,4|0,0:0|0:0,0:0:0:0:
21,257,65255,6,0,B|91:233|91:233|172:248,1,149.6,4|0,0:0|0:0,0:0:0:0:
155,324,65755,6,0,B|98:313|98:313|39:332,1,112.199996575928
232,384,66422,2,0,P|253:337|240:287,1,105.187504012585
223,263,66755,1,0,0:0:0:0:
57,365,66922,1,0,0:0:0:0:
154,330,67089,1,0,0:0:0:0:
51,220,67255,1,0,0:0:0:0:
51,220,67422,6,0,P|134:243|168:164,1,187,4|0,0:0|0:0,0:0:0:0:
222,89,67922,6,0,P|173:65|87:121,1,149.6,4|0,0:0|0:0,0:0:0:0:
304,145,68422,6,0,P|321:90|294:32,1,112.199996575928,4|0,0:0|0:0,0:0:0:0:
36,177,68922,1,0,0:0:0:0:
36,177,69005,1,0,0:0:0:0:
36,177,69089,6,0,L|187:197,2,140.250005350113
127,51,70089,1,0,0:0:0:0:
175,195,70422,2,0,L|28:178,2,140.250005350113,0|0|4,0:0|0:0|0:0,0:0:0:0:
256,192,71172,12,0,73922,0:0:0:0:
285,239,74089,6,0,L|388:226,1,93.5
409,228,74339,1,0,0:0:0:0:
409,228,74422,1,0,0:0:0:0:
321,148,74589,1,0,0:0:0:0:
321,148,74672,1,0,0:0:0:0:
321,148,74755,2,0,P|286:152|259:158,1,46.75
368,308,74922,2,0,P|403:304|430:298,1,46.75
446,174,75089,1,0,0:0:0:0:
276,247,75255,5,0,0:0:0:0:
276,247,75339,1,0,0:0:0:0:
276,247,75422,2,0,L|292:357,1,93.5
391,251,75755,1,0,0:0:0:0:
201,334,75922,2,0,B|57:320|57:320|111:290,1,187
113,289,76339,1,0,0:0:0:0:
113,289,76422,1,0,0:0:0:0:
207,201,76589,5,0,0:0:0:0:
207,201,76672,1,0,0:0:0:0:
207,201,76755,2,0,L|196:252,1,46.75
36,112,76922,2,0,L|48:187,1,46.75
195,65,77089,2,0,L|206:12,1,46.75
206,200,77255,6,0,P|290:167|366:217,1,187
380,236,77672,1,0,0:0:0:0:
380,236,77755,1,0,0:0:0:0:
434,294,77922,5,0,0:0:0:0:
466,261,78005,1,0,0:0:0:0:
477,216,78088,1,0,0:0:0:0:
463,172,78171,1,0,0:0:0:0:
429,141,78255,5,0,0:0:0:0:
385,123,78339,1,0,0:0:0:0:
353,157,78422,1,0,0:0:0:0:
312,179,78505,1,0,0:0:0:0:
266,187,78589,5,0,0:0:0:0:
221,179,78672,1,0,0:0:0:0:
180,157,78755,5,0,0:0:0:0:
149,122,78838,1,0,0:0:0:0:
131,79,78922,6,0,L|146:29,1,46.75
302,56,79089,2,0,L|289:107,1,46.75
164,183,79255,2,0,L|96:171,1,46.75
302,56,79422,6,0,L|426:46,1,93.5
429,50,79672,1,0,0:0:0:0:
429,50,79755,1,0,0:0:0:0:
479,117,79922,2,0,L|471:173,1,46.75
406,224,80089,2,0,L|396:281,1,46.75
327,323,80255,2,0,L|319:381,1,46.75
238,216,80422,1,0,0:0:0:0:
354,103,80589,5,0,0:0:0:0:
354,103,80672,1,0,0:0:0:0:
354,103,80755,2,0,P|345:166|337:215,1,93.5
209,112,81089,1,0,0:0:0:0:
431,140,81255,5,0,0:0:0:0:
431,140,81338,1,0,0:0:0:0:
431,140,81421,2,0,P|422:203|414:252,1,93.5
321,355,81755,6,0,P|283:348|255:340,1,46.75
230,236,81922,2,0,P|192:243|164:251,1,46.75
86,330,82089,1,0,0:0:0:0:
29,197,82255,1,0,0:0:0:0:
107,244,82422,1,0,0:0:0:0:
164,111,82588,1,0,0:0:0:0:
90,159,82755,1,0,0:0:0:0:
33,26,82921,1,0,0:0:0:0:
103,76,83089,1,0,0:0:0:0:
204,13,83255,5,0,0:0:0:0:
213,23,84089,5,0,0:0:0:0:
213,23,84200,5,0,0:0:0:0:
213,23,84311,6,0,L|203:111,1,62.3333333333333
308,179,84755,6,0,L|317:109,1,46.75
323,61,84922,1,0,0:0:0:0:
324,47,85005,1,0,0:0:0:0:
325,35,85089,1,0,0:0:0:0:
436,88,85255,1,0,0:0:0:0:
341,172,85422,1,0,0:0:0:0:
316,147,85505,1,0,0:0:0:0:
284,131,85588,1,0,0:0:0:0:
250,126,85671,1,0,0:0:0:0:
216,137,85755,6,0,P|150:127|84:122,1,93.5
82,125,86005,1,0,0:0:0:0:
82,125,86089,1,0,0:0:0:0:
48,232,86255,1,0,0:0:0:0:
159,187,86422,1,0,0:0:0:0:
37,141,86589,1,0,0:0:0:0:
98,296,86755,1,0,0:0:0:0:
185,175,86922,1,0,0:0:0:0:
25,232,87089,1,0,0:0:0:0:
183,172,87255,5,0,0:0:0:0:
25,232,87422,1,0,0:0:0:0:
149,351,87589,1,0,0:0:0:0:
124,251,87755,1,0,0:0:0:0:
254,304,87922,5,0,0:0:0:0:
285,301,88005,1,0,0:0:0:0:
316,298,88088,1,0,0:0:0:0:
348,295,88171,1,0,0:0:0:0:
379,292,88255,1,0,0:0:0:0:
446,162,88422,1,0,0:0:0:0:
316,249,88589,6,0,L|327:311,1,46.75
424,341,88755,1,0,0:0:0:0:
502,276,88922,1,0,0:0:0:0:
352,225,89089,1,0,0:0:0:0:
500,276,89255,1,0,0:0:0:0:
352,225,89422,2,0,P|292:233|237:241,1,93.5
354,97,89755,2,0,L|417:106,1,46.75
471,114,89922,1,0,0:0:0:0:
488,117,90005,1,0,0:0:0:0:
503,119,90089,5,0,0:0:0:0:
400,37,90255,1,0,0:0:0:0:
322,117,90422,2,0,P|266:125|223:133,1,93.5
198,139,90672,1,0,0:0:0:0:
198,139,90755,1,0,0:0:0:0:
288,208,90922,1,0,0:0:0:0:
320,48,91089,1,0,0:0:0:0:
171,123,91255,5,0,0:0:0:0:
174,138,91339,1,0,0:0:0:0:
178,154,91422,1,0,0:0:0:0:
288,162,91589,1,0,0:0:0:0:
79,100,91755,1,0,0:0:0:0:
213,36,91922,5,0,0:0:0:0:
230,66,92005,1,0,0:0:0:0:
234,100,92088,1,0,0:0:0:0:
225,134,92171,1,0,0:0:0:0:
203,161,92255,2,0,L|139:177,1,46.75
52,69,92422,2,0,L|106:80,1,46.75
168,93,92589,1,0,0:0:0:0:
181,96,92672,1,0,0:0:0:0:
309,194,92755,6,0,L|298:143,1,46.75
402,41,92922,2,0,L|395:103,1,46.75
258,69,93089,1,0,0:0:0:0:
376,167,93255,1,0,0:0:0:0:
371,198,93338,1,0,0:0:0:0:
367,229,93421,1,0,0:0:0:0:
361,260,93504,1,0,0:0:0:0:
357,291,93588,1,0,0:0:0:0:
202,241,93755,1,0,0:0:0:0:
151,357,93922,6,0,L|296:340,1,140.25
378,299,94255,2,0,L|382:253,1,46.75
228,181,94422,2,0,L|232:235,1,46.75
285,298,94589,1,0,0:0:0:0:
285,298,94672,1,0,0:0:0:0:
285,298,94755,6,0,B|324:294|350:278,1,62.3333333333333,2|0,0:0|0:0,0:0:0:0:
311,144,94978,6,0,P|293:180|286:202,1,62.3333333333333,2|0,0:0|0:0,0:0:0:0:
445,227,95200,6,0,P|404:209|367:197,1,62.3333333333333,2|0,0:0|0:0,0:0:0:0:
233,319,95422,2,0,P|296:329|334:291,1,93.5,6|0,0:0|0:0,0:0:0:0:
348,294,95672,1,0,0:0:0:0:
348,294,95755,1,0,0:0:0:0:
271,166,95922,1,0,0:0:0:0:
238,178,96005,1,0,0:0:0:0:
204,187,96088,1,0,0:0:0:0:
170,194,96171,1,0,0:0:0:0:
135,197,96255,1,0,0:0:0:0:
64,78,96422,5,0,0:0:0:0:
165,172,96589,1,0,0:0:0:0:
165,172,96672,1,0,0:0:0:0:
165,172,96755,2,0,L|146:298,2,124.666666666667
39,79,97422,2,0,P|108:94|196:19,1,187
281,122,97922,1,0,0:0:0:0:
281,122,98005,1,0,0:0:0:0:
281,122,98089,6,0,P|286:151|295:180,1,46.75
444,100,98255,2,0,P|439:77|434:55,1,46.75
278,122,98422,1,0,0:0:0:0:
254,120,98505,1,0,0:0:0:0:
231,118,98588,1,0,0:0:0:0:
208,116,98671,1,0,0:0:0:0:
185,116,98755,2,0,P|115:131|59:137,1,93.5
11,93,99005,1,0,0:0:0:0:
11,93,99089,2,0,L|24:201,1,93.5
86,327,99422,6,0,L|106:221,1,93.5
112,222,99672,1,0,0:0:0:0:
112,222,99755,1,0,0:0:0:0:
209,102,99922,1,0,0:0:0:0:
240,116,100005,1,0,0:0:0:0:
274,125,100088,1,0,0:0:0:0:
309,128,100171,1,0,0:0:0:0:
344,124,100255,1,0,0:0:0:0:
444,41,100422,1,0,0:0:0:0:
444,40,100755,6,0,L|420:240,1,187
349,353,101255,1,0,0:0:0:0:
349,353,101339,1,0,0:0:0:0:
349,353,101422,2,0,P|314:346|286:340,1,46.75
243,245,101589,2,0,P|208:252|180:258,1,46.75
83,300,101755,1,0,0:0:0:0:
200,177,101922,1,0,0:0:0:0:
200,177,102005,1,0,0:0:0:0:
200,177,102089,6,0,L|185:48,1,93.5
86,34,102422,1,0,0:0:0:0:
271,61,102589,1,0,0:0:0:0:
271,61,102672,2,0,L|373:52,1,93.5
391,50,102922,5,0,0:0:0:0:
419,61,103005,1,0,0:0:0:0:
442,82,103088,1,0,0:0:0:0:
453,111,103171,1,0,0:0:0:0:
453,142,103255,1,0,0:0:0:0:
441,170,103338,1,0,0:0:0:0:
418,191,103422,2,0,P|334:182|283:180,1,93.5
291,180,103672,1,0,0:0:0:0:
291,180,103755,1,0,0:0:0:0:
173,309,103922,5,0,0:0:0:0:
173,309,104005,1,0,0:0:0:0:
173,309,104089,2,0,P|257:299|308:297,1,93.5
377,323,104422,1,0,0:0:0:0:
235,216,104589,1,0,0:0:0:0:
235,216,104672,1,0,0:0:0:0:
235,216,104755,2,0,L|250:96,1,93.5
324,213,105089,1,0,0:0:0:0:
158,150,105255,1,0,0:0:0:0:
322,110,105422,6,0,P|387:105|489:94,1,140.25
468,183,105755,2,0,P|412:190|371:194,1,93.5
256,192,106089,12,0,108589,0:0:0:0:
