osu file format v14

[General]
AudioFilename: audio.mp3
AudioLeadIn: 0
PreviewTime: 284450
Countdown: 1
SampleSet: Normal
StackLeniency: 0.7
Mode: 0
LetterboxInBreaks: 0
WidescreenStoryboard: 0

[Editor]
DistanceSpacing: 1.5
BeatDivisor: 6
GridSize: 4
TimelineZoom: 1.5

[Metadata]
Title:Light of the Seven
TitleUnicode:Light of the Seven
Artist:Game Of Thrones Season 6 Episode 10 Music
ArtistUnicode:Game Of Thrones Season 6 Episode 10 Music
Creator:222slavexx222
Version:Insane
Source:
Tags:
BeatmapID:1689556
BeatmapSetID:804839

[Difficulty]
HPDrainRate:6
CircleSize:3.8
OverallDifficulty:6
ApproachRate:9
SliderMultiplier:1.4
SliderTickRate:1

[Events]
//Background and Video events
0,0,"gra o tron.jpg",0,0
//Break Periods
2,444316,459850
//Storyboard Layer 0 (Background)
//Storyboard Layer 1 (Fail)
//Storyboard Layer 2 (Pass)
//Storyboard Layer 3 (Foreground)
//Storyboard Sound Samples

[TimingPoints]
284450,500,4,1,0,0,1,0
366450,-59.5238095238095,4,1,0,0,0,0
374450,-100,4,1,0,0,0,0

[HitObjects]
131,241,284450,5,0,0:0:0:0:
158,144,284700,1,0,0:0:0:0:
247,93,284950,2,0,P|344:95|435:261,1,280
336,311,286450,1,0,0:0:0:0:
228,337,286700,1,0,0:0:0:0:
110,286,286950,2,0,P|78:194|203:51,1,280
276,122,288450,1,0,0:0:0:0:
205,213,288700,1,0,0:0:0:0:
91,236,288950,2,0,P|142:319|331:314,1,280
361,226,290450,1,0,0:0:0:0:
248,264,290700,1,0,0:0:0:0:
204,160,290950,2,0,P|243:144|289:154,1,70
365,177,291450,1,0,0:0:0:0:
370,72,291700,1,0,0:0:0:0:
259,52,291950,1,0,0:0:0:0:
190,222,292450,1,0,0:0:0:0:
295,157,292700,1,0,0:0:0:0:
405,218,292950,2,0,P|390:269|180:327,1,280
125,252,294450,1,0,0:0:0:0:
166,153,294700,1,0,0:0:0:0:
241,79,294950,2,0,P|333:47|476:172,1,280
425,261,296450,1,0,0:0:0:0:
383,159,296700,1,0,0:0:0:0:
328,79,296950,2,0,P|289:63|243:73,1,70
163,112,297450,1,0,0:0:0:0:
118,208,297700,1,0,0:0:0:0:
157,307,297950,1,0,0:0:0:0:
267,308,298450,1,0,0:0:0:0:
318,202,298700,1,0,0:0:0:0:
422,236,298950,2,0,P|371:319|182:314,1,280
131,241,300450,1,0,0:0:0:0:
158,144,300700,1,0,0:0:0:0:
247,93,300950,2,0,P|344:95|435:261,1,280
313,264,302450,1,0,0:0:0:0:
299,139,302700,1,0,0:0:0:0:
192,66,302950,2,0,P|130:141|199:318,1,280
277,191,304450,1,0,0:0:0:0:
379,112,304700,1,0,0:0:0:0:
422,236,304950,2,0,P|371:319|182:314,1,280
131,241,306450,1,0,0:0:0:0:
158,144,306700,1,0,0:0:0:0:
247,93,306950,2,0,P|344:95|435:261,1,280
335,302,308450,1,0,0:0:0:0:
232,235,308700,1,0,0:0:0:0:
270,111,308950,2,0,P|367:112|459:278,1,280
340,318,310450,1,0,0:0:0:0:
307,185,310700,1,0,0:0:0:0:
422,236,310950,2,0,P|371:319|182:314,1,280
131,241,312450,1,0,0:0:0:0:
158,144,312700,1,0,0:0:0:0:
247,93,312950,2,0,P|344:95|435:261,1,280
336,311,314450,1,0,0:0:0:0:
228,337,314700,1,0,0:0:0:0:
110,286,314950,2,0,P|78:194|203:51,1,280
261,126,316450,1,0,0:0:0:0:
188,231,316700,1,0,0:0:0:0:
57,186,316950,2,0,B|97:121|163:76|235:61|328:85|388:131|415:219|384:308|292:342|195:341|99:298|126:178|195:66|265:26|394:48|494:130,1,980
294,326,322450,5,0,0:0:0:0:
189,300,322616,1,0,0:0:0:0:
136,219,322783,1,0,0:0:0:0:
136,124,322950,1,0,0:0:0:0:
216,68,323116,1,0,0:0:0:0:
314,63,323283,1,0,0:0:0:0:
399,113,323450,1,0,0:0:0:0:
412,211,323616,1,0,0:0:0:0:
360,295,323783,1,0,0:0:0:0:
263,323,323950,1,0,0:0:0:0:
169,298,324116,1,0,0:0:0:0:
128,206,324283,1,0,0:0:0:0:
176,118,324450,1,0,0:0:0:0:
277,119,324616,1,0,0:0:0:0:
356,184,324783,1,0,0:0:0:0:
355,285,324950,1,0,0:0:0:0:
261,325,325116,1,0,0:0:0:0:
182,265,325283,1,0,0:0:0:0:
208,170,325450,1,0,0:0:0:0:
299,131,325616,1,0,0:0:0:0:
371,200,325783,1,0,0:0:0:0:
351,296,325950,1,0,0:0:0:0:
236,128,326450,1,0,0:0:0:0:
202,36,326616,1,0,0:0:0:0:
112,24,326783,1,0,0:0:0:0:
49,97,326950,1,0,0:0:0:0:
67,192,327116,1,0,0:0:0:0:
162,223,327283,1,0,0:0:0:0:
245,171,327450,1,0,0:0:0:0:
292,86,327616,1,0,0:0:0:0:
381,40,327783,1,0,0:0:0:0:
470,81,327950,1,0,0:0:0:0:
495,176,328116,1,0,0:0:0:0:
455,269,328283,1,0,0:0:0:0:
368,316,328450,1,0,0:0:0:0:
267,319,328616,1,0,0:0:0:0:
172,300,328783,1,0,0:0:0:0:
99,241,328950,1,0,0:0:0:0:
89,142,329116,1,0,0:0:0:0:
170,81,329283,1,0,0:0:0:0:
267,58,329450,1,0,0:0:0:0:
361,80,329616,1,0,0:0:0:0:
417,159,329783,1,0,0:0:0:0:
404,255,329950,1,0,0:0:0:0:
140,310,330450,1,0,0:0:0:0:
116,217,330617,1,0,0:0:0:0:
170,142,330783,1,0,0:0:0:0:
262,119,330950,1,0,0:0:0:0:
343,160,331117,1,0,0:0:0:0:
378,246,331283,1,0,0:0:0:0:
347,331,331450,1,0,0:0:0:0:
254,358,331617,1,0,0:0:0:0:
153,346,331783,1,0,0:0:0:0:
107,256,331950,1,0,0:0:0:0:
110,159,332117,1,0,0:0:0:0:
169,84,332283,1,0,0:0:0:0:
265,71,332450,1,0,0:0:0:0:
339,133,332617,1,0,0:0:0:0:
335,228,332783,1,0,0:0:0:0:
253,272,332950,1,0,0:0:0:0:
160,268,333117,1,0,0:0:0:0:
74,228,333283,1,0,0:0:0:0:
27,150,333450,1,0,0:0:0:0:
58,65,333617,1,0,0:0:0:0:
148,47,333783,1,0,0:0:0:0:
213,118,333950,1,0,0:0:0:0:
328,318,334450,1,0,0:0:0:0:
413,272,334617,1,0,0:0:0:0:
432,178,334783,1,0,0:0:0:0:
381,98,334950,1,0,0:0:0:0:
291,65,335117,1,0,0:0:0:0:
203,103,335283,1,0,0:0:0:0:
154,181,335450,1,0,0:0:0:0:
165,277,335617,1,0,0:0:0:0:
240,333,335783,1,0,0:0:0:0:
333,337,335950,1,0,0:0:0:0:
415,287,336117,1,0,0:0:0:0:
434,197,336283,1,0,0:0:0:0:
382,120,336450,1,0,0:0:0:0:
284,114,336617,1,0,0:0:0:0:
213,180,336783,1,0,0:0:0:0:
219,275,336950,1,0,0:0:0:0:
300,330,337117,1,0,0:0:0:0:
390,297,337283,1,0,0:0:0:0:
437,219,337450,1,0,0:0:0:0:
406,130,337617,1,0,0:0:0:0:
328,79,337783,1,0,0:0:0:0:
241,126,337950,1,0,0:0:0:0:
61,274,338450,1,0,0:0:0:0:
6,195,338617,1,0,0:0:0:0:
8,98,338783,1,0,0:0:0:0:
93,45,338949,1,0,0:0:0:0:
190,63,339116,1,0,0:0:0:0:
254,135,339283,1,0,0:0:0:0:
266,231,339449,1,0,0:0:0:0:
324,307,339616,1,0,0:0:0:0:
421,310,339783,1,0,0:0:0:0:
487,238,339949,1,0,0:0:0:0:
492,142,340116,1,0,0:0:0:0:
442,63,340283,1,0,0:0:0:0:
350,31,340449,1,0,0:0:0:0:
254,39,340616,1,0,0:0:0:0:
174,90,340783,1,0,0:0:0:0:
133,176,340949,1,0,0:0:0:0:
139,270,341116,1,0,0:0:0:0:
211,333,341283,1,0,0:0:0:0:
314,332,341449,1,0,0:0:0:0:
395,276,341616,1,0,0:0:0:0:
444,193,341783,1,0,0:0:0:0:
429,101,341949,1,0,0:0:0:0:
181,64,342449,1,0,0:0:0:0:
140,150,342616,1,0,0:0:0:0:
161,244,342783,1,0,0:0:0:0:
239,314,342949,1,0,0:0:0:0:
344,319,343116,1,0,0:0:0:0:
425,255,343283,1,0,0:0:0:0:
443,158,343449,1,0,0:0:0:0:
402,67,343616,1,0,0:0:0:0:
306,28,343783,1,0,0:0:0:0:
203,29,343949,1,0,0:0:0:0:
118,80,344116,1,0,0:0:0:0:
59,164,344283,1,0,0:0:0:0:
58,262,344449,1,0,0:0:0:0:
115,345,344616,1,0,0:0:0:0:
213,349,344783,1,0,0:0:0:0:
279,281,344949,1,0,0:0:0:0:
251,184,345116,1,0,0:0:0:0:
277,92,345283,1,0,0:0:0:0:
350,30,345449,1,0,0:0:0:0:
440,49,345616,1,0,0:0:0:0:
496,125,345783,1,0,0:0:0:0:
494,220,345949,1,0,0:0:0:0:
242,340,346449,1,0,0:0:0:0:
149,345,346616,1,0,0:0:0:0:
62,316,346783,1,0,0:0:0:0:
34,237,346950,1,0,0:0:0:0:
42,143,347116,1,0,0:0:0:0:
118,81,347283,1,0,0:0:0:0:
212,60,347450,1,0,0:0:0:0:
306,76,347616,1,0,0:0:0:0:
381,130,347783,1,0,0:0:0:0:
409,220,347950,1,0,0:0:0:0:
377,308,348116,1,0,0:0:0:0:
293,339,348283,1,0,0:0:0:0:
205,311,348450,1,0,0:0:0:0:
163,229,348616,1,0,0:0:0:0:
197,140,348783,1,0,0:0:0:0:
271,77,348950,1,0,0:0:0:0:
368,75,349116,1,0,0:0:0:0:
449,134,349283,1,0,0:0:0:0:
462,229,349450,1,0,0:0:0:0:
404,310,349616,1,0,0:0:0:0:
312,344,349783,1,0,0:0:0:0:
212,348,349950,1,0,0:0:0:0:
15,190,350450,1,0,0:0:0:0:
16,93,350616,1,0,0:0:0:0:
86,30,350783,1,0,0:0:0:0:
181,41,350950,1,0,0:0:0:0:
225,119,351116,1,0,0:0:0:0:
225,218,351283,1,0,0:0:0:0:
270,302,351450,1,0,0:0:0:0:
362,333,351616,1,0,0:0:0:0:
439,279,351783,1,0,0:0:0:0:
465,193,351950,1,0,0:0:0:0:
456,103,352116,1,0,0:0:0:0:
378,52,352283,1,0,0:0:0:0:
279,51,352450,1,0,0:0:0:0:
208,117,352616,1,0,0:0:0:0:
193,211,352783,1,0,0:0:0:0:
249,290,352950,1,0,0:0:0:0:
344,308,353116,1,0,0:0:0:0:
426,256,353283,1,0,0:0:0:0:
463,168,353450,1,0,0:0:0:0:
438,78,353616,1,0,0:0:0:0:
356,30,353783,1,0,0:0:0:0:
263,26,353950,1,0,0:0:0:0:
171,240,354450,1,0,0:0:0:0:
259,284,354616,1,0,0:0:0:0:
356,269,354783,1,0,0:0:0:0:
429,203,354950,1,0,0:0:0:0:
433,108,355117,1,0,0:0:0:0:
374,37,355283,1,0,0:0:0:0:
278,28,355450,1,0,0:0:0:0:
191,70,355617,1,0,0:0:0:0:
153,153,355783,1,0,0:0:0:0:
176,244,355950,1,0,0:0:0:0:
235,315,356117,1,0,0:0:0:0:
327,337,356283,1,0,0:0:0:0:
406,289,356450,1,0,0:0:0:0:
66,191,358450,1,0,0:0:0:0:
257,193,358783,1,0,0:0:0:0:
161,28,358950,1,0,0:0:0:0:
66,191,359116,1,0,0:0:0:0:
161,355,359450,1,0,0:0:0:0:
257,193,359783,1,0,0:0:0:0:
66,191,359950,1,0,0:0:0:0:
161,355,360116,1,0,0:0:0:0:
350,355,360450,1,0,0:0:0:0:
257,193,360783,1,0,0:0:0:0:
161,355,360950,1,0,0:0:0:0:
350,355,361116,1,0,0:0:0:0:
445,192,361450,1,0,0:0:0:0:
257,193,361783,1,0,0:0:0:0:
350,355,361950,1,0,0:0:0:0:
445,192,362116,1,0,0:0:0:0:
350,28,362450,1,0,0:0:0:0:
257,193,362783,1,0,0:0:0:0:
445,192,362950,1,0,0:0:0:0:
350,28,363116,1,0,0:0:0:0:
161,28,363450,1,0,0:0:0:0:
257,193,363783,1,0,0:0:0:0:
350,28,363950,1,0,0:0:0:0:
161,28,364116,1,0,0:0:0:0:
66,191,364450,1,0,0:0:0:0:
257,193,364783,1,0,0:0:0:0:
161,28,364950,1,0,0:0:0:0:
66,191,365116,1,0,0:0:0:0:
161,355,365450,1,0,0:0:0:0:
257,193,365783,1,0,0:0:0:0:
66,191,365950,1,0,0:0:0:0:
161,355,366116,1,0,0:0:0:0:
186,70,366450,2,0,P|199:190|117:265,1,233.333333333333
138,137,367450,2,0,P|253:103|341:171,1,233.333333333333
247,267,368450,2,0,P|137:218|113:110,1,233.333333333333
362,50,369450,2,0,P|375:169|293:244,1,233.333333333333
102,95,370450,2,0,P|188:177|174:288,1,233.333333333333
326,128,371450,2,0,P|243:214|132:200,1,233.333333333333
282,52,372450,2,0,P|295:171|212:246,1,233.333333333333
35,133,373450,2,0,P|131:62|237:95,1,233.333333333333
170,308,374450,6,0,P|225:309|226:309,6,46.6666666666667
288,272,375783,1,0,0:0:0:0:
251,189,375950,1,0,0:0:0:0:
244,95,376116,1,0,0:0:0:0:
329,53,376450,2,0,P|384:54|385:54,6,46.6666666666667
404,138,377783,1,0,0:0:0:0:
330,217,377950,1,0,0:0:0:0:
242,256,378116,1,0,0:0:0:0:
143,174,378450,2,0,P|198:175|199:175,6,46.6666666666667
167,278,379783,1,0,0:0:0:0:
262,252,379950,1,0,0:0:0:0:
327,167,380116,1,0,0:0:0:0:
145,87,380283,1,0,0:0:0:0:
145,87,380366,1,0,0:0:0:0:
145,87,380450,6,0,P|207:68|296:87,1,140
364,256,381450,2,0,P|308:311|233:313,1,140
150,244,382450,1,0,0:0:0:0:
219,136,382700,1,0,0:0:0:0:
316,73,382950,2,0,P|343:59|392:73,1,70
425,190,383450,2,0,P|391:242|303:266,1,140
114,310,384283,1,0,0:0:0:0:
114,310,384366,1,0,0:0:0:0:
114,310,384450,2,0,P|56:256|54:189,1,140
187,44,385450,2,0,P|274:42|317:95,1,140
413,231,386450,5,0,0:0:0:0:
326,295,386700,1,0,0:0:0:0:
214,323,386950,2,0,P|165:315|137:288,1,70
88,199,387450,2,0,P|90:124|145:67,1,140
229,153,388450,6,0,L|290:153,5,46.6666666666667
414,231,389450,2,0,P|373:283|287:310,1,140
229,153,390450,2,0,L|290:153,5,46.6666666666667
414,231,391450,2,0,P|373:283|287:310,1,140
125,181,392283,1,0,0:0:0:0:
125,181,392366,1,0,0:0:0:0:
125,181,392450,2,0,P|161:102|222:73,1,140
370,165,393450,2,0,P|395:211|384:300,1,140
205,327,394450,1,0,0:0:0:0:
251,228,394700,1,0,0:0:0:0:
129,258,394950,2,0,P|103:230|92:192,1,70
189,72,395450,2,0,P|246:33|320:34,1,140
211,317,396283,1,0,0:0:0:0:
211,317,396366,1,0,0:0:0:0:
211,317,396450,2,0,P|150:256|143:189,1,140
254,82,397450,2,0,P|306:83|377:137,1,140
413,278,398450,1,0,0:0:0:0:
272,325,398700,1,0,0:0:0:0:
186,286,398950,2,0,P|160:258|149:220,1,70
155,111,399450,2,0,P|212:72|286:73,1,140
302,224,400450,1,0,0:0:0:0:
73,72,402450,1,0,0:0:0:0:
200,256,402950,1,0,0:0:0:0:
291,51,403450,1,0,0:0:0:0:
404,358,403950,1,0,0:0:0:0:
502,22,404450,1,0,0:0:0:0:
35,169,406450,1,0,0:0:0:0:
428,263,407450,1,0,0:0:0:0:
163,101,408450,1,0,0:0:0:0:
478,344,410450,1,0,0:0:0:0:
385,164,410950,1,0,0:0:0:0:
265,339,411450,1,0,0:0:0:0:
208,34,411950,1,0,0:0:0:0:
50,318,412450,1,0,0:0:0:0:
436,197,413450,1,0,0:0:0:0:
77,89,414450,1,0,0:0:0:0:
334,123,416450,1,0,0:0:0:0:
63,331,418450,1,0,0:0:0:0:
182,165,418950,1,0,0:0:0:0:
276,332,419450,1,0,0:0:0:0:
354,40,419950,1,0,0:0:0:0:
477,331,420450,1,0,0:0:0:0:
67,216,422450,1,0,0:0:0:0:
415,70,424450,1,0,0:0:0:0:
52,62,426450,1,0,0:0:0:0:
175,219,426950,1,0,0:0:0:0:
263,56,427450,1,0,0:0:0:0:
322,349,427950,1,0,0:0:0:0:
334,98,428450,1,0,0:0:0:0:
412,172,428616,1,0,0:0:0:0:
387,286,428783,1,0,0:0:0:0:
267,313,428950,2,0,P|239:309|217:290,1,46.6666666666667
334,98,429450,1,0,0:0:0:0:
412,172,429616,1,0,0:0:0:0:
387,286,429783,1,0,0:0:0:0:
267,313,429950,2,0,P|239:309|217:290,1,46.6666666666667
334,98,430450,1,0,0:0:0:0:
412,172,430616,1,0,0:0:0:0:
387,286,430783,1,0,0:0:0:0:
267,313,430950,2,0,P|239:309|217:290,1,46.6666666666667
334,98,431450,1,0,0:0:0:0:
412,172,431616,1,0,0:0:0:0:
387,286,431783,1,0,0:0:0:0:
267,313,431950,2,0,P|239:309|217:290,1,46.6666666666667
334,98,432450,1,0,0:0:0:0:
412,172,432616,1,0,0:0:0:0:
387,286,432783,1,0,0:0:0:0:
267,313,432950,2,0,P|239:309|217:290,1,46.6666666666667
334,98,433450,1,0,0:0:0:0:
412,172,433616,1,0,0:0:0:0:
387,286,433783,1,0,0:0:0:0:
267,313,433950,2,0,P|239:309|217:290,1,46.6666666666667
334,98,434450,1,0,0:0:0:0:
412,172,434616,1,0,0:0:0:0:
387,286,434783,1,0,0:0:0:0:
267,313,434950,2,0,P|239:309|217:290,1,46.6666666666667
334,98,435450,1,0,0:0:0:0:
412,172,435616,1,0,0:0:0:0:
387,286,435783,1,0,0:0:0:0:
267,313,435950,2,0,P|239:309|217:290,1,46.6666666666667
334,98,436450,1,0,0:0:0:0:
412,172,436616,1,0,0:0:0:0:
387,286,436783,1,0,0:0:0:0:
267,313,436950,2,0,P|239:309|217:290,1,46.6666666666667
334,98,437450,1,0,0:0:0:0:
412,172,437616,1,0,0:0:0:0:
387,286,437783,1,0,0:0:0:0:
267,313,437950,2,0,P|239:309|217:290,1,46.6666666666667
334,98,438450,1,0,0:0:0:0:
412,172,438616,1,0,0:0:0:0:
387,286,438783,1,0,0:0:0:0:
267,313,438950,2,0,P|239:309|217:290,1,46.6666666666667
334,98,439450,1,0,0:0:0:0:
412,172,439616,1,0,0:0:0:0:
387,286,439783,1,0,0:0:0:0:
267,313,439950,2,0,P|239:309|217:290,1,46.6666666666667
334,98,440450,1,0,0:0:0:0:
412,172,440616,1,0,0:0:0:0:
387,286,440783,1,0,0:0:0:0:
267,313,440950,2,0,P|239:309|217:290,1,46.6666666666667
334,98,441450,1,0,0:0:0:0:
412,172,441616,1,0,0:0:0:0:
387,286,441783,1,0,0:0:0:0:
267,313,441950,2,0,P|239:309|217:290,1,46.6666666666667
334,98,442450,1,0,0:0:0:0:
412,172,442616,1,0,0:0:0:0:
387,286,442783,1,0,0:0:0:0:
267,313,442950,2,0,P|239:309|217:290,1,46.6666666666667
334,98,443450,1,0,0:0:0:0:
412,172,443616,1,0,0:0:0:0:
387,286,443783,1,0,0:0:0:0:
267,313,443950,2,0,P|239:309|217:290,1,46.6666666666667
165,229,460450,6,0,B|165:147|203:96|203:96|205:92|205:168|240:230|240:230|240:146|276:98|276:98|276:169|309:231|309:231|309:146|346:98,1,700
347,229,464450,2,0,B|347:147|309:96|309:96|307:92|307:168|272:230|272:230|272:146|236:98|236:98|236:169|203:231|203:231|203:146|166:98,1,700
278,259,468450,1,0,0:0:0:0:
198,150,468617,1,0,0:0:0:0:
327,192,468783,1,0,0:0:0:0:
198,234,468950,1,0,0:0:0:0:
278,124,469117,1,0,0:0:0:0:
393,199,469450,1,0,0:0:0:0:
313,89,469617,1,0,0:0:0:0:
442,131,469783,1,0,0:0:0:0:
313,173,469950,1,0,0:0:0:0:
393,63,470117,1,0,0:0:0:0:
216,199,470450,1,0,0:0:0:0:
136,89,470617,1,0,0:0:0:0:
265,131,470783,1,0,0:0:0:0:
136,173,470950,1,0,0:0:0:0:
216,63,471117,1,0,0:0:0:0:
247,309,471450,1,0,0:0:0:0:
167,199,471617,1,0,0:0:0:0:
296,241,471783,1,0,0:0:0:0:
167,283,471950,1,0,0:0:0:0:
247,173,472117,1,0,0:0:0:0:
400,313,472450,1,0,0:0:0:0:
320,203,472617,1,0,0:0:0:0:
449,245,472783,1,0,0:0:0:0:
320,287,472950,1,0,0:0:0:0:
400,177,473117,1,0,0:0:0:0:
309,213,473450,1,0,0:0:0:0:
229,103,473617,1,0,0:0:0:0:
358,145,473783,1,0,0:0:0:0:
229,187,473950,1,0,0:0:0:0:
309,77,474117,1,0,0:0:0:0:
187,271,474450,1,0,0:0:0:0:
107,161,474617,1,0,0:0:0:0:
236,203,474783,1,0,0:0:0:0:
107,245,474950,1,0,0:0:0:0:
187,135,475117,1,0,0:0:0:0:
306,191,475450,1,0,0:0:0:0:
226,81,475617,1,0,0:0:0:0:
355,123,475783,1,0,0:0:0:0:
226,165,475950,1,0,0:0:0:0:
306,55,476117,1,0,0:0:0:0:
117,170,476450,2,0,P|137:231|205:280,1,140
325,263,477450,2,0,P|397:235|415:164,1,140
321,74,478450,1,0,0:0:0:0:
188,77,478950,1,0,0:0:0:0:
121,186,479450,1,0,0:0:0:0:
168,314,479950,1,0,0:0:0:0:
117,170,480450,2,0,P|137:231|205:280,1,140
325,263,481450,2,0,P|397:235|415:164,1,140
321,74,482450,1,0,0:0:0:0:
188,77,482950,1,0,0:0:0:0:
121,186,483450,1,0,0:0:0:0:
168,314,483950,1,0,0:0:0:0:
117,170,484450,2,0,P|137:231|205:280,1,140
325,263,485450,2,0,P|397:235|415:164,1,140
321,74,486450,1,0,0:0:0:0:
188,77,486950,1,0,0:0:0:0:
121,186,487450,1,0,0:0:0:0:
168,314,487950,1,0,0:0:0:0:
117,170,488450,2,0,P|137:231|205:280,1,140
325,263,489450,2,0,P|397:235|415:164,1,140
321,74,490450,1,0,0:0:0:0:
188,77,490950,1,0,0:0:0:0:
121,186,491450,1,0,0:0:0:0:
168,314,491950,1,0,0:0:0:0:
215,224,492450,2,0,P|301:224|356:188,1,140
314,105,493450,2,0,P|245:84|175:111,1,140
148,252,494450,2,0,P|215:295|285:279,1,140
374,213,495450,2,0,P|370:134|310:94,1,140
217,78,496450,2,0,P|136:91|103:137,1,140
116,255,497450,2,0,B|192:288|262:268|263:269,1,140
209,195,498450,2,0,L|256:195,5,46.6666666666667
293,118,499450,2,0,L|340:118,5,46.6666666666667
339,204,500450,2,0,L|386:204,5,46.6666666666667
263,284,501450,2,0,L|310:284,5,46.6666666666667
215,224,502450,6,0,P|301:224|356:188,1,140
314,105,503450,2,0,P|245:84|175:111,1,140
148,252,504450,2,0,P|215:295|285:279,1,140
374,213,505450,2,0,P|370:134|310:94,1,140
217,78,506450,2,0,P|136:91|103:137,1,140
116,255,507450,2,0,B|192:288|262:268|263:269,1,140
116,255,508450,2,0,B|192:288|262:268|263:269,1,140
116,255,509450,2,0,B|192:288|262:268|263:269,1,140
116,255,510450,2,0,B|192:288|262:268|263:269,1,140
116,255,511450,2,0,B|192:288|262:268|263:269,1,140
116,255,512449,2,0,B|192:288|262:268|263:269,1,140
116,255,513449,2,0,B|192:288|262:268|263:269,1,140
116,255,514449,2,0,B|192:288|262:268|263:269,1,140
116,255,515449,2,0,B|192:288|262:268|263:269,1,140
116,255,516449,2,0,B|192:288|262:268|263:269,1,140
116,255,517449,2,0,B|192:288|262:268|263:269,1,140
197,127,518449,2,0,P|207:104|237:84,1,46.6666666666667
362,120,518783,1,0,0:0:0:0:
398,228,518949,2,0,P|388:266|352:298,1,70
197,127,519449,2,0,P|207:104|237:84,1,46.6666666666667
362,120,519783,1,0,0:0:0:0:
398,228,519949,2,0,P|388:266|352:298,1,70
197,127,520449,2,0,P|207:104|237:84,1,46.6666666666667
362,120,520783,1,0,0:0:0:0:
398,228,520949,2,0,P|388:266|352:298,1,70
197,127,521449,2,0,P|207:104|237:84,1,46.6666666666667
362,120,521783,1,0,0:0:0:0:
398,228,521949,2,0,P|388:266|352:298,1,70
197,127,522449,2,0,P|207:104|237:84,1,46.6666666666667
362,120,522783,1,0,0:0:0:0:
398,228,522949,2,0,P|388:266|352:298,1,70
197,127,523449,2,0,P|207:104|237:84,1,46.6666666666667
362,120,523783,1,0,0:0:0:0:
398,228,523949,2,0,P|388:266|352:298,1,70
197,127,524450,2,0,P|207:104|237:84,1,46.6666666666667
362,120,524784,1,0,0:0:0:0:
398,228,524950,2,0,P|388:266|352:298,1,70
159,96,525450,1,0,0:0:0:0:
253,93,525616,1,0,0:0:0:0:
362,120,525784,1,0,0:0:0:0:
439,202,525950,1,0,0:0:0:0:
435,313,526116,1,0,0:0:0:0:
332,309,526283,1,0,0:0:0:0:
197,127,526450,2,0,P|207:104|237:84,1,46.6666666666667
362,120,526784,1,0,0:0:0:0:
398,228,526950,2,0,P|388:266|352:298,1,70
197,127,527450,2,0,P|207:104|237:84,1,46.6666666666667
362,120,527784,1,0,0:0:0:0:
398,228,527950,2,0,P|388:266|352:298,1,70
197,127,528450,2,0,P|207:104|237:84,1,46.6666666666667
362,120,528784,1,0,0:0:0:0:
398,228,528950,2,0,P|388:266|352:298,1,70
197,127,529450,2,0,P|207:104|237:84,1,46.6666666666667
362,120,529784,1,0,0:0:0:0:
398,228,529950,2,0,P|388:266|352:298,1,70
197,127,530450,2,0,P|207:104|237:84,1,46.6666666666667
362,120,530784,1,0,0:0:0:0:
398,228,530950,2,0,P|388:266|352:298,1,70
197,127,531450,2,0,P|207:104|237:84,1,46.6666666666667
362,120,531784,1,0,0:0:0:0:
398,228,531950,2,0,P|388:266|352:298,1,70
494,91,532450,1,0,0:0:0:0:
48,162,532950,1,0,0:0:0:0:
432,224,533450,1,0,0:0:0:0:
60,318,533950,1,0,0:0:0:0:
92,106,534450,2,0,P|115:88|140:84,1,46.6666666666667
244,76,534783,1,0,0:0:0:0:
92,106,534950,2,0,P|115:88|140:84,1,46.6666666666667
244,76,535283,1,0,0:0:0:0:
92,106,535450,2,0,P|115:88|140:84,1,46.6666666666667
244,76,535783,1,0,0:0:0:0:
92,106,535950,2,0,P|115:88|140:84,1,46.6666666666667
244,76,536283,1,0,0:0:0:0:
92,106,536450,2,0,P|115:88|140:84,1,46.6666666666667
244,76,536783,1,0,0:0:0:0:
92,106,536950,2,0,P|115:88|140:84,1,46.6666666666667
244,76,537283,1,0,0:0:0:0:
92,106,537450,2,0,P|115:88|140:84,1,46.6666666666667
244,76,537783,1,0,0:0:0:0:
92,106,537950,2,0,P|115:88|140:84,1,46.6666666666667
244,76,538283,1,0,0:0:0:0:
92,106,538450,2,0,P|115:88|140:84,1,46.6666666666667
244,76,538783,1,0,0:0:0:0:
92,106,538950,2,0,P|115:88|140:84,1,46.6666666666667
244,76,539283,1,0,0:0:0:0:
92,106,539450,2,0,P|115:88|140:84,1,46.6666666666667
244,76,539783,1,0,0:0:0:0:
92,106,539950,2,0,P|115:88|140:84,1,46.6666666666667
244,76,540283,1,0,0:0:0:0:
92,106,540450,2,0,P|115:88|140:84,1,46.6666666666667
244,76,540783,1,0,0:0:0:0:
92,106,540950,2,0,P|115:88|140:84,1,46.6666666666667
244,76,541283,1,0,0:0:0:0:
92,106,541450,2,0,P|115:88|140:84,1,46.6666666666667
244,76,541783,1,0,0:0:0:0:
92,106,541950,2,0,P|115:88|140:84,1,46.6666666666667
244,76,542283,1,0,0:0:0:0:
84,44,542450,5,0,0:0:0:0:
461,73,542950,1,0,0:0:0:0:
75,133,543450,1,0,0:0:0:0:
425,153,543950,1,0,0:0:0:0:
116,216,544450,1,0,0:0:0:0:
365,233,544950,1,0,0:0:0:0:
168,312,545450,1,0,0:0:0:0:
284,345,545950,1,0,0:0:0:0:
453,43,546450,5,0,0:0:0:0:
437,222,546950,1,0,0:0:0:0:
277,59,547450,1,0,0:0:0:0:
357,324,547950,1,0,0:0:0:0:
158,63,548450,1,0,0:0:0:0:
240,334,548950,1,0,0:0:0:0:
65,169,549450,1,0,0:0:0:0:
95,319,549950,1,0,0:0:0:0:
145,87,550450,6,0,P|207:68|296:87,1,140
364,256,551450,2,0,P|308:311|233:313,1,140
150,244,552450,1,0,0:0:0:0:
219,136,552700,1,0,0:0:0:0:
316,73,552950,2,0,P|343:59|392:73,1,70
425,190,553450,2,0,P|391:242|303:266,1,140
223,282,554450,2,0,P|165:228|163:161,1,140
245,77,555450,2,0,P|332:75|375:128,1,140
413,231,556450,1,0,0:0:0:0:
326,295,556700,1,0,0:0:0:0:
214,323,556950,2,0,P|165:315|137:288,1,70
88,199,557450,2,0,P|90:124|145:67,1,140
145,87,558450,6,0,P|207:68|296:87,1,140
364,256,559450,2,0,P|308:311|233:313,1,140
150,244,560450,1,0,0:0:0:0:
219,136,560700,1,0,0:0:0:0:
316,73,560950,2,0,P|343:59|392:73,1,70
425,190,561450,2,0,P|391:242|303:266,1,140
223,282,562450,2,0,P|165:228|163:161,1,140
245,77,563450,2,0,P|332:75|375:128,1,140
88,136,564450,5,0,0:0:0:0:
196,127,564616,5,0,0:0:0:0:
314,132,564783,1,0,0:0:0:0:
424,130,564950,1,0,0:0:0:0:
81,236,565116,1,0,0:0:0:0:
199,240,565283,1,0,0:0:0:0:
88,136,565450,1,0,0:0:0:0:
196,127,565616,1,0,0:0:0:0:
314,132,565783,1,0,0:0:0:0:
424,130,565950,1,0,0:0:0:0:
81,236,566116,1,0,0:0:0:0:
199,240,566283,1,0,0:0:0:0:
88,136,566450,1,0,0:0:0:0:
196,127,566616,1,0,0:0:0:0:
314,132,566783,1,0,0:0:0:0:
424,130,566950,1,0,0:0:0:0:
81,236,567116,1,0,0:0:0:0:
199,240,567283,1,0,0:0:0:0:
88,136,567450,1,0,0:0:0:0:
196,127,567616,1,0,0:0:0:0:
314,132,567783,1,0,0:0:0:0:
424,130,567950,1,0,0:0:0:0:
81,236,568116,1,0,0:0:0:0:
199,240,568283,1,0,0:0:0:0:
88,136,568450,1,0,0:0:0:0:
196,127,568616,1,0,0:0:0:0:
314,132,568783,1,0,0:0:0:0:
424,130,568950,1,0,0:0:0:0:
81,236,569116,1,0,0:0:0:0:
199,240,569283,1,0,0:0:0:0:
88,136,569449,1,0,0:0:0:0:
196,127,569616,1,0,0:0:0:0:
314,132,569783,1,0,0:0:0:0:
424,130,569950,1,0,0:0:0:0:
81,236,570116,1,0,0:0:0:0:
199,240,570283,1,0,0:0:0:0:
88,136,570450,1,0,0:0:0:0:
196,127,570616,1,0,0:0:0:0:
314,132,570783,1,0,0:0:0:0:
424,130,570950,1,0,0:0:0:0:
81,236,571116,1,0,0:0:0:0:
199,240,571283,1,0,0:0:0:0:
88,136,571450,1,0,0:0:0:0:
196,127,571616,1,0,0:0:0:0:
314,132,571783,1,0,0:0:0:0:
424,130,571950,1,0,0:0:0:0:
81,236,572116,1,0,0:0:0:0:
199,240,572283,1,0,0:0:0:0:
88,136,572450,1,0,0:0:0:0:
196,127,572616,1,0,0:0:0:0:
314,132,572783,1,0,0:0:0:0:
424,130,572950,1,0,0:0:0:0:
81,236,573116,1,0,0:0:0:0:
199,240,573283,1,0,0:0:0:0:
88,136,573450,1,0,0:0:0:0:
196,127,573616,1,0,0:0:0:0:
314,132,573783,1,0,0:0:0:0:
424,130,573950,1,0,0:0:0:0:
81,236,574116,1,0,0:0:0:0:
199,240,574283,1,0,0:0:0:0:
88,136,574450,1,0,0:0:0:0:
196,127,574616,1,0,0:0:0:0:
314,132,574783,1,0,0:0:0:0:
424,130,574950,1,0,0:0:0:0:
81,236,575116,1,0,0:0:0:0:
199,240,575283,1,0,0:0:0:0:
88,136,575450,1,0,0:0:0:0:
196,127,575616,1,0,0:0:0:0:
314,132,575783,1,0,0:0:0:0:
424,130,575950,1,0,0:0:0:0:
81,236,576116,1,0,0:0:0:0:
199,240,576283,1,0,0:0:0:0:
88,136,576450,1,0,0:0:0:0:
196,127,576616,1,0,0:0:0:0:
314,132,576783,1,0,0:0:0:0:
424,130,576950,1,0,0:0:0:0:
81,236,577116,1,0,0:0:0:0:
199,240,577283,1,0,0:0:0:0:
88,136,577450,1,0,0:0:0:0:
196,127,577616,1,0,0:0:0:0:
314,132,577783,1,0,0:0:0:0:
424,130,577950,1,0,0:0:0:0:
81,236,578116,1,0,0:0:0:0:
199,240,578283,1,0,0:0:0:0:
88,136,578450,1,0,0:0:0:0:
196,127,578616,1,0,0:0:0:0:
314,132,578783,1,0,0:0:0:0:
424,130,578950,1,0,0:0:0:0:
81,236,579116,1,0,0:0:0:0:
199,240,579283,1,0,0:0:0:0:
88,136,579450,1,0,0:0:0:0:
196,127,579616,1,0,0:0:0:0:
314,132,579783,1,0,0:0:0:0:
424,130,579950,1,0,0:0:0:0:
81,236,580116,1,0,0:0:0:0:
199,240,580283,1,0,0:0:0:0:
88,136,580450,1,0,0:0:0:0:
196,127,580616,1,0,0:0:0:0:
314,132,580783,1,0,0:0:0:0:
424,130,580950,1,0,0:0:0:0:
81,236,581116,1,0,0:0:0:0:
199,240,581283,1,0,0:0:0:0:
88,136,581450,1,0,0:0:0:0:
196,127,581616,1,0,0:0:0:0:
314,132,581783,1,0,0:0:0:0:
424,130,581950,1,0,0:0:0:0:
81,236,582116,1,0,0:0:0:0:
199,240,582283,1,0,0:0:0:0:
88,136,582450,1,0,0:0:0:0:
196,127,582616,1,0,0:0:0:0:
314,132,582783,1,0,0:0:0:0:
424,130,582950,1,0,0:0:0:0:
81,236,583116,1,0,0:0:0:0:
199,240,583283,1,0,0:0:0:0:
