osu file format v14

[General]
AudioFilename: audio.mp3
AudioLeadIn: 0
PreviewTime: -1
Countdown: 1
SampleSet: Normal
StackLeniency: 0.7
Mode: 3
LetterboxInBreaks: 0
SpecialStyle: 1
WidescreenStoryboard: 0

[Editor]
DistanceSpacing: 2
BeatDivisor: 16
GridSize: 16
TimelineZoom: 1

[Metadata]
Title:Route 213 ValorLakefront
TitleUnicode:Route 213 ValorLakefront
Artist:Game Freak
ArtistUnicode:Game Freak
Creator:Ayga
Version:Normal
Source:Pokemon d/p/p
Tags:
BeatmapID:952595
BeatmapSetID:443016

[Difficulty]
HPDrainRate:5
CircleSize:4
OverallDifficulty:5
ApproachRate:5
SliderMultiplier:1.4
SliderTickRate:1

[Events]
//Background and Video events
//Break Periods
//Storyboard Layer 0 (Background)
//Storyboard Layer 1 (Fail)
//Storyboard Layer 2 (Pass)
//Storyboard Layer 3 (Foreground)
//Storyboard Sound Samples

[TimingPoints]
0,500,4,1,0,100,1,0

[HitObjects]
448,192,562,5,0,0:0:0:0:
192,192,1000,1,0,0:0:0:0:
320,192,1000,1,0,0:0:0:0:
192,192,1687,1,0,0:0:0:0:
448,192,1906,1,0,0:0:0:0:
320,192,1906,1,0,0:0:0:0:
320,192,2562,1,0,0:0:0:0:
192,192,2562,1,0,0:0:0:0:
448,192,3031,1,0,0:0:0:0:
192,192,3687,1,0,0:0:0:0:
320,192,3687,1,0,0:0:0:0:
448,192,3906,1,0,0:0:0:0:
192,192,4562,1,0,0:0:0:0:
320,192,5000,1,0,0:0:0:0:
448,192,5000,1,0,0:0:0:0:
192,192,5687,1,0,0:0:0:0:
320,192,5687,1,0,0:0:0:0:
448,192,5906,1,0,0:0:0:0:
448,192,6562,1,0,0:0:0:0:
192,192,7031,1,0,0:0:0:0:
320,192,7031,1,0,0:0:0:0:
448,192,7687,1,0,0:0:0:0:
320,192,7906,1,0,0:0:0:0:
192,192,7906,1,0,0:0:0:0:
448,192,8343,1,0,0:0:0:0:
448,192,8562,1,0,0:0:0:0:
320,192,9000,1,0,0:0:0:0:
448,192,9718,1,0,0:0:0:0:
320,192,9906,1,0,0:0:0:0:
448,192,9906,1,0,0:0:0:0:
448,192,10593,1,0,0:0:0:0:
192,192,11000,1,0,0:0:0:0:
64,192,11000,1,0,0:0:0:0:
448,192,11687,1,0,0:0:0:0:
320,192,11906,1,0,0:0:0:0:
192,192,12562,1,0,0:0:0:0:
448,192,13000,1,0,0:0:0:0:
320,192,13000,1,0,0:0:0:0:
320,192,13687,1,0,0:0:0:0:
64,192,13906,1,0,0:0:0:0:
448,192,14593,1,0,0:0:0:0:
320,192,15031,1,0,0:0:0:0:
192,192,15718,1,0,0:0:0:0:
320,192,15718,1,0,0:0:0:0:
320,192,15906,1,0,0:0:0:0:
448,192,16312,1,0,0:0:0:0:
192,192,16562,1,0,0:0:0:0:
448,192,17218,1,0,0:0:0:0:
320,192,17687,1,0,0:0:0:0:
320,192,17875,1,0,0:0:0:0:
192,192,17875,1,0,0:0:0:0:
448,192,18343,1,0,0:0:0:0:
192,192,18562,1,0,0:0:0:0:
448,192,19000,1,0,0:0:0:0:
320,192,19218,1,0,0:0:0:0:
192,192,19218,1,0,0:0:0:0:
320,192,19656,1,0,0:0:0:0:
320,192,19906,1,0,0:0:0:0:
192,192,20343,1,0,0:0:0:0:
320,192,20562,1,0,0:0:0:0:
448,192,21218,1,0,0:0:0:0:
320,192,21218,1,0,0:0:0:0:
320,192,21687,1,0,0:0:0:0:
192,192,21916,1,0,0:0:0:0:
448,192,22125,1,0,0:0:0:0:
192,192,22343,1,0,0:0:0:0:
320,192,22562,1,0,0:0:0:0:
192,192,23250,1,0,0:0:0:0:
320,192,23250,1,0,0:0:0:0:
192,192,23687,1,0,0:0:0:0:
64,192,23906,1,0,0:0:0:0:
448,192,24343,1,0,0:0:0:0:
320,192,24593,1,0,0:0:0:0:
192,192,25250,1,0,0:0:0:0:
320,192,25250,1,0,0:0:0:0:
448,192,25687,1,0,0:0:0:0:
192,192,25906,1,0,0:0:0:0:
448,192,26343,1,0,0:0:0:0:
192,192,26562,1,0,0:0:0:0:
320,192,26562,1,0,0:0:0:0:
448,192,27031,1,0,0:0:0:0:
192,192,27250,1,0,0:0:0:0:
320,192,27250,1,0,0:0:0:0:
192,192,27687,1,0,0:0:0:0:
448,192,27906,1,0,0:0:0:0:
192,192,28343,1,0,0:0:0:0:
192,192,28562,1,0,0:0:0:0:
320,192,28562,1,0,0:0:0:0:
320,192,29000,128,0,29666:0:0:0:0:
192,192,29916,128,0,30333:0:0:0:0:
448,192,30583,128,0,31000:0:0:0:0:
192,192,31208,128,0,32708:0:0:0:0:
320,192,31656,1,0,0:0:0:0:
64,192,31906,1,0,0:0:0:0:
320,192,32343,1,0,0:0:0:0:
448,192,32593,1,0,0:0:0:0:
320,192,32593,1,0,0:0:0:0:
448,192,33250,128,0,34833:0:0:0:0:
192,192,33687,1,0,0:0:0:0:
320,192,33687,1,0,0:0:0:0:
192,192,33906,1,0,0:0:0:0:
320,192,34125,1,0,0:0:0:0:
192,192,34343,1,0,0:0:0:0:
192,192,34562,1,0,0:0:0:0:
64,192,34562,1,0,0:0:0:0:
64,192,35250,128,0,36625:0:0:0:0:
192,192,35875,1,0,0:0:0:0:
320,192,36125,1,0,0:0:0:0:
448,192,36333,1,0,0:0:0:0:
192,192,36541,1,0,0:0:0:0:
320,192,36541,1,0,0:0:0:0:
320,192,37208,128,0,38375:0:0:0:0:
192,192,37687,1,0,0:0:0:0:
448,192,37875,1,0,0:0:0:0:
192,192,38343,1,0,0:0:0:0:
320,192,38583,1,0,0:0:0:0:
448,192,39000,1,0,0:0:0:0:
320,192,39000,1,0,0:0:0:0:
192,192,39218,1,0,0:0:0:0:
192,192,39656,1,0,0:0:0:0:
320,192,39656,1,0,0:0:0:0:
320,192,39906,1,0,0:0:0:0:
448,192,39906,1,0,0:0:0:0:
192,192,40125,1,0,0:0:0:0:
64,192,40343,1,0,0:0:0:0:
320,192,40541,128,0,41000:0:0:0:0:
192,192,40541,128,0,41000:0:0:0:0:
192,192,41666,1,0,0:0:0:0:
320,192,41875,1,0,0:0:0:0:
64,192,42333,1,0,0:0:0:0:
320,192,42541,128,0,43041:0:0:0:0:
192,192,42541,128,0,43041:0:0:0:0:
448,192,43666,1,0,0:0:0:0:
320,192,43875,1,0,0:0:0:0:
448,192,44333,1,0,0:0:0:0:
192,192,44541,128,0,45041:0:0:0:0:
64,192,44541,128,0,45041:0:0:0:0:
448,192,45666,1,0,0:0:0:0:
320,192,45875,1,0,0:0:0:0:
192,192,46083,1,0,0:0:0:0:
64,192,46343,1,0,0:0:0:0:
192,192,46343,1,0,0:0:0:0:
320,192,46583,128,0,47041:0:0:0:0:
320,192,47250,1,0,0:0:0:0:
192,192,47250,1,0,0:0:0:0:
320,192,47687,1,0,0:0:0:0:
448,192,47687,1,0,0:0:0:0:
320,192,47906,1,0,0:0:0:0:
192,192,48312,1,0,0:0:0:0:
320,192,48562,1,0,0:0:0:0:
448,192,49218,1,0,0:0:0:0:
320,192,49291,1,0,0:0:0:0:
192,192,49375,1,0,0:0:0:0:
192,192,49666,1,0,0:0:0:0:
448,192,49916,1,0,0:0:0:0:
192,192,50333,1,0,0:0:0:0:
448,192,50583,1,0,0:0:0:0:
192,192,50781,1,0,0:0:0:0:
448,192,51031,1,0,0:0:0:0:
192,192,51250,1,0,0:0:0:0:
320,192,51312,1,0,0:0:0:0:
448,192,51375,1,0,0:0:0:0:
448,192,51687,1,0,0:0:0:0:
320,192,51687,1,0,0:0:0:0:
192,192,51906,1,0,0:0:0:0:
448,192,52375,1,0,0:0:0:0:
320,192,52562,1,0,0:0:0:0:
192,192,52562,1,0,0:0:0:0:
448,192,53208,1,0,0:0:0:0:
320,192,53281,1,0,0:0:0:0:
192,192,53343,1,0,0:0:0:0:
448,192,53687,1,0,0:0:0:0:
320,192,53687,1,0,0:0:0:0:
320,192,53906,1,0,0:0:0:0:
192,192,54343,1,0,0:0:0:0:
448,192,54562,1,0,0:0:0:0:
192,192,55031,1,0,0:0:0:0:
320,192,55031,1,0,0:0:0:0:
448,192,55218,1,0,0:0:0:0:
320,192,55281,1,0,0:0:0:0:
192,192,55343,1,0,0:0:0:0:
448,192,55666,1,0,0:0:0:0:
192,192,55875,1,0,0:0:0:0:
448,192,56125,1,0,0:0:0:0:
192,192,56375,1,0,0:0:0:0:
320,192,56375,1,0,0:0:0:0:
448,192,56583,1,0,0:0:0:0:
64,192,57031,1,0,0:0:0:0:
448,192,57312,1,0,0:0:0:0:
320,192,57687,1,0,0:0:0:0:
448,192,57687,1,0,0:0:0:0:
192,192,57937,1,0,0:0:0:0:
320,192,58375,1,0,0:0:0:0:
64,192,58583,1,0,0:0:0:0:
192,192,58583,1,0,0:0:0:0:
448,192,59031,1,0,0:0:0:0:
320,192,59031,1,0,0:0:0:0:
320,192,59281,1,0,0:0:0:0:
448,192,59718,1,0,0:0:0:0:
320,192,59718,1,0,0:0:0:0:
192,192,59937,1,0,0:0:0:0:
64,192,60375,1,0,0:0:0:0:
192,192,60593,1,0,0:0:0:0:
320,192,61250,1,0,0:0:0:0:
192,192,61250,1,0,0:0:0:0:
64,192,62375,1,0,0:0:0:0:
192,192,62437,1,0,0:0:0:0:
320,192,62500,1,0,0:0:0:0:
64,192,63250,1,0,0:0:0:0:
192,192,63250,1,0,0:0:0:0:
192,192,63687,1,0,0:0:0:0:
320,192,63687,1,0,0:0:0:0:
192,192,63916,1,0,0:0:0:0:
320,192,64374,1,0,0:0:0:0:
448,192,64562,1,0,0:0:0:0:
320,192,65250,1,0,0:0:0:0:
192,192,65250,1,0,0:0:0:0:
448,192,65687,1,0,0:0:0:0:
192,192,66562,1,0,0:0:0:0:
448,192,67250,1,0,0:0:0:0:
320,192,67250,1,0,0:0:0:0:
192,192,67687,1,0,0:0:0:0:
448,192,67875,1,0,0:0:0:0:
64,192,68125,1,0,0:0:0:0:
192,192,68333,1,0,0:0:0:0:
320,192,68562,1,0,0:0:0:0:
64,192,69250,1,0,0:0:0:0:
192,192,69250,1,0,0:0:0:0:
448,192,70125,1,0,0:0:0:0:
320,192,70375,1,0,0:0:0:0:
192,192,70562,1,0,0:0:0:0:
448,192,71218,1,0,0:0:0:0:
320,192,71218,1,0,0:0:0:0:
320,192,71687,1,0,0:0:0:0:
192,192,71906,1,0,0:0:0:0:
448,192,72156,1,0,0:0:0:0:
192,192,72375,1,0,0:0:0:0:
448,192,72593,1,0,0:0:0:0:
192,192,73250,1,0,0:0:0:0:
320,192,73250,1,0,0:0:0:0:
192,192,74156,1,0,0:0:0:0:
448,192,74375,1,0,0:0:0:0:
64,192,74593,1,0,0:0:0:0:
320,192,75000,1,0,0:0:0:0:
64,192,75250,1,0,0:0:0:0:
192,192,75250,1,0,0:0:0:0:
448,192,75916,1,0,0:0:0:0:
192,192,76156,1,0,0:0:0:0:
448,192,76343,1,0,0:0:0:0:
192,192,76593,1,0,0:0:0:0:
448,192,77218,1,0,0:0:0:0:
320,192,77218,1,0,0:0:0:0:
448,192,77906,1,0,0:0:0:0:
192,192,78375,1,0,0:0:0:0:
448,192,78562,1,0,0:0:0:0:
320,192,79250,1,0,0:0:0:0:
192,192,79250,1,0,0:0:0:0:
320,192,79708,1,0,0:0:0:0:
448,192,79906,1,0,0:0:0:0:
320,192,80375,1,0,0:0:0:0:
192,192,80562,1,0,0:0:0:0:
448,192,81250,1,0,0:0:0:0:
320,192,81250,1,0,0:0:0:0:
192,192,81687,1,0,0:0:0:0:
448,192,81906,1,0,0:0:0:0:
192,192,82125,1,0,0:0:0:0:
448,192,82343,1,0,0:0:0:0:
320,192,82593,1,0,0:0:0:0:
192,192,82593,1,0,0:0:0:0:
448,192,83250,1,0,0:0:0:0:
320,192,83312,1,0,0:0:0:0:
192,192,83375,1,0,0:0:0:0:
448,192,83708,1,0,0:0:0:0:
192,192,83906,1,0,0:0:0:0:
64,192,84125,1,0,0:0:0:0:
448,192,84343,1,0,0:0:0:0:
320,192,84562,1,0,0:0:0:0:
448,192,85250,1,0,0:0:0:0:
320,192,85250,1,0,0:0:0:0:
192,192,85687,1,0,0:0:0:0:
448,192,85906,1,0,0:0:0:0:
192,192,86375,1,0,0:0:0:0:
448,192,86562,1,0,0:0:0:0:
320,192,87031,1,0,0:0:0:0:
320,192,87250,1,0,0:0:0:0:
192,192,87250,1,0,0:0:0:0:
448,192,87708,1,0,0:0:0:0:
320,192,87916,1,0,0:0:0:0:
192,192,88375,1,0,0:0:0:0:
448,192,88583,1,0,0:0:0:0:
448,192,89250,1,0,0:0:0:0:
320,192,89250,1,0,0:0:0:0:
448,192,89718,1,0,0:0:0:0:
320,192,89906,1,0,0:0:0:0:
192,192,90125,1,0,0:0:0:0:
448,192,90343,1,0,0:0:0:0:
192,192,90562,1,0,0:0:0:0:
448,192,91250,1,0,0:0:0:0:
320,192,91312,1,0,0:0:0:0:
192,192,91375,1,0,0:0:0:0:
448,192,91687,1,0,0:0:0:0:
192,192,91937,1,0,0:0:0:0:
64,192,92375,1,0,0:0:0:0:
64,192,92593,1,0,0:0:0:0:
448,192,93250,1,0,0:0:0:0:
448,192,93708,1,0,0:0:0:0:
192,192,93906,1,0,0:0:0:0:
448,192,94333,1,0,0:0:0:0:
192,192,94583,1,0,0:0:0:0:
448,192,95041,1,0,0:0:0:0:
192,192,95250,1,0,0:0:0:0:
320,192,95250,1,0,0:0:0:0:
448,192,95687,1,0,0:0:0:0:
192,192,95906,1,0,0:0:0:0:
448,192,96375,1,0,0:0:0:0:
192,192,96593,1,4,0:0:0:0:
320,192,96593,1,4,0:0:0:0:
