osu file format v14

[General]
AudioFilename: tumblr_m59zj8gipz1qiu7lqo1.mp3
AudioLeadIn: 1500
PreviewTime: 45346
Countdown: 0
SampleSet: None
StackLeniency: 0.7
Mode: 0
LetterboxInBreaks: 0
WidescreenStoryboard: 0

[Editor]
Bookmarks: 62478
DistanceSpacing: 1
BeatDivisor: 4
GridSize: 4
TimelineZoom: 1

[Metadata]
Title:Hunting For Your Dream (TV Size)
TitleUnicode:Hunting For Your Dream (TV Size)
Artist:Galneryus
ArtistUnicode:Galneryus
Creator:Boncho
Version:Normal
Source:HUNTER X HUNTER
Tags:Gon Freecss Killua Zoldyck Kurapika Leorio ParadinightGon Freecss Killua Zoldyck Kurapika Leorio Paradinight hxh ハンター×ハンター ending
BeatmapID:1561546
BeatmapSetID:143064

[Difficulty]
HPDrainRate:4
CircleSize:3
OverallDifficulty:4
ApproachRate:5
SliderMultiplier:1
SliderTickRate:1

[Events]
//Background and Video events
0,0,"bg.jpg",0,0
Video,11150,"Hunter X Hunter 2011 [Ending 2] [Creditless]_h263p_001.avi"
//Break Periods
//Storyboard Layer 0 (Background)
//Storyboard Layer 1 (Fail)
//Storyboard Layer 2 (Pass)
//Storyboard Layer 3 (Foreground)
//Storyboard Sound Samples

[TimingPoints]
525,340.909090909091,4,2,1,85,1,0
14417,-100,4,2,3,75,0,0
14587,-100,4,2,1,75,0,0
19871,-100,4,2,3,75,0,0
20042,-100,4,2,1,75,0,0
25326,-100,4,2,3,75,0,0
25496,-100,4,2,1,75,0,0
26689,-100,4,2,3,75,0,0
26860,-100,4,2,1,75,0,0
30695,-100,4,2,3,75,0,0
31036,-100,4,2,1,75,0,0
32059,-100,4,2,3,75,0,0
32400,-100,4,2,1,75,0,0
38280,-100,4,2,3,75,0,0
38451,-100,4,2,1,75,0,0
40922,-100,4,2,3,75,0,0
41263,-100,4,2,1,75,0,0
42286,-100,4,2,3,75,0,0
42627,-100,4,2,1,75,0,0
43650,-100,4,2,3,75,0,0
43990,-100,4,2,1,75,0,0
45525,-100,4,2,1,75,0,1
46462,-100,4,2,3,75,0,1
46632,-100,4,2,1,75,0,1
51831,-100,4,2,3,75,0,1
52172,-100,4,2,1,75,0,1
62144,-100,4,2,3,75,0,1
62314,-100,4,2,1,75,0,1
67343,-100,4,2,1,75,0,0

[Colours]
Combo1 : 0,157,0
Combo2 : 162,38,41
Combo3 : 38,30,145
Combo4 : 232,180,0

[HitObjects]
211,159,525,6,8,P|193:65|104:32,1,200,12|12,0:0|0:0,0:0:0:0:
112,136,1547,1,0,0:0:0:0:
48,216,1888,2,8,B|36:283|81:317|81:317|172:306,1,200
304,160,3252,6,8,P|321:65|411:32,1,200,12|12,0:0|0:0,0:0:0:0:
400,128,4274,1,0,0:0:0:0:
448,216,4615,2,8,B|459:283|414:317|414:317|328:307,1,200
208,148,5979,6,8,B|208:240|208:240|156:273|156:329,1,200,12|4,0:0|0:0,0:0:0:0:
256,332,7002,1,8,0:0:0:0:
356,332,7343,2,8,B|356:276|304:240|304:240|304:140,1,200,12|4,0:0|0:0,0:0:0:0:
256,192,8706,12,8,11093,0:0:0:0:
232,272,11775,6,0,L|336:296,2,100,8|0|8,0:0|0:0|0:0,0:0:0:0:
184,260,12627,2,0,P|128:204|152:124,1,150,0|8,0:0|0:0,0:0:0:0:
216,76,13479,2,8,L|296:156,1,100,0|8,0:0|0:0,0:0:0:0:
368,88,14161,6,8,B|440:160|440:160|456:176|448:224,2,150,0|0|0,0:0|0:0|0:0,0:0:0:0:
296,156,15525,2,8,P|255:196|199:196,1,100,0|8,0:0|0:0,0:0:0:0:
119,183,16207,2,8,P|121:231|158:279,2,100,0|4|0,0:0|0:0|0:0,0:0:0:0:
104,84,17229,6,8,L|35:2,2,100,8|0|8,0:0|0:0|0:0,0:0:0:0:
136,120,18081,2,8,P|148:192|79:247,1,150,0|8,0:0|0:0,0:0:0:0:
160,320,18934,2,8,L|240:240,1,100,0|8,0:0|0:0,0:0:0:0:
320,304,19615,6,0,B|392:232|392:232|408:216|400:168,2,150,0|0|0,0:0|0:0|0:0,0:0:0:0:
240,232,20979,2,8,P|183:232|143:192,1,100,0|8,0:0|0:0,0:0:0:0:
96,128,21661,2,8,P|64:164|56:224,2,100,0|12|0,0:0|0:0|0:0,0:0:0:0:
184,80,22684,5,8,0:0:0:0:
272,28,23025,2,0,P|288:80|276:128,1,100,0|8,0:0|0:0,0:0:0:0:
256,168,23536,2,0,L|176:304,1,150,0|8,0:0|0:0,0:0:0:0:
84,276,24388,2,8,L|148:172,1,100,0|8,0:0|0:0,0:0:0:0:
184,104,25070,6,8,P|240:38|319:41,2,150,0|8|0,0:0|0:0|0:0,0:0:0:0:
280,132,26434,2,0,P|256:228|159:262,1,200,0|0,0:0|0:0,0:0:0:0:
184,164,27456,2,8,L|107:87,1,100,12|0,0:0|0:0,0:0:0:0:
56,172,28138,5,8,0:0:0:0:
56,272,28479,2,0,P|70:318|110:348,1,100,0|8,0:0|0:0,0:0:0:0:
160,344,28990,2,8,L|312:264,1,150,0|8,0:0|0:0,0:0:0:0:
220,204,29843,1,0,0:0:0:0:
296,140,30184,1,8,0:0:0:0:
368,208,30525,6,4,P|435:275|503:264,2,150,4|12|4,0:0|0:0|0:0,0:0:0:0:
456,160,31888,2,0,B|409:85|328:112|328:112|281:76,1,200,0|0,0:0|0:0,2:0:0:0:
204,28,32911,2,0,P|148:40|128:96,1,100,8|4,0:0|0:0,0:0:0:0:
160,168,33593,5,8,0:0:0:0:
196,260,33934,2,0,L|216:324,1,50,0|0,0:0|0:0,2:0:0:0:
308,336,34445,2,8,P|360:293|361:212,1,150,12|8,0:0|0:0,0:0:0:0:
312,128,35297,1,0,0:0:0:0:
256,48,35638,1,8,0:0:0:0:
196,128,35979,5,4,0:0:0:0:
144,216,36320,2,0,P|135:288|185:341,1,150,8|4,0:0|0:0,0:0:0:0:
256,272,37172,2,0,L|256:120,1,150,0|8,0:0|0:0,0:0:0:0:
172,68,38025,2,0,P|260:24|344:72,1,200,0|4,0:0|0:0,0:0:0:0:
392,264,39388,6,4,P|345:317|265:316,1,150,4|4,0:0|0:0,2:0:0:0:
140,244,40411,1,0,0:0:0:0:
68,172,40752,2,8,P|76:76|180:44,1,200,8|12,0:0|0:0,0:0:0:0:
256,76,41775,5,8,0:0:0:0:
348,40,42115,2,8,P|435:77|442:172,1,200,8|12,0:0|0:0,0:0:0:0:
384,252,43138,1,8,0:0:0:0:
316,328,43479,2,0,P|219:339|157:260,1,200,8|4,0:0|0:0,0:0:0:0:
392,264,45525,5,4,0:0:0:0:
432,172,45865,1,8,0:0:0:0:
392,80,46206,2,0,P|308:92|272:156,1,150,0|4,0:0|0:0,0:0:0:0:
176,256,47229,2,8,P|238:306|264:312,2,100,8|0|8,0:0|0:0|0:0,0:0:0:0:
120,172,48252,6,8,P|176:164|224:132,1,100,4|8,0:0|0:0,0:0:0:0:
264,132,48763,2,8,P|296:184|398:206,1,150,4|8,0:0|0:0,0:0:0:0:
376,312,49615,1,0,0:0:0:0:
288,356,49956,1,8,0:0:0:0:
200,304,50297,2,8,L|128:232,1,100,0|8,0:0|0:0,0:0:0:0:
88,144,50979,5,12,0:0:0:0:
160,72,51319,1,8,0:0:0:0:
260,56,51660,2,4,P|340:64|380:120,1,150,0|4,0:0|0:0,0:0:0:0:
376,268,52683,2,8,P|313:318|288:324,2,100,8|0|8,0:0|0:0|0:0,0:0:0:0:
404,172,53706,6,8,L|340:140,1,50,8|8,0:0|0:0,0:0:0:0:
260,136,54217,2,8,P|227:188|125:210,1,150,4|8,0:0|0:0,0:0:0:0:
168,312,55069,1,0,0:0:0:0:
256,356,55410,1,8,0:0:0:0:
344,312,55752,2,0,L|416:240,2,100,0|12|0,0:0|0:0|0:0,0:0:0:0:
256,260,56775,6,8,L|256:140,1,100,12|8,0:0|0:0,0:0:0:0:
256,108,57286,1,0,0:0:0:0:
156,104,57627,2,8,P|204:24|268:8,1,150
340,64,58479,2,8,L|412:136,1,100,0|8,0:0|0:0,0:0:0:0:
356,220,59161,6,8,P|384:292|468:304,2,150,12|8|12,0:0|0:0|0:0,0:0:0:0:
256,236,60525,1,0,0:0:0:0:
156,220,60865,2,8,P|140:264|91:299,1,100,8|0,0:0|0:0,0:0:0:0:
56,204,61547,1,8,0:0:0:0:
124,132,61888,6,8,B|216:132|216:40|304:40,1,200,12|0,0:0|0:0,0:0:0:0:
372,104,62911,1,8,0:0:0:0:
328,196,63252,2,8,P|304:260|264:276,1,100,0|8,0:0|0:0,0:0:0:0:
180,256,63934,2,8,P|204:191|244:175,1,100,0|8,0:0|0:0,0:0:0:0:
256,192,64615,12,8,66661,0:0:0:0:
104,352,67343,6,0,P|192:320|208:216,1,200,0|0,0:0|0:0,0:0:0:0:
112,248,68365,1,0,0:0:0:0:
48,172,68706,2,0,B|36:105|81:71|81:71|172:82,1,200,4|4,0:0|0:0,0:0:0:0:
304,224,70070,6,0,P|321:319|411:352,1,200,0|0,0:0|0:0,0:0:0:0:
400,252,71092,1,0,0:0:0:0:
448,164,71433,2,4,B|459:97|414:63|414:63|328:73,1,200
211,239,72797,6,4,B|211:166|211:166|139:124|160:41,1,200,4|4,0:0|0:0,0:0:0:0:
257,73,73820,1,0,0:0:0:0:
358,62,74161,2,0,B|364:131|301:166|301:166|302:244,1,200,4|4,0:0|0:0,0:0:0:0:
256,192,75525,12,4,78252,0:0:0:0:
