osu file format v14

[General]
AudioFilename: tumblr_m59zj8gipz1qiu7lqo1.mp3
AudioLeadIn: 1500
PreviewTime: 45346
Countdown: 0
SampleSet: Soft
StackLeniency: 0.7
Mode: 0
LetterboxInBreaks: 0
WidescreenStoryboard: 0

[Editor]
Bookmarks: 17393,17904,80717
DistanceSpacing: 1.4
BeatDivisor: 4
GridSize: 4
TimelineZoom: 1

[Metadata]
Title:Hunting For Your Dream (TV Size)
TitleUnicode:Hunting For Your Dream (TV Size)
Artist:Galneryus
ArtistUnicode:Galneryus
Creator:Boncho
Version:Insane
Source:HUNTER X HUNTER
Tags:Gon Freecss Killua Zoldyck Kurapika Leorio ParadinightGon Freecss Killua Zoldyck Kurapika Leorio Paradinight hxh ハンター×ハンター ending
BeatmapID:356022
BeatmapSetID:143064

[Difficulty]
HPDrainRate:7
CircleSize:4
OverallDifficulty:7
ApproachRate:9
SliderMultiplier:1.7
SliderTickRate:2

[Events]
//Background and Video events
0,0,"bg.jpg",0,0
Video,11150,"Hunter X Hunter 2011 [Ending 2] [Creditless]_h263p_001.avi"
//Break Periods
//Storyboard Layer 0 (Background)
//Storyboard Layer 1 (Fail)
//Storyboard Layer 2 (Pass)
//Storyboard Layer 3 (Foreground)
//Storyboard Sound Samples

[TimingPoints]
517,340.909090909091,4,2,1,75,1,0
517,-111.111111111111,4,2,1,75,0,0
857,-100,4,2,1,75,0,0
8017,-90.9090909090909,4,2,1,75,0,0
8357,-100,4,2,1,75,0,0
16880,-80,4,2,1,75,0,0
17221,-100,4,2,1,75,0,0
33244,-83.3333333333333,4,2,1,75,0,0
33585,-100,4,2,1,75,0,0
35971,-83.3333333333333,4,2,1,75,0,0
36312,-100,4,2,1,75,0,0
42960,-100,4,1,1,75,0,0
43982,-100,4,2,1,75,0,0
45517,-100,4,2,1,75,0,1
66653,-100,4,2,1,75,0,0
74835,-76.9230769230769,4,2,1,75,0,0
75176,-100,4,2,1,75,0,0

[Colours]
Combo1 : 0,157,0
Combo2 : 162,38,41
Combo3 : 38,30,145
Combo4 : 232,180,0

[HitObjects]
164,28,517,6,0,P|88:56|44:128,1,152.999995330811,4|0,0:0|0:0,0:0:0:0:
176,156,1028,1,0,0:0:0:0:
176,156,1113,1,0,0:0:0:0:
176,156,1198,1,0,0:0:0:0:
312,248,1369,1,8,0:0:0:0:
256,96,1539,1,8,0:0:0:0:
208,252,1709,1,8,0:0:0:0:
336,156,1880,6,0,B|400:100|352:36|452:8,1,170,4|0,0:0|0:0,0:0:0:0:
476,104,2391,1,0,0:0:0:0:
476,104,2562,2,0,P|460:160|424:192,1,85,4|0,0:0|0:0,0:0:0:0:
303,231,2903,2,0,P|319:175|355:143,1,85
456,252,3244,6,0,P|416:328|328:336,1,170,4|0,0:0|0:0,0:0:0:0:
208,308,3755,1,8,0:0:0:0:
180,300,3840,1,8,0:0:0:0:
156,292,3926,2,0,P|107:262|100:231,1,85
32,120,4267,2,0,P|85:138|98:166,1,85
204,180,4607,6,0,P|225:231|283:248,1,85,4|0,0:0|0:0,0:0:0:0:
380,284,4948,1,8,0:0:0:0:
364,148,5119,1,0,0:0:0:0:
364,148,5289,2,0,L|312:251,1,85,4|0,0:0|0:0,0:0:0:0:
256,340,5630,2,0,P|206:352|155:330,1,85
160,336,5886,1,0,0:0:0:0:
144,328,5971,6,0,B|94:306|89:249,1,85,4|0,0:0|0:0,0:0:0:0:
128,136,6312,2,0,B|177:157|182:214,1,85,0|0,0:0|0:0,0:0:0:0:
184,216,6568,1,8,0:0:0:0:
184,232,6653,1,12,0:0:0:0:
324,224,6823,1,0,0:0:0:0:
296,92,6994,1,0,0:0:0:0:
308,80,7079,1,0,0:0:0:0:
324,72,7164,1,0,0:0:0:0:
340,68,7249,1,0,0:0:0:0:
356,68,7335,6,0,B|405:67|432:123,1,85,4|0,0:0|0:0,0:0:0:0:
302,301,7676,2,0,B|338:269|324:224,1,85,0|0,0:0|0:0,0:0:0:0:
292,116,8017,2,0,P|212:144|152:236,1,187.000005706787,4|0,0:0|0:0,0:0:0:0:
68,144,8528,1,0,0:0:0:0:
176,32,8698,5,8,0:0:0:0:
388,120,8954,1,8,0:0:0:0:
356,304,9210,2,0,P|294:268|287:230,1,85
258,230,9466,2,0,B|226:294|154:297,1,127.5,0|0,0:0|0:0,0:0:0:0:
38,229,9892,1,0,0:0:0:0:
90,104,10062,6,0,B|66:148,1,42.5
118,200,10232,2,0,B|142:155,1,42.5
214,168,10403,2,0,B|190:212,1,42.5
238,268,10573,2,0,B|262:223,1,42.5
340,204,10744,5,0,0:0:0:0:
360,196,10829,1,0,0:0:0:0:
376,184,10914,1,0,0:0:0:0:
388,168,10999,1,0,0:0:0:0:
396,148,11085,1,0,0:0:0:0:
396,132,11170,1,0,0:0:0:0:
396,112,11255,2,0,P|377:74|304:48,1,85
208,44,11596,1,0,0:0:0:0:
156,168,11767,6,0,L|64:196,1,85,4|0,0:0|0:0,0:0:0:0:
128,300,12107,2,0,L|219:272,1,85,0|0,0:0|0:0,0:0:0:0:
332,216,12448,1,8,0:0:0:0:
332,216,12619,2,0,P|392:164|488:184,1,170,0|0,0:0|0:0,0:0:0:0:
428,276,13130,5,8,0:0:0:0:
336,288,13301,2,0,B|288:292|256:232,1,85,0|0,0:0|0:0,0:0:0:0:
168,108,13642,1,0,0:0:0:0:
184,288,13812,1,0,0:0:0:0:
300,188,13982,1,8,0:0:0:0:
168,108,14153,6,0,B|72:80,1,85
168,196,14494,1,8,0:0:0:0:
52,168,14664,2,0,P|56:244|148:312,1,170
264,332,15176,1,8,0:0:0:0:
304,328,15261,1,0,0:0:0:0:
336,304,15346,1,0,0:0:0:0:
348,264,15432,1,0,0:0:0:0:
340,224,15517,38,0,B|324:172|369:136,1,85
480,28,15857,2,0,B|496:79|451:115,1,85,8|0,0:0|0:0,0:0:0:0:
296,72,16198,2,0,B|352:60|385:101,1,85
472,188,16539,1,12,0:0:0:0:
376,284,16710,1,0,0:0:0:0:
220,304,16880,6,0,P|208:208|232:160,1,106.25,4|0,0:0|0:0,0:0:0:0:
296,72,17221,2,0,P|328:124|324:184,1,85,8|0,0:0|0:0,0:0:0:0:
348,264,17562,1,0,0:0:0:0:
224,148,17732,1,0,0:0:0:0:
180,312,17903,1,8,0:0:0:0:
224,148,18073,1,0,0:0:0:0:
224,148,18159,1,0,0:0:0:0:
224,148,18244,6,0,B|247:102|307:99,1,85
420,147,18585,1,8,0:0:0:0:
324,244,18755,2,0,B|268:336|160:308,1,170,0|0,0:0|0:0,0:0:0:0:
84,223,19267,1,8,0:0:0:0:
148,120,19437,1,0,0:0:0:0:
256,68,19607,6,0,B|328:72|348:132|348:132|400:152,1,170,0|8,0:0|0:0,0:0:0:0:
256,152,20119,2,0,B|184:148|164:87|164:87|112:68,1,170,0|8,0:0|0:0,0:0:0:0:
56,128,20630,1,0,0:0:0:0:
60,168,20715,1,0,0:0:0:0:
84,200,20800,1,0,0:0:0:0:
124,212,20886,1,0,0:0:0:0:
164,220,20971,38,0,B|218:225|233:281,1,85,0|0,0:0|0:0,2:0:0:0:
296,368,21312,2,0,L|364:300,1,85,8|0,0:0|0:0,0:0:0:0:
448,208,21653,1,0,0:0:0:0:
400,80,21823,2,0,L|332:148,1,85,0|12,0:0|0:0,0:0:0:0:
264,216,22164,1,0,0:0:0:0:
60,164,22335,6,0,P|152:144|164:56,1,170,4|8,0:0|0:0,0:0:0:0:
88,84,22846,1,0,0:0:0:0:
228,180,23017,2,0,B|272:216|332:188,1,85,0|0,0:0|0:0,0:0:0:0:
400,96,23357,1,8,0:0:0:0:
400,96,23528,2,0,P|456:144|420:240,1,170
364,300,24039,1,8,0:0:0:0:
272,252,24210,1,0,0:0:0:0:
272,252,24294,1,0,0:0:0:0:
272,252,24380,2,0,P|244:220|228:172,1,85
256,12,24721,2,0,P|284:43|300:91,1,85,8|0,0:0|0:0,0:0:0:0:
272,251,25062,6,0,P|239:278|198:289,1,85
180,156,25403,1,8,0:0:0:0:
80,64,25573,2,0,P|116:36|176:28,1,85
288,52,25914,1,0,0:0:0:0:
380,128,26085,2,0,L|428:144,1,42.5,8|0,0:0|0:0,0:0:0:0:
352,144,26255,2,0,L|304:127,1,42.5,0|0,0:0|0:0,0:0:0:0:
360,180,26426,2,0,P|340:236|296:272,1,85
248,164,26767,1,8,0:0:0:0:
147,255,26937,1,0,0:0:0:0:
125,224,27022,1,0,0:0:0:0:
118,186,27107,2,0,B|135:145|106:105,1,85,0|0,0:0|0:0,0:0:0:0:
206,13,27448,2,0,B|186:50|208:94,1,85,12|0,0:0|0:0,0:0:0:0:
325,115,27789,38,0,B|372:144|380:200,1,85,4|0,0:0|0:0,0:0:0:0:
444,280,28130,2,0,B|400:300|338:277,1,85,8|0,0:0|0:0,0:0:0:0:
228,276,28471,2,0,B|248:224|311:211,1,85
392,168,28812,1,8,0:0:0:0:
392,168,28982,2,8,P|392:220|360:264,1,85,0|0,0:0|0:0,0:0:0:0:
268,356,29323,1,0,0:0:0:0:
268,356,29409,1,0,0:0:0:0:
268,356,29494,1,8,0:0:0:0:
192,204,29664,1,0,0:0:0:0:
208,196,29749,1,0,0:0:0:0:
224,188,29835,2,0,B|248:224|308:232,1,85,0|0,0:0|0:0,0:0:0:0:
180,332,30176,2,0,B|148:306|99:312,1,85,8|0,0:0|0:0,0:0:0:0:
84,176,30517,6,0,P|160:172|208:104,1,127.5,4|0,0:0|0:0,0:0:0:0:
236,124,30857,2,0,B|260:160|332:168,1,85,8|0,0:0|0:0,0:0:0:0:
408,84,31198,1,4,0:0:0:0:
436,216,31368,1,0,2:0:0:0:
423,249,31453,1,0,2:0:0:0:
400,279,31539,2,0,B|371:311|316:308,1,85,8|0,0:0|0:0,2:0:0:0:
256,192,31880,5,0,0:0:0:0:
208,60,32051,2,0,B|208:100|152:128,1,85,0|8,0:0|0:0,0:0:0:0:
256,152,32392,1,0,0:0:0:0:
292,148,32477,1,0,0:0:0:0:
326,157,32562,2,0,B|366:161|400:208,1,85,0|0,0:0|0:0,0:0:0:0:
308,256,32903,2,0,B|299:295|231:326,1,85,8|0,0:0|0:0,0:0:0:0:
116,360,33244,6,0,B|172:336|165:277|165:277|224:252|260:196,1,203.999993774414,4|8,0:0|0:0,0:0:0:0:
326,157,33755,1,0,0:0:0:0:
424,136,33926,2,0,L|400:256,1,85
508,200,34267,1,8,0:0:0:0:
344,44,34437,2,0,P|308:116|320:220,1,170,4|0,0:0|0:0,0:0:0:0:
256,328,34948,2,0,P|198:314|176:262,1,85,8|0,0:0|0:0,0:0:0:0:
100,188,35289,1,0,0:0:0:0:
144,60,35460,2,0,P|198:82|212:137,1,85,8|0,0:0|0:0,0:0:0:0:
284,216,35801,1,8,0:0:0:0:
384,368,35971,6,0,P|448:319|452:184,1,203.999993774414,4|0,0:0|0:0,0:0:0:0:
424,72,36482,1,0,0:0:0:0:
304,8,36653,1,0,0:0:0:0:
292,144,36823,1,4,0:0:0:0:
137,348,37164,6,0,P|60:318|23:243,1,170,4|0,0:0|0:0,0:0:0:0:
172,153,37676,2,8,P|164:195|144:232,1,85,8|0,0:0|0:0,0:0:0:0:
267,123,38017,2,0,P|242:88|232:48,1,85
356,44,38357,2,0,P|384:136|332:224,1,170,8|4,0:0|0:0,0:0:0:0:
256,268,38869,5,0,0:0:0:0:
172,184,39039,2,8,P|126:177|87:187,1,85,8|0,0:0|0:0,0:0:0:0:
52,300,39380,2,0,P|97:306|136:296,1,85,0|4,0:0|0:0,0:0:0:0:
256,268,39721,1,8,0:0:0:0:
364,320,39892,2,0,P|380:236|304:164,1,170,4|0,0:0|0:0,0:0:0:0:
236,104,40403,2,8,L|168:36,1,85,8|0,0:0|0:0,0:0:0:0:
56,52,40744,2,0,L|123:115,1,85
208,188,41085,6,0,P|296:176|324:96,1,170,8|4,0:0|0:0,0:0:0:0:
384,4,41596,1,0,0:0:0:0:
492,56,41767,1,8,0:0:0:0:
436,160,41937,1,0,0:0:0:0:
372,260,42107,2,8,P|348:295|314:319,1,85
206,272,42448,2,0,P|229:236|264:212,1,85,8|0,0:0|0:0,0:0:0:0:
356,136,42789,1,0,0:0:0:0:
232,76,42960,1,0,3:0:0:0:
232,76,43130,2,0,P|229:118|206:163,1,85,0|0,0:0|0:0,3:0:0:0:
73,257,43471,2,0,P|75:215|97:170,1,85,0|0,0:0|0:0,3:0:0:0:
164,292,43812,2,0,P|161:333|139:378,1,85,0|0,0:0|0:0,3:0:0:0:
256,192,44153,12,0,45346,0:0:0:0:
346,255,45517,6,0,P|337:184|263:156,1,127.5,4|0,0:0|0:0,0:0:0:0:
232,96,45857,2,0,B|271:56|325:76,1,85,8|0,0:0|0:0,0:0:0:0:
408,140,46199,1,0,0:0:0:0:
268,236,46369,2,0,B|217:219|205:162,1,85,0|8,0:0|0:0,0:0:0:0:
184,60,46710,2,0,P|108:116|92:200,1,170,4|0,0:0|0:0,0:0:0:0:
128,300,47221,2,0,P|164:344|220:352,1,85,8|0,0:0|0:0,0:0:0:0:
228,240,47562,2,0,P|284:196|276:128,1,127.5
320,96,47903,2,0,B|344:136|408:144,1,85,8|0,0:0|0:0,0:0:0:0:
352,256,48244,5,0,0:0:0:0:
260,332,48414,1,0,0:0:0:0:
168,256,48585,2,0,B|134:225|130:181,1,85,8|0,0:0|0:0,0:0:0:0:
172,52,48926,2,0,B|215:66|237:105,1,85,0|0,0:0|0:0,0:0:0:0:
256,240,49267,1,8,0:0:0:0:
332,128,49436,5,0,0:0:0:0:
332,128,49522,1,0,0:0:0:0:
332,128,49607,1,0,0:0:0:0:
428,224,49778,2,0,L|480:180,2,42.5,8|0|8,0:0|0:0|0:0,0:0:0:0:
320,304,50119,1,0,0:0:0:0:
320,304,50204,1,0,0:0:0:0:
320,304,50289,2,0,B|288:335|241:331,1,85,0|0,0:0|0:0,0:0:0:0:
152,228,50630,2,0,B|183:196|230:200,1,85,8|0,0:0|0:0,0:0:0:0:
364,188,50971,6,0,P|340:108|258:73,1,170,4|8,0:0|0:0,0:0:0:0:
132,76,51482,1,0,0:0:0:0:
200,192,51653,1,0,0:0:0:0:
84,260,51823,1,0,0:0:0:0:
124,156,51994,1,8,0:0:0:0:
188,304,52164,6,0,P|240:372|332:360,1,170,4|0,0:0|0:0,0:0:0:0:
424,340,52676,2,0,P|408:288|366:245,1,85,8|0,0:0|0:0,0:0:0:0:
248,172,53017,2,0,P|255:212|276:249,1,85
352,112,53357,2,0,P|272:56|184:76,1,170,8|6,0:0|0:0,0:0:0:0:
80,124,53869,5,0,0:0:0:0:
136,248,54039,1,8,0:0:0:0:
248,172,54210,1,0,0:0:0:0:
200,44,54380,5,4,0:0:0:0:
68,80,54551,1,0,0:0:0:0:
104,212,54721,1,8,0:0:0:0:
232,160,54892,1,0,0:0:0:0:
340,80,55062,2,0,P|400:112|416:164,1,85,4|0,0:0|0:0,0:0:0:0:
392,296,55403,2,0,P|332:263|316:212,1,85,8|0,0:0|0:0,0:0:0:0:
264,148,55744,1,2,0:0:0:0:
252,136,55829,1,0,0:0:0:0:
240,124,55914,1,0,0:0:0:0:
224,116,55999,1,0,0:0:0:0:
208,112,56085,1,2,0:0:0:0:
192,112,56170,1,0,0:0:0:0:
176,116,56255,1,0,0:0:0:0:
164,128,56340,1,0,0:0:0:0:
152,140,56426,6,0,P|136:224|220:276,1,170,4|8,0:0|0:0,0:0:0:0:
312,300,56937,1,0,0:0:0:0:
360,192,57107,2,0,L|304:124,1,85
196,76,57448,1,8,0:0:0:0:
76,76,57619,2,0,P|96:152|192:192,1,170,4|0,0:0|0:0,0:0:0:0:
292,180,58130,2,0,P|336:184|368:212,1,85,8|0,0:0|0:0,2:0:0:0:
376,328,58471,2,0,P|334:324|301:298,1,85,0|0,0:0|0:0,2:0:0:0:
292,180,58812,1,8,0:0:0:0:
256,68,58982,1,0,0:0:0:0:
388,36,59153,6,0,P|399:76|386:115,1,85,4|0,0:0|0:0,0:0:0:0:
256,68,59493,1,8,0:0:0:0:
124,28,59664,2,0,P|111:67|123:108,1,85
188,228,60005,1,0,0:0:0:0:
296,312,60176,1,8,0:0:0:0:
428,276,60346,2,0,P|500:204|476:136,1,170,4|0,0:0|0:0,0:0:0:0:
412,52,60857,2,0,P|377:75|360:113,1,85,8|0,0:0|2:0,0:0:0:0:
217,202,61198,2,0,P|253:179|269:140,1,85,0|0,0:0|2:0,0:0:0:0:
140,96,61539,1,8,0:0:0:0:
76,216,61710,1,0,0:0:0:0:
176,308,61880,6,0,P|256:340|336:300,1,170,4|8,0:0|0:0,0:0:0:0:
392,188,62392,1,0,0:0:0:0:
336,64,62562,2,0,P|256:32|176:72,1,170,0|8,0:0|0:0,0:0:0:0:
124,188,63073,1,0,0:0:0:0:
136,324,63244,2,4,P|192:308|220:256,1,85,4|0,0:0|0:0,0:0:0:0:
360,264,63585,2,8,P|344:208|292:180,1,85
176,160,63926,2,0,L|92:200,1,85
256,76,64267,2,8,L|339:35,1,85
256,192,64607,12,0,66653,0:0:0:0:
72,96,66994,5,0,0:0:0:0:
76,112,67079,1,0,0:0:0:0:
84,128,67164,1,0,0:0:0:0:
92,144,67249,1,0,0:0:0:0:
100,160,67335,6,0,B|132:200|200:172,1,85,6|0,0:0|0:0,0:0:0:0:
312,188,67676,2,0,B|312:240|260:268,1,85,8|2,0:0|0:0,0:0:0:0:
148,100,68017,1,2,0:0:0:0:
264,80,68187,2,0,B|312:56|360:88,1,85
452,136,68528,1,0,0:0:0:0:
452,136,68613,1,0,0:0:0:0:
452,136,68698,2,0,P|444:220|356:268,1,170,4|0,0:0|0:0,0:0:0:0:
256,208,69210,1,0,0:0:0:0:
133,266,69380,2,0,B|82:249|70:192,1,85
48,76,69721,2,0,B|101:82|123:136,1,85,4|0,0:0|0:0,0:0:0:0:
46,239,70062,6,0,P|86:315|174:323,1,170,4|0,0:0|0:0,0:0:0:0:
294,295,70573,1,8,0:0:0:0:
322,287,70658,1,8,0:0:0:0:
346,279,70744,2,0,P|395:249|402:218,1,85
470,107,71085,2,0,P|417:125|404:153,1,85
298,167,71425,6,0,P|277:218|219:235,1,85,4|0,0:0|0:0,0:0:0:0:
122,271,71766,1,8,0:0:0:0:
138,135,71937,1,0,0:0:0:0:
138,135,72107,2,0,L|190:238,1,85,4|0,0:0|0:0,0:0:0:0:
246,327,72448,2,0,P|296:339|347:317,1,85
342,323,72704,1,0,0:0:0:0:
358,315,72789,6,0,B|408:293|413:236,1,85,4|0,0:0|0:0,0:0:0:0:
374,123,73130,2,0,B|325:144|320:201,1,85,0|0,0:0|0:0,0:0:0:0:
318,203,73386,1,8,0:0:0:0:
318,219,73471,1,12,0:0:0:0:
178,211,73641,1,0,0:0:0:0:
206,79,73812,1,0,0:0:0:0:
194,67,73897,1,0,0:0:0:0:
178,59,73982,1,0,0:0:0:0:
162,55,74067,1,0,0:0:0:0:
146,55,74153,2,0,B|97:54|70:110,1,85,4|0,0:0|0:0,0:0:0:0:
200,288,74494,2,0,B|164:256|178:211,1,85,0|0,0:0|0:0,0:0:0:0:
232,68,74835,2,0,P|240:148|368:208,1,220.999989883423,4|0,0:0|0:0,0:0:0:0:
464,128,75346,1,0,0:0:0:0:
326,19,75516,5,8,0:0:0:0:
132,88,75772,1,8,0:0:0:0:
140,292,76028,2,0,P|196:248|198:210,1,85,8|0,0:0|0:0,0:0:0:0:
226,206,76284,2,0,B|266:266|338:258,1,127.5,0|0,0:0|0:0,0:0:0:0:
468,228,76710,1,0,0:0:0:0:
396,92,76880,6,0,B|420:136,1,42.5
368,188,77050,2,0,B|344:143,1,42.5
272,156,77221,2,0,B|296:200,1,42.5
248,256,77391,2,0,B|224:211,1,42.5
146,193,77562,5,0,0:0:0:0:
126,185,77647,1,0,0:0:0:0:
110,173,77732,1,0,0:0:0:0:
98,157,77817,1,0,0:0:0:0:
90,137,77903,1,0,0:0:0:0:
90,121,77988,1,0,0:0:0:0:
92,100,78073,2,0,P|110:62|183:36,1,85,0|4,0:0|0:0,0:0:0:0:
256,192,78414,12,0,79948,0:0:0:0:
