osu file format v14

[General]
AudioFilename: tumblr_m59zj8gipz1qiu7lqo1.mp3
AudioLeadIn: 1500
PreviewTime: 45346
Countdown: 0
SampleSet: None
StackLeniency: 0.7
Mode: 0
LetterboxInBreaks: 0
WidescreenStoryboard: 0

[Editor]
Bookmarks: 62478
DistanceSpacing: 1.4
BeatDivisor: 4
GridSize: 4
TimelineZoom: 1

[Metadata]
Title:Hunting For Your Dream (TV Size)
TitleUnicode:Hunting For Your Dream (TV Size)
Artist:Galneryus
ArtistUnicode:Galneryus
Creator:Boncho
Version:Hard
Source:HUNTER X HUNTER
Tags:Gon Freecss Killua Zoldyck Kurapika Leorio ParadinightGon Freecss Killua Zoldyck Kurapika Leorio Paradinight hxh ハンター×ハンター ending
BeatmapID:1561545
BeatmapSetID:143064

[Difficulty]
HPDrainRate:6
CircleSize:4
OverallDifficulty:6
ApproachRate:7
SliderMultiplier:1.4
SliderTickRate:1

[Events]
//Background and Video events
0,0,"bg.jpg",0,0
Video,11150,"Hunter X Hunter 2011 [Ending 2] [Creditless]_h263p_001.avi"
//Break Periods
//Storyboard Layer 0 (Background)
//Storyboard Layer 1 (Fail)
//Storyboard Layer 2 (Pass)
//Storyboard Layer 3 (Foreground)
//Storyboard Sound Samples

[TimingPoints]
517,340.909090909091,4,2,1,75,1,0
517,-111.111111111111,4,2,1,75,0,0
857,-100,4,2,1,75,0,0
3244,-111.111111111111,4,2,1,75,0,0
3585,-100,4,2,1,75,0,0
6312,-90.9090909090909,4,2,1,75,0,0
8357,-100,4,2,1,75,0,0
12363,-100,4,1,1,75,0,0
12534,-100,4,2,1,75,0,0
31113,-100,4,2,1,75,0,0
31284,-100,4,2,1,75,0,0
45517,-100,4,2,1,75,0,1
49437,-100,4,2,1,45,0,1
49607,-100,4,2,1,75,0,1
67335,-111.111111111111,4,2,1,75,0,0
67676,-100,4,2,1,75,0,0
70062,-111.111111111111,4,2,1,75,0,0
70403,-100,4,2,1,75,0,0
72789,-90.9090909090909,4,2,1,75,0,0
78244,-100,4,2,1,75,0,0

[Colours]
Combo1 : 0,157,0
Combo2 : 162,38,41
Combo3 : 38,30,145
Combo4 : 232,180,0

[HitObjects]
200,64,517,6,0,P|256:40|320:76,1,125.999996154785,4|0,0:0|0:0,0:0:0:0:
376,140,1028,1,0,0:0:0:0:
376,140,1198,2,0,L|308:208,1,70
256,256,1539,1,0,0:0:0:0:
342,302,1710,1,0,0:0:0:0:
434,271,1880,6,0,B|408:214|354:206|354:206|318:183,1,140,8|0,0:0|0:0,0:0:0:0:
256,120,2392,1,0,0:0:0:0:
185,188,2562,2,0,B|157:206|157:206|103:214|78:271,1,140,4|0,0:0|0:0,0:0:0:0:
312,312,3244,6,0,P|256:336|192:304,1,125.999996154785,4|0,0:0|0:0,0:0:0:0:
136,237,3755,1,0,0:0:0:0:
136,237,3925,2,0,L|204:170,1,70
256,120,4266,1,0,0:0:0:0:
171,74,4437,1,0,0:0:0:0:
78,106,4607,6,0,B|103:162|157:170|157:170|193:193,1,140,8|0,0:0|0:0,0:0:0:0:
256,256,5119,1,0,0:0:0:0:
328,188,5289,2,0,B|355:170|355:170|412:160|432:100,1,140,4|0,0:0|0:0,0:0:0:0:
340,76,5801,1,0,0:0:0:0:
276,4,5971,6,0,P|233:60|256:120,1,140,4|0,0:0|0:0,0:0:0:0:
328,188,6482,1,8,0:0:0:0:
328,188,6568,1,8,0:0:0:0:
328,188,6653,2,8,P|282:252|193:225,1,154.000004699707
120,200,7164,5,8,0:0:0:0:
106,193,7249,1,8,0:0:0:0:
92,185,7335,2,4,B|105:123|156:104|156:104|186:70,1,154.000004699707,4|0,0:0|0:0,0:0:0:0:
256,152,7846,1,0,0:0:0:0:
324,68,8017,2,4,B|354:102|354:102|405:121|419:182,1,154.000004699707,4|0,0:0|0:0,0:0:0:0:
256,192,8698,12,8,11426,0:0:0:0:
175,155,11767,6,0,P|208:209|284:209,2,140,4|8|4,0:0|0:0|0:0,2:3:0:0:
80,128,12619,2,0,P|120:72|200:60,1,140
280,88,13130,1,8,0:0:0:0:
352,160,13301,1,0,0:0:0:0:
336,256,13471,2,0,L|248:224,1,70,0|0,0:0|0:0,2:0:0:0:
192,288,13812,2,0,L|280:320,1,70,8|0,0:0|0:0,2:0:0:0:
368,336,14153,6,0,P|420:284|404:208,1,140,0|8,0:0|0:0,0:0:0:0:
444,128,14664,2,0,P|370:131|326:182,1,140
329,178,15176,1,8,0:0:0:0:
232,348,15517,2,0,P|152:342|114:288,1,140,4|8,0:0|0:0,0:0:0:0:
21,319,16028,2,0,P|33:247|89:203,2,140,0|0|0,0:0|0:0|0:0,0:0:0:0:
117,299,16880,1,0,0:0:0:0:
360,176,17221,6,0,P|336:112|267:96,2,140,8|0|8,0:0|0:0|0:0,2:3:0:0:
264,192,18073,2,0,P|255:259|199:299,1,140
112,256,18584,1,8,0:0:0:0:
48,180,18755,1,0,0:0:0:0:
96,88,18925,2,0,L|159:57,1,70,0|0,0:0|0:0,2:0:0:0:
240,112,19267,2,0,L|177:143,1,70,8|0,0:0|0:0,2:0:0:0:
264,192,19607,6,0,P|316:149|320:81,1,140,0|8,0:0|0:0,0:0:0:0:
240,112,20119,2,0,P|187:154|183:222,1,140
183,222,20630,1,8,0:0:0:0:
363,144,20971,6,0,P|358:76|305:32,1,140,0|8,0:0|0:0,0:0:0:0:
207,32,21482,2,0,P|154:75|149:143,1,140,0|8,0:0|0:0,0:0:0:0:
256,140,21994,2,0,L|256:284,1,140,12|0,0:0|0:0,0:0:0:0:
60,272,22676,6,0,P|70:336|129:376,2,140,8|0|8,0:0|0:0|0:0,2:3:0:0:
156,284,23528,2,0,P|146:216|91:177,1,140
124,84,24039,1,8,0:0:0:0:
200,24,24210,1,0,0:0:0:0:
296,24,24380,2,0,L|384:56,1,70,0|0,0:0|0:0,2:0:0:0:
312,132,24721,2,8,L|224:100,1,70,8|0,0:0|0:0,2:0:0:0:
200,24,25062,6,0,P|152:88|160:156,1,140,4|8,0:0|0:0,0:0:0:0:
76,200,25573,2,0,P|140:242|220:216,1,140
199,232,26085,1,8,0:0:0:0:
220,36,26426,6,0,P|292:40|336:96,1,140,0|8,0:0|0:0,0:0:0:0:
246,130,26937,2,0,P|240:209|186:247,2,140,0|0|0,0:0|0:0|0:0,0:0:0:0:
246,130,27789,1,4,0:0:0:0:
76,228,28130,6,0,P|28:268|39:343,2,140,8|0|8,0:0|0:0|0:0,2:3:0:0:
172,248,28982,2,0,P|239:253|290:207,1,140
356,132,29493,1,8,0:0:0:0:
436,188,29664,1,0,0:0:0:0:
424,284,29834,2,0,L|360:314,1,70,0|0,0:0|0:0,2:0:0:0:
268,280,30176,2,0,L|332:250,1,70,8|0,0:0|0:0,2:0:0:0:
248,200,30516,6,0,P|195:242|191:310,1,140,4|8,0:0|0:0,0:0:0:0:
268,280,31028,2,0,P|320:237|324:169,1,140,4|0,0:0|0:0,0:0:0:0:
324,168,31539,1,12,0:0:0:0:
256,192,31880,12,4,33244,0:0:0:0:
400,200,33585,6,0,P|428:137|383:69,1,140,8|0,0:0|0:0,0:0:0:0:
299,78,34096,1,0,0:0:0:0:
299,78,34267,2,0,L|197:77,1,70,8|4,0:0|0:0,0:0:0:0:
68,188,34778,1,0,0:0:0:0:
68,188,34948,2,0,P|91:252|172:268,1,140,8|0,0:0|0:0,0:0:0:0:
252,280,35460,2,0,L|324:280,1,70,0|8,0:0|0:0,0:0:0:0:
392,208,35801,2,0,L|320:208,1,70,0|4,0:0|0:0,0:0:0:0:
96,136,36312,6,0,B|136:96|136:96|160:120|208:72,1,140,8|0,0:0|0:0,0:0:0:0:
304,72,36823,2,0,B|351:119|375:95|375:95|415:135,1,140,8|4,0:0|0:0,0:0:0:0:
368,224,37335,2,0,P|360:291|305:331,1,140,0|8,0:0|0:0,0:0:0:0:
136,224,38017,2,0,P|143:291|198:331,2,140,0|4|0,0:0|0:0|0:0,0:0:0:0:
232,240,38869,5,0,0:0:0:0:
232,240,39039,2,0,L|232:144,1,70,8|0,0:0|0:0,0:0:0:0:
248,72,39380,2,0,P|296:80|320:120,1,70,0|4,0:0|0:0,0:0:0:0:
360,176,39721,1,8,0:0:0:0:
352,276,39892,2,0,P|256:316|160:272,1,210,4|8,0:0|0:0,0:0:0:0:
96,136,40744,1,0,0:0:0:0:
256,24,41085,1,8,0:0:0:0:
416,136,41426,6,0,P|368:176|344:176,1,70,4|0,0:0|0:0,0:0:0:0:
304,256,41767,2,0,P|264:208|264:184,1,70,8|0,0:0|0:0,0:0:0:0:
232,112,42107,2,0,P|168:175|178:243,1,140,0|8,0:0|0:0,0:0:0:0:
256,192,42789,12,8,45176,0:0:0:0:
52,116,45517,6,0,P|90:59|160:42,1,140,4|8,0:0|0:0,0:0:0:0:
152,140,46028,1,0,0:0:0:0:
140,240,46198,2,0,P|218:215|248:151,1,140,0|8,0:0|0:0,0:0:0:0:
152,140,46710,2,4,L|240:284,1,140,4|0,0:0|0:0,0:0:0:0:
320,280,47221,2,0,P|282:340|216:359,2,140,8|0|8,0:0|0:0|0:0,0:0:0:0:
192,128,48244,6,0,P|155:75|209:15,1,140,0|8,0:3|0:0,2:0:0:0:
272,72,48755,2,0,P|308:124|254:184,1,140,0|0,0:3|0:0,2:0:0:0:
200,248,49267,1,8,0:0:0:0:
128,184,49437,2,0,L|95:150,2,35,0|0|0,0:0|0:0|0:0,0:0:0:0:
200,248,49778,2,0,L|137:298,1,70,8|8,0:0|0:0,0:0:0:0:
216,384,50119,2,0,L|278:333,1,70
352,264,50460,2,0,L|301:202,1,70,0|8,0:0|0:0,0:0:0:0:
244,136,50801,1,0,0:0:0:0:
326,83,50971,6,0,P|341:149|309:209,1,140,0|8,0:0|0:0,0:0:0:0:
220,252,51482,1,0,0:0:0:0:
236,156,51653,2,0,P|168:168|124:236,1,140,0|8,0:0|0:0,0:0:0:0:
220,252,52164,2,0,L|132:108,1,140,4|0,0:0|0:0,0:0:0:0:
50,104,52676,2,0,P|89:47|156:32,2,140
8,192,53528,5,0,0:0:0:0:
8,192,53698,2,0,P|45:257|68:265,1,70,4|0,0:0|0:0,0:0:0:0:
52,348,54039,2,0,P|117:311|125:288,1,70,8|0,0:0|0:0,0:0:0:0:
208,292,54380,2,0,P|170:227|147:218,1,70
188,136,54721,2,0,P|253:173|261:196,1,70,8|0,0:0|0:0,0:0:0:0:
316,236,55062,5,4,0:0:0:0:
316,236,55232,1,0,0:0:0:0:
384,304,55403,1,8,0:0:0:0:
384,304,55573,1,0,0:0:0:0:
468,256,55744,2,0,L|509:303,4,35,8|0|8|0|8,0:0|0:0|0:0|0:0|0:0,0:0:0:0:
460,116,56426,6,0,P|421:59|354:45,1,140,4|8,0:0|0:0,0:0:0:0:
360,144,56937,1,0,0:0:0:0:
372,240,57107,2,0,P|293:215|264:150,1,140,0|8,0:0|0:0,0:0:0:0:
360,144,57619,2,0,L|272:288,1,140,4|0,0:0|0:0,0:0:0:0:
192,272,58130,2,0,P|224:336|288:360,2,140,8|0|8,0:0|0:0|0:0,0:0:0:0:
320,128,59153,6,0,P|357:75|303:15,1,140,0|8,0:3|0:0,2:0:0:0:
240,72,59664,2,0,P|204:124|258:184,1,140,0|0,0:3|0:0,2:0:0:0:
312,248,60176,1,0,0:0:0:0:
409,255,60346,2,0,P|385:325|300:341,1,140,4|0,0:0|0:0,0:0:0:0:
229,345,60857,2,0,L|196:282,1,70,8|0,0:0|0:0,0:0:0:0:
257,205,61198,2,0,L|289:268,1,70,0|0,0:0|0:0,0:0:0:0:
196,283,61539,1,8,0:0:0:0:
120,220,61710,1,0,0:0:0:0:
72,132,61880,6,4,P|97:67|189:34,1,140,4|8,0:0|0:0,0:0:0:0:
256,36,62392,1,0,0:0:0:0:
353,34,62562,2,0,P|412:67|437:131,1,140,0|8,0:0|0:0,0:0:0:0:
376,212,63073,1,0,0:0:0:0:
304,144,63244,6,0,L|242:88,1,70,4|0,0:0|0:0,0:0:0:0:
184,168,63585,2,0,L|128:230,1,70,8|0,0:0|0:0,0:0:0:0:
212,284,63926,2,0,L|274:340,1,70
332,260,64267,2,0,L|388:198,1,70,8|0,0:0|0:0,0:0:0:0:
256,192,64607,12,4,66653,0:0:0:0:
312,64,67335,6,0,P|256:40|192:76,1,125.999996154785,4|0,0:0|0:0,0:0:0:0:
136,140,67846,1,8,0:0:0:0:
136,140,68016,2,8,L|204:208,1,70
256,256,68357,1,0,0:0:0:0:
170,302,68528,1,0,0:0:0:0:
78,271,68698,6,0,B|103:214|157:206|157:206|193:183,1,140,8|0,0:0|0:0,0:0:0:0:
256,120,69210,1,0,0:0:0:0:
326,188,69380,2,0,B|354:206|354:206|408:214|434:271,1,140,8|0,0:0|0:0,0:0:0:0:
200,312,70062,6,0,P|256:336|320:308,1,125.999996154785,4|0,0:0|0:0,0:0:0:0:
376,237,70573,1,8,0:0:0:0:
376,237,70743,2,0,L|308:170,1,70,8|0,0:0|0:0,0:0:0:0:
256,120,71084,1,0,0:0:0:0:
341,74,71255,1,0,0:0:0:0:
432,108,71426,6,0,B|417:161|357:168|357:168|322:191,1,140,8|0,0:0|0:0,0:0:0:0:
256,260,71937,1,0,0:0:0:0:
184,192,72107,2,0,B|156:174|156:174|102:166|76:109,1,140,8|0,0:0|0:0,0:0:0:0:
172,76,72619,1,0,0:0:0:0:
236,8,72789,6,0,P|281:70|243:133,1,154.000004699707,4|0,0:0|0:0,0:0:0:0:
168,208,73300,1,8,0:0:0:0:
168,208,73386,1,8,0:0:0:0:
168,208,73471,2,8,P|213:272|306:269,1,154.000004699707,12|8,0:0|0:0,0:0:0:0:
384,236,73982,5,8,0:0:0:0:
398,229,74067,1,8,0:0:0:0:
412,221,74153,2,4,B|399:159|348:140|348:140|318:106,1,154.000004699707,4|0,0:0|0:0,0:0:0:0:
256,192,74664,1,0,0:0:0:0:
189,106,74835,2,4,B|159:140|159:140|108:159|94:220,1,154.000004699707,4|0,0:0|0:0,0:0:0:0:
256,192,75346,12,4,78244,0:0:0:0:
