osu file format v14

[General]
AudioFilename: tumblr_m59zj8gipz1qiu7lqo1.mp3
AudioLeadIn: 1500
PreviewTime: 45346
Countdown: 0
SampleSet: None
StackLeniency: 0.7
Mode: 0
LetterboxInBreaks: 0
WidescreenStoryboard: 0

[Editor]
Bookmarks: 33416,62478
DistanceSpacing: 1
BeatDivisor: 4
GridSize: 4
TimelineZoom: 1

[Metadata]
Title:Hunting For Your Dream (TV Size)
TitleUnicode:Hunting For Your Dream (TV Size)
Artist:Galneryus
ArtistUnicode:Galneryus
Creator:Boncho
Version:Easy
Source:HUNTER X HUNTER
Tags:Gon Freecss Killua Zoldyck Kurapika Leorio ParadinightGon Freecss Killua Zoldyck Kurapika Leorio Paradinight hxh ハンター×ハンター ending
BeatmapID:1561544
BeatmapSetID:143064

[Difficulty]
HPDrainRate:2
CircleSize:3
OverallDifficulty:2
ApproachRate:3
SliderMultiplier:0.7
SliderTickRate:1

[Events]
//Background and Video events
0,0,"bg.jpg",0,0
Video,11150,"Hunter X Hunter 2011 [Ending 2] [Creditless]_h263p_001.avi"
//Break Periods
//Storyboard Layer 0 (Background)
//Storyboard Layer 1 (Fail)
//Storyboard Layer 2 (Pass)
//Storyboard Layer 3 (Foreground)
//Storyboard Sound Samples

[TimingPoints]
525,340.909090909091,4,2,1,75,1,0
45525,-100,4,2,1,75,0,1
66661,-100,4,2,1,85,0,0

[Colours]
Combo1 : 0,157,0
Combo2 : 162,38,41
Combo3 : 38,30,145
Combo4 : 232,180,0

[HitObjects]
396,232,525,6,0,P|396:296|332:352,2,140,4|0|4,0:0|0:0|0:0,0:0:0:0:
256,220,2570,1,0,0:0:0:0:
136,168,3252,2,0,P|136:104|200:48,2,140,4|0|4,0:0|0:0|0:0,0:0:0:0:
256,220,5297,1,0,0:0:0:0:
376,148,5979,6,0,P|327:99|326:31,1,140,4|4,0:0|0:0,0:0:0:0:
184,32,7343,2,0,P|182:100|134:148,1,140,4|4,0:0|0:0,0:0:0:0:
256,192,8706,12,0,11093,0:0:0:0:
168,16,11775,6,0,P|125:93|176:200,1,210,4|8,0:0|0:0,0:0:0:0:
280,108,13479,1,8,0:0:0:0:
412,152,14161,2,0,P|428:104|408:56,2,105,0|8|0,0:0|0:0|0:0,0:0:0:0:
372,212,15525,2,8,P|328:268|256:284,1,140,0|8,0:0|0:0,0:0:0:0:
248,144,16888,5,4,0:0:0:0:
180,152,17229,2,0,P|120:232|140:344,1,210,0|8,0:0|0:0,0:0:0:0:
256,268,18933,1,8,0:0:0:0:
384,216,19615,2,0,P|350:167|296:140,2,105,8|0|8,0:0|0:0|0:0,0:0:0:0:
384,286,20979,2,0,P|345:338|272:364,1,140,0|8,0:0|0:0,0:0:0:0:
256,224,22343,5,0,0:0:0:0:
196,256,22684,2,8,P|112:208|84:96,1,210,8|8,0:0|0:0,0:0:0:0:
220,124,24388,1,8,0:0:0:0:
348,180,25070,2,0,P|356:86|284:3,2,210,0|8|0,0:0|0:0|0:0,0:0:0:0:
220,120,27797,6,0,P|152:132|96:192,2,140,0|0|0,0:0|0:0|0:0,0:0:0:0:
216,260,29842,1,8,0:0:0:0:
348,300,30524,2,0,P|360:252|340:200,1,105,12|0,0:0|0:0,0:0:0:0:
268,128,31547,1,0,0:0:0:0:
208,96,31888,2,8,P|120:152|160:240,1,210,8|0,0:0|0:0,0:0:0:0:
212,276,33252,5,4,0:0:0:0:
352,276,33934,2,0,P|432:332|472:324,2,140
232,208,35979,2,4,L|120:104,1,140
68,28,37172,2,0,B|116:8|172:4|232:80,1,175,0|0,0:0|0:0,0:0:0:0:
256,208,38706,5,4,0:0:0:0:
360,300,39388,2,4,P|392:204|348:108,1,210
300,60,40752,1,0,0:0:0:0:
256,192,41434,12,0,44161,0:0:0:0:
120,200,45525,6,12,P|114:307|227:296,1,245
304,232,47229,2,8,L|247:171,2,70
364,192,48252,2,12,P|356:92|256:100,1,210,12|12,0:0|0:0,0:0:0:0:
196,120,49615,2,8,L|148:64,1,70
88,104,50297,2,0,L|28:144,1,70
36,212,50979,6,12,P|68:312|196:296,1,245
240,212,52683,2,8,P|263:179|293:163,2,70,4|4|4,0:0|0:0|0:0,2:0:0:0:
272,276,53706,2,8,P|367:346|440:301,1,210
452,240,55070,2,0,L|396:184,1,70,0|4,0:0|0:0,0:0:0:0:
404,120,55752,2,0,L|460:64,2,70
332,120,56775,6,0,P|184:75|184:128,1,280,12|4,0:0|0:0,0:0:0:0:
184,188,58479,2,8,L|184:268,1,70
184,328,59161,2,8,P|138:351|94:327,2,105,8|8|8,0:0|0:0|0:0,0:0:0:0:
240,284,60525,2,0,P|289:207|287:159,1,140
340,116,61547,1,8,0:0:0:0:
408,128,61888,6,0,P|458:178|445:249,1,140,4|0,0:0|0:0,0:0:0:0:
392,284,62911,1,8,0:0:0:0:
340,236,63252,2,0,P|256:188|160:240,1,210,0|4,0:0|0:0,0:0:0:0:
256,192,64615,12,0,66661,0:0:0:0:
352,240,67343,6,0,P|368:301|444:339,2,140,4|0|4,0:0|0:0|0:0,0:0:0:0:
256,140,69388,1,0,0:0:0:0:
160,240,70070,2,0,P|140:305|81:338,2,140,4|0|4,0:0|0:0|0:0,0:0:0:0:
256,140,72115,1,0,0:0:0:0:
152,48,72797,6,0,P|104:76|60:152,1,140,4|4,0:0|0:0,0:0:0:0:
166,239,74161,2,0,P|214:211|258:135,1,140,4|4,0:0|0:0,0:0:0:0:
256,192,75525,12,4,78252,0:0:0:0:
