osu file format v14

[General]
AudioFilename: audio.mp3
AudioLeadIn: 0
PreviewTime: 48151
Countdown: 1
SampleSet: None
StackLeniency: 0.7
Mode: 1
LetterboxInBreaks: 0
WidescreenStoryboard: 0

[Editor]
Bookmarks: 157365,241718
DistanceSpacing: 3.7
BeatDivisor: 4
GridSize: 4
TimelineZoom: 2.5

[Metadata]
Title:Hunting For Your Dream
TitleUnicode:Hunting For Your Dream
Artist:Galneryus
ArtistUnicode:Galneryus
Creator:[TaikoTori]
Version:A Conjurers masterpiece
Source:
Tags:
BeatmapID:2105338
BeatmapSetID:1005948

[Difficulty]
HPDrainRate:5
CircleSize:5
OverallDifficulty:8
ApproachRate:5
SliderMultiplier:1.4
SliderTickRate:1

[Events]
//Background and Video events
0,0,"34491.jpg",0,0
//Break Periods
//Storyboard Layer 0 (Background)
//Storyboard Layer 1 (Fail)
//Storyboard Layer 2 (Pass)
//Storyboard Layer 3 (Foreground)
//Storyboard Sound Samples

[TimingPoints]
960.571428571429,337.078651685393,4,1,0,100,1,0
48151,-100,4,1,0,100,0,1
69724,-100,4,1,0,100,0,0
157365,-100,4,1,0,100,0,1
205820,-100,4,1,0,100,0,0
220061,337.078651685393,4,1,0,100,1,0
241718,-100,4,1,0,100,0,1
263207,-100,4,1,0,100,0,0

[HitObjects]
258,195,960,5,8,0:0:0:0:
258,195,1466,1,0,0:0:0:0:
258,195,1550,1,0,0:0:0:0:
258,195,1635,1,8,0:0:0:0:
258,195,1803,1,0,0:0:0:0:
258,195,1971,1,8,0:0:0:0:
258,195,2140,1,8,0:0:0:0:
258,195,2308,1,0,0:0:0:0:
258,195,2814,1,8,0:0:0:0:
258,195,2983,1,0,0:0:0:0:
258,195,3320,1,0,0:0:0:0:
258,195,3488,1,0,0:0:0:0:
258,195,3572,1,0,0:0:0:0:
258,195,3657,1,8,0:0:0:0:
258,195,4162,1,8,0:0:0:0:
258,195,4246,1,0,0:0:0:0:
258,195,4330,1,8,0:0:0:0:
258,195,4499,1,8,0:0:0:0:
258,195,4668,1,0,0:0:0:0:
258,195,4836,1,0,0:0:0:0:
258,195,4921,1,0,0:0:0:0:
258,195,5005,1,8,0:0:0:0:
258,195,5511,1,8,0:0:0:0:
258,195,5595,1,0,0:0:0:0:
258,195,5679,1,8,0:0:0:0:
258,195,6016,1,0,0:0:0:0:
258,195,6185,1,8,0:0:0:0:
258,195,6269,1,0,0:0:0:0:
258,195,6353,1,0,0:0:0:0:
258,195,6859,1,0,0:0:0:0:
258,195,6944,1,0,0:0:0:0:
258,195,7028,1,8,0:0:0:0:
258,195,7533,1,0,0:0:0:0:
258,195,7617,1,8,0:0:0:0:
258,195,7702,1,8,0:0:0:0:
258,195,8207,1,8,0:0:0:0:
258,195,8292,1,8,0:0:0:0:
258,195,8376,1,8,0:0:0:0:
258,195,8713,1,8,0:0:0:0:
258,195,8881,1,0,0:0:0:0:
258,195,9050,1,8,0:0:0:0:
258,195,9134,1,0,0:0:0:0:
258,195,9218,1,0,0:0:0:0:
258,195,9303,1,8,0:0:0:0:
258,195,9387,1,0,0:0:0:0:
258,195,9471,1,0,0:0:0:0:
258,195,9556,1,8,0:0:0:0:
258,195,9640,1,0,0:0:0:0:
258,195,9724,1,0,0:0:0:0:
258,195,9808,1,8,0:0:0:0:
258,195,9893,1,0,0:0:0:0:
258,195,9977,1,0,0:0:0:0:
258,195,10061,1,8,0:0:0:0:
258,195,10230,1,8,0:0:0:0:
258,195,10398,1,0,0:0:0:0:
258,195,10567,1,8,0:0:0:0:
258,195,10651,1,0,0:0:0:0:
258,195,10735,1,0,0:0:0:0:
258,195,10820,1,0,0:0:0:0:
258,195,10904,1,0,0:0:0:0:
258,195,10988,1,0,0:0:0:0:
258,195,11072,1,8,0:0:0:0:
258,195,11157,1,0,0:0:0:0:
258,195,11241,1,8,0:0:0:0:
258,195,11325,1,0,0:0:0:0:
258,195,11410,1,0,0:0:0:0:
258,195,11494,1,8,0:0:0:0:
258,195,11578,1,0,0:0:0:0:
258,195,11662,1,8,0:0:0:0:
258,195,11747,1,8,0:0:0:0:
258,195,11915,1,0,0:0:0:0:
258,195,11999,1,0,0:0:0:0:
258,195,12084,1,8,0:0:0:0:
258,195,12252,1,0,0:0:0:0:
258,195,12421,1,8,0:0:0:0:
258,195,12505,1,0,0:0:0:0:
258,195,12589,1,0,0:0:0:0:
258,195,12758,1,0,0:0:0:0:
258,195,12927,1,0,0:0:0:0:
258,195,13011,1,8,0:0:0:0:
258,195,13095,1,0,0:0:0:0:
258,195,13263,1,0,0:0:0:0:
258,195,13432,1,0,0:0:0:0:
258,195,13516,1,0,0:0:0:0:
258,195,13601,1,8,0:0:0:0:
258,195,13769,1,8,0:0:0:0:
258,195,13853,1,0,0:0:0:0:
258,195,13938,1,0,0:0:0:0:
258,195,14106,1,8,0:0:0:0:
258,195,14275,1,0,0:0:0:0:
258,195,14443,1,8,0:0:0:0:
258,195,14612,1,0,0:0:0:0:
258,195,14696,1,0,0:0:0:0:
258,195,14780,1,8,0:0:0:0:
258,195,14949,1,0,0:0:0:0:
258,195,15117,1,8,0:0:0:0:
258,195,15286,1,0,0:0:0:0:
258,195,15370,1,8,0:0:0:0:
258,195,15454,1,0,0:0:0:0:
258,195,15623,1,8,0:0:0:0:
258,195,15707,1,8,0:0:0:0:
258,195,15792,1,0,0:0:0:0:
258,195,15960,1,0,0:0:0:0:
258,195,16044,1,0,0:0:0:0:
258,195,16129,1,8,0:0:0:0:
258,195,16297,1,0,0:0:0:0:
258,195,16381,1,8,0:0:0:0:
258,195,16466,1,0,0:0:0:0:
258,195,16550,1,0,0:0:0:0:
258,195,16634,1,8,0:0:0:0:
258,195,16718,1,8,0:0:0:0:
258,195,16803,1,0,0:0:0:0:
258,195,16971,1,0,0:0:0:0:
258,195,17140,1,8,0:0:0:0:
258,195,17308,1,0,0:0:0:0:
258,195,17393,1,0,0:0:0:0:
258,195,17477,1,8,0:0:0:0:
258,195,17645,1,8,0:0:0:0:
258,195,17730,1,0,0:0:0:0:
258,195,17814,1,0,0:0:0:0:
258,195,17983,1,8,0:0:0:0:
258,195,18151,1,0,0:0:0:0:
258,195,18320,1,0,0:0:0:0:
258,195,18404,1,0,0:0:0:0:
258,195,18488,1,8,0:0:0:0:
258,195,18657,1,8,0:0:0:0:
258,195,18741,1,0,0:0:0:0:
258,195,18825,1,8,0:0:0:0:
258,195,18994,1,0,0:0:0:0:
258,195,19162,1,8,0:0:0:0:
258,195,19246,1,0,0:0:0:0:
258,195,19330,1,8,0:0:0:0:
258,195,19414,1,8,0:0:0:0:
258,195,19499,1,0,0:0:0:0:
258,195,19583,1,0,0:0:0:0:
258,195,19667,1,8,0:0:0:0:
258,195,19752,1,0,0:0:0:0:
258,195,19836,1,8,0:0:0:0:
258,195,20005,1,0,0:0:0:0:
258,195,20089,1,0,0:0:0:0:
258,195,20174,1,8,0:0:0:0:
258,195,20342,1,0,0:0:0:0:
258,195,20511,1,8,0:0:0:0:
258,195,20595,1,0,0:0:0:0:
258,195,20679,1,8,0:0:0:0:
258,195,20848,1,0,0:0:0:0:
258,195,21016,1,8,0:0:0:0:
258,195,21185,1,0,0:0:0:0:
258,195,21269,1,0,0:0:0:0:
258,195,21353,1,8,0:0:0:0:
258,195,21522,1,0,0:0:0:0:
258,195,21690,1,8,0:0:0:0:
258,195,21775,1,0,0:0:0:0:
258,195,21859,1,0,0:0:0:0:
258,195,21943,1,0,0:0:0:0:
258,195,22027,1,8,0:0:0:0:
258,195,22112,1,0,0:0:0:0:
258,195,22196,1,8,0:0:0:0:
258,195,22365,1,0,0:0:0:0:
258,195,22533,1,8,0:0:0:0:
258,195,22617,1,0,0:0:0:0:
258,195,22702,1,0,0:0:0:0:
258,195,22870,1,0,0:0:0:0:
258,195,23039,1,0,0:0:0:0:
258,195,23123,1,8,0:0:0:0:
258,195,23207,1,0,0:0:0:0:
258,195,23376,1,8,0:0:0:0:
258,195,23460,1,8,0:0:0:0:
258,195,23544,1,0,0:0:0:0:
258,195,23713,1,0,0:0:0:0:
258,195,23797,1,0,0:0:0:0:
258,195,23881,1,8,0:0:0:0:
258,195,23966,1,0,0:0:0:0:
258,195,24050,1,0,0:0:0:0:
258,195,24134,1,8,0:0:0:0:
258,195,24218,1,0,0:0:0:0:
258,195,24303,1,0,0:0:0:0:
258,195,24387,1,8,0:0:0:0:
258,195,24471,1,0,0:0:0:0:
258,195,24556,1,8,0:0:0:0:
258,195,24640,1,0,0:0:0:0:
258,195,24724,1,0,0:0:0:0:
258,195,24808,1,0,0:0:0:0:
258,195,24893,1,8,0:0:0:0:
258,195,25061,1,0,0:0:0:0:
258,195,25145,1,0,0:0:0:0:
258,195,25230,1,8,0:0:0:0:
258,195,25398,1,0,0:0:0:0:
258,195,25567,1,8,0:0:0:0:
258,195,25651,1,0,0:0:0:0:
258,195,25735,1,0,0:0:0:0:
258,195,25904,1,8,0:0:0:0:
258,195,26072,1,0,0:0:0:0:
258,195,26157,1,0,0:0:0:0:
258,195,26241,1,8,0:0:0:0:
258,195,26410,1,8,0:0:0:0:
258,195,26578,1,0,0:0:0:0:
258,195,26662,1,0,0:0:0:0:
258,195,26747,1,8,0:0:0:0:
258,195,26915,1,0,0:0:0:0:
258,195,27084,1,0,0:0:0:0:
258,195,27168,1,0,0:0:0:0:
258,195,27252,1,8,0:0:0:0:
258,195,27336,1,0,0:0:0:0:
258,195,27421,1,0,0:0:0:0:
258,195,27505,1,8,0:0:0:0:
258,195,27589,1,8,0:0:0:0:
258,195,27758,1,0,0:0:0:0:
258,195,27926,1,8,0:0:0:0:
258,195,28011,1,0,0:0:0:0:
258,195,28095,1,0,0:0:0:0:
258,195,28263,1,8,0:0:0:0:
258,195,28348,1,0,0:0:0:0:
258,195,28432,1,8,0:0:0:0:
258,195,28601,1,8,0:0:0:0:
258,195,28685,1,8,0:0:0:0:
258,195,28769,1,8,0:0:0:0:
258,195,28938,1,8,0:0:0:0:
258,195,29022,1,0,0:0:0:0:
258,195,29106,1,0,0:0:0:0:
258,195,29275,1,0,0:0:0:0:
258,195,29359,1,0,0:0:0:0:
258,195,29443,1,8,0:0:0:0:
258,195,29527,1,0,0:0:0:0:
258,195,29612,1,8,0:0:0:0:
258,195,29696,1,8,0:0:0:0:
258,195,29780,1,0,0:0:0:0:
258,195,29865,1,0,0:0:0:0:
258,195,29949,1,8,0:0:0:0:
258,195,30117,1,0,0:0:0:0:
258,195,30202,1,0,0:0:0:0:
258,195,30286,1,8,0:0:0:0:
258,195,30454,1,0,0:0:0:0:
258,195,30623,1,8,0:0:0:0:
258,195,30792,1,8,0:0:0:0:
258,195,30876,1,0,0:0:0:0:
258,195,30960,1,0,0:0:0:0:
258,195,31129,1,0,0:0:0:0:
258,195,31213,1,0,0:0:0:0:
258,195,31297,1,8,0:0:0:0:
258,195,31466,1,0,0:0:0:0:
258,195,31634,1,8,0:0:0:0:
258,195,31718,1,0,0:0:0:0:
258,195,31803,1,8,0:0:0:0:
258,195,31971,1,0,0:0:0:0:
258,195,32140,1,8,0:0:0:0:
258,195,32224,1,0,0:0:0:0:
258,195,32308,1,0,0:0:0:0:
258,195,32477,1,0,0:0:0:0:
258,195,32561,1,0,0:0:0:0:
258,195,32645,1,8,0:0:0:0:
258,195,32814,1,0,0:0:0:0:
258,195,32898,1,0,0:0:0:0:
258,195,32983,1,8,0:0:0:0:
258,195,33151,1,0,0:0:0:0:
258,195,33320,1,8,0:0:0:0:
258,195,33404,5,0,0:0:0:0:
258,195,33488,1,0,0:0:0:0:
258,195,33572,1,0,0:0:0:0:
258,195,33657,1,0,0:0:0:0:
258,195,33741,1,0,0:0:0:0:
258,195,33825,1,8,0:0:0:0:
258,195,33994,1,0,0:0:0:0:
258,195,34078,1,8,0:0:0:0:
258,195,34162,1,0,0:0:0:0:
258,195,34331,1,8,0:0:0:0:
258,195,34415,1,0,0:0:0:0:
258,195,34499,1,0,0:0:0:0:
258,195,34668,5,8,0:0:0:0:
258,195,34752,1,0,0:0:0:0:
258,195,34836,1,0,0:0:0:0:
258,195,34921,1,0,0:0:0:0:
258,195,35005,1,8,0:0:0:0:
258,195,35089,1,0,0:0:0:0:
258,195,35174,1,0,0:0:0:0:
258,195,35258,1,0,0:0:0:0:
258,195,35342,1,8,0:0:0:0:
258,195,35426,1,8,0:0:0:0:
258,195,35511,1,0,0:0:0:0:
258,195,35595,1,0,0:0:0:0:
258,195,35679,1,8,0:0:0:0:
258,195,35763,1,0,0:0:0:0:
258,195,35848,1,8,0:0:0:0:
258,195,35932,1,8,0:0:0:0:
258,195,36016,1,8,0:0:0:0:
258,195,36185,1,0,0:0:0:0:
258,195,36353,1,0,0:0:0:0:
258,195,36438,1,0,0:0:0:0:
258,195,36522,1,8,0:0:0:0:
258,195,36690,1,8,0:0:0:0:
258,195,36775,1,0,0:0:0:0:
258,195,36859,1,8,0:0:0:0:
258,195,36943,1,0,0:0:0:0:
258,195,37027,1,0,0:0:0:0:
258,195,37112,1,0,0:0:0:0:
258,195,37196,1,8,0:0:0:0:
258,195,37365,1,0,0:0:0:0:
258,195,37533,1,8,0:0:0:0:
258,195,37617,1,0,0:0:0:0:
258,195,37702,1,8,0:0:0:0:
258,195,37870,1,0,0:0:0:0:
258,195,37954,1,0,0:0:0:0:
258,195,38039,1,8,0:0:0:0:
258,195,38123,1,8,0:0:0:0:
258,195,38207,1,0,0:0:0:0:
258,195,38292,1,0,0:0:0:0:
258,195,38376,1,8,0:0:0:0:
258,195,38544,1,0,0:0:0:0:
258,195,38713,1,8,0:0:0:0:
258,195,38797,1,0,0:0:0:0:
258,195,38881,1,8,0:0:0:0:
258,195,39050,1,8,0:0:0:0:
258,195,39218,1,8,0:0:0:0:
258,195,39303,1,0,0:0:0:0:
258,195,39387,1,0,0:0:0:0:
258,195,39556,1,0,0:0:0:0:
258,195,39640,1,8,0:0:0:0:
258,195,39724,1,0,0:0:0:0:
258,195,39893,1,8,0:0:0:0:
258,195,40061,1,0,0:0:0:0:
258,195,40145,1,0,0:0:0:0:
258,195,40230,1,8,0:0:0:0:
258,195,40398,1,0,0:0:0:0:
258,195,40567,1,0,0:0:0:0:
258,195,40651,1,8,0:0:0:0:
258,195,40735,1,0,0:0:0:0:
258,195,40820,1,0,0:0:0:0:
258,195,40904,1,8,0:0:0:0:
258,195,40988,1,8,0:0:0:0:
258,195,41072,1,0,0:0:0:0:
258,195,41241,1,8,0:0:0:0:
258,195,41325,1,0,0:0:0:0:
258,195,41410,1,8,0:0:0:0:
258,195,41578,1,0,0:0:0:0:
258,195,41747,1,8,0:0:0:0:
258,195,41831,1,0,0:0:0:0:
258,195,41915,1,0,0:0:0:0:
258,195,41999,1,0,0:0:0:0:
258,195,42084,1,8,0:0:0:0:
258,195,42168,1,0,0:0:0:0:
258,195,42252,1,8,0:0:0:0:
258,195,42420,1,0,0:0:0:0:
258,195,42505,5,0,0:0:0:0:
258,195,42589,1,8,0:0:0:0:
258,195,42758,1,0,0:0:0:0:
258,195,42926,1,8,0:0:0:0:
258,195,43011,1,0,0:0:0:0:
258,195,43095,1,0,0:0:0:0:
258,195,43263,1,0,0:0:0:0:
258,195,43348,1,0,0:0:0:0:
258,195,43432,1,8,0:0:0:0:
258,195,43601,1,0,0:0:0:0:
258,195,43769,1,8,0:0:0:0:
258,195,43938,1,0,0:0:0:0:
258,195,44022,1,0,0:0:0:0:
258,195,44106,1,8,0:0:0:0:
258,195,44190,1,0,0:0:0:0:
258,195,44275,1,8,0:0:0:0:
258,195,44359,1,0,0:0:0:0:
258,195,44443,1,0,0:0:0:0:
258,195,44612,1,8,0:0:0:0:
258,195,44780,1,0,0:0:0:0:
258,195,44865,1,0,0:0:0:0:
258,195,44949,1,0,0:0:0:0:
258,195,45117,1,8,0:0:0:0:
258,195,45202,1,0,0:0:0:0:
258,195,45286,1,8,0:0:0:0:
258,195,45454,1,8,0:0:0:0:
258,195,45539,1,0,0:0:0:0:
258,195,45623,1,0,0:0:0:0:
258,195,45792,1,0,0:0:0:0:
258,195,45960,1,0,0:0:0:0:
258,195,46044,1,0,0:0:0:0:
258,195,46129,1,8,0:0:0:0:
258,195,46297,1,0,0:0:0:0:
258,195,46466,1,0,0:0:0:0:
258,195,46550,1,8,0:0:0:0:
258,195,46634,1,0,0:0:0:0:
258,195,46803,5,8,0:0:0:0:
258,195,46887,1,0,0:0:0:0:
258,195,46971,1,0,0:0:0:0:
258,195,47056,1,0,0:0:0:0:
258,195,47140,1,0,0:0:0:0:
258,195,47224,1,0,0:0:0:0:
258,195,47308,1,8,0:0:0:0:
258,195,47393,1,0,0:0:0:0:
258,195,47477,1,0,0:0:0:0:
258,195,47561,1,0,0:0:0:0:
258,195,47645,1,0,0:0:0:0:
258,195,47730,1,0,0:0:0:0:
258,195,47814,1,8,0:0:0:0:
258,195,47926,1,0,0:0:0:0:
258,195,48039,1,0,0:0:0:0:
258,195,48151,1,8,0:0:0:0:
258,195,48320,1,0,0:0:0:0:
258,195,48404,1,8,0:0:0:0:
258,195,48488,1,0,0:0:0:0:
258,195,48657,1,0,0:0:0:0:
258,195,48741,1,0,0:0:0:0:
258,195,48825,1,8,0:0:0:0:
258,195,48994,1,0,0:0:0:0:
258,195,49162,1,8,0:0:0:0:
258,195,49331,1,0,0:0:0:0:
258,195,49415,1,8,0:0:0:0:
258,195,49499,1,8,0:0:0:0:
258,195,49584,1,0,0:0:0:0:
258,195,49668,1,8,0:0:0:0:
258,195,49836,1,0,0:0:0:0:
258,195,49921,1,8,0:0:0:0:
258,195,50005,1,0,0:0:0:0:
258,195,50174,1,8,0:0:0:0:
258,195,50258,1,8,0:0:0:0:
258,195,50342,1,0,0:0:0:0:
258,195,50427,1,0,0:0:0:0:
258,195,50511,1,8,0:0:0:0:
258,195,50679,1,0,0:0:0:0:
258,195,50848,1,8,0:0:0:0:
258,195,50932,1,0,0:0:0:0:
258,195,51016,1,8,0:0:0:0:
258,195,51101,1,0,0:0:0:0:
258,195,51185,1,8,0:0:0:0:
258,195,51269,1,8,0:0:0:0:
258,195,51353,1,0,0:0:0:0:
258,195,51438,1,0,0:0:0:0:
258,195,51522,1,8,0:0:0:0:
258,195,51606,1,0,0:0:0:0:
258,195,51690,1,0,0:0:0:0:
258,195,51859,1,8,0:0:0:0:
258,195,52027,1,8,0:0:0:0:
258,195,52112,1,0,0:0:0:0:
258,195,52196,1,0,0:0:0:0:
258,195,52365,1,8,0:0:0:0:
258,195,52449,1,0,0:0:0:0:
258,195,52533,1,8,0:0:0:0:
258,195,52702,1,0,0:0:0:0:
258,195,52786,1,0,0:0:0:0:
258,195,52870,1,8,0:0:0:0:
258,195,52954,1,8,0:0:0:0:
258,195,53039,1,0,0:0:0:0:
258,195,53123,1,0,0:0:0:0:
258,195,53207,1,8,0:0:0:0:
258,195,53376,1,0,0:0:0:0:
258,195,53544,1,8,0:0:0:0:
258,195,53629,1,0,0:0:0:0:
258,195,53713,1,0,0:0:0:0:
258,195,53881,1,8,0:0:0:0:
258,195,54050,1,0,0:0:0:0:
258,195,54134,1,8,0:0:0:0:
258,195,54219,1,8,0:0:0:0:
258,195,54387,1,0,0:0:0:0:
258,195,54556,1,8,0:0:0:0:
258,195,54724,1,0,0:0:0:0:
258,195,54808,1,0,0:0:0:0:
258,195,54893,1,8,0:0:0:0:
258,195,54977,1,8,0:0:0:0:
258,195,55061,1,0,0:0:0:0:
258,195,55145,1,0,0:0:0:0:
258,195,55230,1,8,0:0:0:0:
258,195,55398,1,8,0:0:0:0:
258,195,55483,1,0,0:0:0:0:
258,195,55567,1,8,0:0:0:0:
258,195,55735,1,0,0:0:0:0:
258,195,55904,1,8,0:0:0:0:
258,195,55988,1,0,0:0:0:0:
258,195,56072,1,0,0:0:0:0:
258,195,56241,1,8,0:0:0:0:
258,195,56325,1,0,0:0:0:0:
258,195,56410,1,0,0:0:0:0:
258,195,56494,1,8,0:0:0:0:
258,195,56578,1,0,0:0:0:0:
258,195,56662,1,0,0:0:0:0:
258,195,56747,1,0,0:0:0:0:
258,195,56831,1,8,0:0:0:0:
258,195,56915,1,8,0:0:0:0:
258,195,57084,1,0,0:0:0:0:
258,195,57168,1,8,0:0:0:0:
258,195,57252,1,0,0:0:0:0:
258,195,57421,1,0,0:0:0:0:
258,195,57505,1,8,0:0:0:0:
258,195,57589,1,8,0:0:0:0:
258,195,57674,1,8,0:0:0:0:
258,195,57758,1,0,0:0:0:0:
258,195,57842,1,0,0:0:0:0:
258,195,57926,1,8,0:0:0:0:
258,195,58011,1,8,0:0:0:0:
258,195,58095,1,0,0:0:0:0:
258,195,58179,1,0,0:0:0:0:
258,195,58263,1,8,0:0:0:0:
258,195,58348,1,0,0:0:0:0:
258,195,58432,1,0,0:0:0:0:
258,195,58516,1,0,0:0:0:0:
258,195,58601,1,8,0:0:0:0:
258,195,58685,1,0,0:0:0:0:
258,195,58769,1,0,0:0:0:0:
258,195,58853,1,0,0:0:0:0:
258,195,58938,1,8,0:0:0:0:
258,195,59106,1,0,0:0:0:0:
258,195,59190,1,8,0:0:0:0:
258,195,59274,1,8,0:0:0:0:
258,195,59443,1,0,0:0:0:0:
258,195,59527,1,0,0:0:0:0:
258,195,59611,1,8,0:0:0:0:
258,195,59780,1,0,0:0:0:0:
258,195,59948,1,8,0:0:0:0:
258,195,60117,1,0,0:0:0:0:
258,195,60201,1,8,0:0:0:0:
258,195,60285,1,8,0:0:0:0:
258,195,60370,1,0,0:0:0:0:
258,195,60454,1,8,0:0:0:0:
258,195,60622,1,0,0:0:0:0:
258,195,60707,1,8,0:0:0:0:
258,195,60791,1,0,0:0:0:0:
258,195,60960,1,8,0:0:0:0:
258,195,61044,1,0,0:0:0:0:
258,195,61128,1,0,0:0:0:0:
258,195,61213,1,8,0:0:0:0:
258,195,61297,1,8,0:0:0:0:
258,195,61465,1,0,0:0:0:0:
258,195,61634,1,0,0:0:0:0:
258,195,61718,1,0,0:0:0:0:
258,195,61802,1,8,0:0:0:0:
258,195,61887,1,0,0:0:0:0:
258,195,61971,1,8,0:0:0:0:
258,195,62055,1,8,0:0:0:0:
258,195,62139,1,0,0:0:0:0:
258,195,62224,1,8,0:0:0:0:
258,195,62308,1,8,0:0:0:0:
258,195,62392,1,0,0:0:0:0:
258,195,62476,1,8,0:0:0:0:
258,195,62645,1,8,0:0:0:0:
258,195,62813,1,8,0:0:0:0:
258,195,62898,1,0,0:0:0:0:
258,195,62982,1,0,0:0:0:0:
258,195,63151,1,0,0:0:0:0:
258,195,63235,1,0,0:0:0:0:
258,195,63319,1,8,0:0:0:0:
258,195,63488,1,8,0:0:0:0:
258,195,63572,1,0,0:0:0:0:
258,195,63656,1,8,0:0:0:0:
258,195,63740,1,0,0:0:0:0:
258,195,63825,1,0,0:0:0:0:
258,195,63909,1,8,0:0:0:0:
258,195,63993,1,8,0:0:0:0:
258,195,64162,1,0,0:0:0:0:
258,195,64331,1,8,0:0:0:0:
258,195,64415,1,8,0:0:0:0:
258,195,64499,1,0,0:0:0:0:
258,195,64668,1,8,0:0:0:0:
258,195,64836,1,0,0:0:0:0:
258,195,64920,1,0,0:0:0:0:
258,195,65005,1,8,0:0:0:0:
258,195,65173,1,8,0:0:0:0:
258,195,65342,1,0,0:0:0:0:
258,195,65510,1,8,0:0:0:0:
258,195,65594,1,8,0:0:0:0:
258,195,65679,1,0,0:0:0:0:
258,195,65763,1,0,0:0:0:0:
258,195,65848,1,8,0:0:0:0:
258,195,65932,1,0,0:0:0:0:
258,195,66016,1,8,0:0:0:0:
258,195,66185,1,8,0:0:0:0:
258,195,66353,1,0,0:0:0:0:
258,195,66438,1,0,0:0:0:0:
258,195,66522,1,8,0:0:0:0:
258,195,66690,1,8,0:0:0:0:
258,195,66859,1,0,0:0:0:0:
258,195,67027,1,8,0:0:0:0:
258,195,67112,1,0,0:0:0:0:
258,195,67196,1,0,0:0:0:0:
258,195,67365,1,0,0:0:0:0:
258,195,67533,1,0,0:0:0:0:
258,195,67617,1,0,0:0:0:0:
258,195,67702,1,8,0:0:0:0:
258,195,67870,1,0,0:0:0:0:
258,195,68039,1,0,0:0:0:0:
258,195,68123,1,8,0:0:0:0:
258,195,68207,1,0,0:0:0:0:
258,195,68376,5,8,0:0:0:0:
258,195,68460,1,0,0:0:0:0:
258,195,68544,1,0,0:0:0:0:
258,195,68629,1,0,0:0:0:0:
258,195,68713,1,0,0:0:0:0:
258,195,68797,1,0,0:0:0:0:
258,195,68881,1,8,0:0:0:0:
258,195,68966,1,0,0:0:0:0:
258,195,69050,1,0,0:0:0:0:
258,195,69162,1,8,0:0:0:0:
258,195,69275,1,0,0:0:0:0:
258,195,69387,1,8,0:0:0:0:
258,195,69499,1,0,0:0:0:0:
258,195,69612,1,0,0:0:0:0:
258,195,69724,5,8,0:0:0:0:
258,195,70230,1,0,0:0:0:0:
258,195,70314,1,0,0:0:0:0:
258,195,70399,1,8,0:0:0:0:
258,195,70567,1,0,0:0:0:0:
258,195,70735,1,8,0:0:0:0:
258,195,70904,1,8,0:0:0:0:
258,195,71072,1,0,0:0:0:0:
258,195,71578,1,8,0:0:0:0:
258,195,71747,1,0,0:0:0:0:
258,195,72084,1,0,0:0:0:0:
258,195,72252,1,0,0:0:0:0:
258,195,72336,1,8,0:0:0:0:
258,195,72421,1,8,0:0:0:0:
258,195,72926,1,8,0:0:0:0:
258,195,73010,1,0,0:0:0:0:
258,195,73094,1,8,0:0:0:0:
258,195,73263,1,8,0:0:0:0:
258,195,73432,1,0,0:0:0:0:
258,195,73600,1,0,0:0:0:0:
258,195,73685,1,0,0:0:0:0:
258,195,73769,1,8,0:0:0:0:
258,195,74275,1,8,0:0:0:0:
258,195,74359,1,0,0:0:0:0:
258,195,74443,1,8,0:0:0:0:
258,195,74780,1,0,0:0:0:0:
258,195,74949,1,8,0:0:0:0:
258,195,75033,1,0,0:0:0:0:
258,195,75117,1,0,0:0:0:0:
258,195,75623,1,0,0:0:0:0:
258,195,75708,1,0,0:0:0:0:
258,195,75792,1,8,0:0:0:0:
258,195,76297,1,0,0:0:0:0:
258,195,76381,1,8,0:0:0:0:
258,195,76466,1,8,0:0:0:0:
258,195,76971,1,8,0:0:0:0:
258,195,77056,1,8,0:0:0:0:
258,195,77140,1,8,0:0:0:0:
258,195,77477,1,8,0:0:0:0:
258,195,77645,1,0,0:0:0:0:
258,195,77814,1,8,0:0:0:0:
258,195,77898,1,0,0:0:0:0:
258,195,77982,1,8,0:0:0:0:
258,195,78067,1,0,0:0:0:0:
258,195,78151,1,0,0:0:0:0:
258,195,78235,1,8,0:0:0:0:
258,195,78320,1,8,0:0:0:0:
258,195,78404,1,0,0:0:0:0:
258,195,78488,1,0,0:0:0:0:
258,195,78572,1,8,0:0:0:0:
258,195,78657,1,0,0:0:0:0:
258,195,78741,1,0,0:0:0:0:
258,195,78825,1,8,0:0:0:0:
258,195,78994,1,8,0:0:0:0:
258,195,79162,1,0,0:0:0:0:
258,195,79331,1,8,0:0:0:0:
258,195,79415,1,0,0:0:0:0:
258,195,79499,1,0,0:0:0:0:
258,195,79584,1,0,0:0:0:0:
258,195,79668,1,0,0:0:0:0:
258,195,79752,1,0,0:0:0:0:
258,195,79836,1,8,0:0:0:0:
258,195,79921,1,0,0:0:0:0:
258,195,80005,1,8,0:0:0:0:
258,195,80089,1,0,0:0:0:0:
258,195,80174,1,0,0:0:0:0:
258,195,80258,1,8,0:0:0:0:
258,195,80342,1,0,0:0:0:0:
258,195,80426,1,8,0:0:0:0:
258,195,80511,1,8,0:0:0:0:
258,195,80680,1,0,0:0:0:0:
258,195,80764,1,0,0:0:0:0:
258,195,80848,1,8,0:0:0:0:
258,195,81017,1,0,0:0:0:0:
258,195,81185,1,8,0:0:0:0:
258,195,81354,1,0,0:0:0:0:
258,195,81438,1,8,0:0:0:0:
258,195,81522,1,0,0:0:0:0:
258,195,81606,1,0,0:0:0:0:
258,195,81691,1,8,0:0:0:0:
258,195,81775,1,8,0:0:0:0:
258,195,81860,1,0,0:0:0:0:
258,195,82028,1,0,0:0:0:0:
258,195,82112,1,0,0:0:0:0:
258,195,82197,1,8,0:0:0:0:
258,195,82365,1,0,0:0:0:0:
258,195,82449,1,8,0:0:0:0:
258,195,82534,1,0,0:0:0:0:
258,195,82618,1,0,0:0:0:0:
258,195,82702,1,8,0:0:0:0:
258,195,82786,1,8,0:0:0:0:
258,195,82871,1,0,0:0:0:0:
258,195,83039,1,0,0:0:0:0:
258,195,83208,1,8,0:0:0:0:
258,195,83376,1,0,0:0:0:0:
258,195,83461,1,0,0:0:0:0:
258,195,83545,1,8,0:0:0:0:
258,195,83713,1,8,0:0:0:0:
258,195,83798,1,8,0:0:0:0:
258,195,83882,1,0,0:0:0:0:
258,195,84051,1,8,0:0:0:0:
258,195,84219,1,0,0:0:0:0:
258,195,84388,1,0,0:0:0:0:
258,195,84472,1,0,0:0:0:0:
258,195,84556,1,8,0:0:0:0:
258,195,84725,1,8,0:0:0:0:
258,195,84809,1,0,0:0:0:0:
258,195,84893,1,8,0:0:0:0:
258,195,85062,1,0,0:0:0:0:
258,195,85230,1,8,0:0:0:0:
258,195,85314,1,0,0:0:0:0:
258,195,85398,1,8,0:0:0:0:
258,195,85482,1,0,0:0:0:0:
258,195,85567,1,0,0:0:0:0:
258,195,85651,1,8,0:0:0:0:
258,195,85735,1,8,0:0:0:0:
258,195,85820,1,0,0:0:0:0:
258,195,85904,1,8,0:0:0:0:
258,195,86073,1,0,0:0:0:0:
258,195,86157,1,0,0:0:0:0:
258,195,86242,1,8,0:0:0:0:
258,195,86410,1,0,0:0:0:0:
258,195,86579,1,8,0:0:0:0:
258,195,86663,1,0,0:0:0:0:
258,195,86747,1,8,0:0:0:0:
258,195,86916,1,0,0:0:0:0:
258,195,87084,1,8,0:0:0:0:
258,195,87253,1,0,0:0:0:0:
258,195,87337,1,8,0:0:0:0:
258,195,87421,1,0,0:0:0:0:
258,195,87590,1,0,0:0:0:0:
258,195,87758,1,8,0:0:0:0:
258,195,87843,1,8,0:0:0:0:
258,195,87927,1,0,0:0:0:0:
258,195,88011,1,8,0:0:0:0:
258,195,88095,1,0,0:0:0:0:
258,195,88180,1,0,0:0:0:0:
258,195,88264,1,8,0:0:0:0:
258,195,88433,1,0,0:0:0:0:
258,195,88601,1,8,0:0:0:0:
258,195,88685,1,0,0:0:0:0:
258,195,88770,1,0,0:0:0:0:
258,195,88938,1,0,0:0:0:0:
258,195,89107,1,0,0:0:0:0:
258,195,89191,1,8,0:0:0:0:
258,195,89275,1,0,0:0:0:0:
258,195,89444,1,8,0:0:0:0:
258,195,89528,1,8,0:0:0:0:
258,195,89612,1,0,0:0:0:0:
258,195,89781,1,0,0:0:0:0:
258,195,89865,1,0,0:0:0:0:
258,195,89949,1,8,0:0:0:0:
258,195,90034,1,0,0:0:0:0:
258,195,90118,1,0,0:0:0:0:
258,195,90202,1,0,0:0:0:0:
258,195,90286,1,8,0:0:0:0:
258,195,90371,1,0,0:0:0:0:
258,195,90455,1,8,0:0:0:0:
258,195,90539,1,0,0:0:0:0:
258,195,90624,1,8,0:0:0:0:
258,195,90708,1,8,0:0:0:0:
258,195,90792,1,0,0:0:0:0:
258,195,90876,1,0,0:0:0:0:
258,195,90961,1,8,0:0:0:0:
258,195,91129,1,8,0:0:0:0:
258,195,91213,1,0,0:0:0:0:
258,195,91298,1,0,0:0:0:0:
258,195,91466,1,8,0:0:0:0:
258,195,91635,1,4,0:0:0:0:
258,195,91972,1,8,0:0:0:0:
258,195,92140,1,0,0:0:0:0:
258,195,92225,1,0,0:0:0:0:
258,195,92309,1,8,0:0:0:0:
258,195,92478,1,8,0:0:0:0:
258,195,92646,1,0,0:0:0:0:
258,195,92730,1,0,0:0:0:0:
258,195,92815,1,8,0:0:0:0:
258,195,92983,1,8,0:0:0:0:
258,195,93067,1,8,0:0:0:0:
258,195,93151,1,0,0:0:0:0:
258,195,93235,1,0,0:0:0:0:
258,195,93320,1,8,0:0:0:0:
258,195,93404,1,0,0:0:0:0:
258,195,93489,1,8,0:0:0:0:
258,195,93573,1,0,0:0:0:0:
258,195,93657,1,0,0:0:0:0:
258,195,93826,1,0,0:0:0:0:
258,195,93994,1,8,0:0:0:0:
258,195,94079,1,0,0:0:0:0:
258,195,94163,1,0,0:0:0:0:
258,195,94331,1,8,0:0:0:0:
258,195,94416,1,0,0:0:0:0:
258,195,94500,1,8,0:0:0:0:
258,195,94669,1,0,0:0:0:0:
258,195,94753,1,0,0:0:0:0:
258,195,94837,1,8,0:0:0:0:
258,195,95006,1,8,0:0:0:0:
258,195,95090,1,0,0:0:0:0:
258,195,95174,1,0,0:0:0:0:
258,195,95343,1,0,0:0:0:0:
258,195,95427,1,8,0:0:0:0:
258,195,95511,1,8,0:0:0:0:
258,195,95595,1,0,0:0:0:0:
258,195,95680,1,0,0:0:0:0:
258,195,95764,1,8,0:0:0:0:
258,195,95848,1,0,0:0:0:0:
258,195,95933,1,8,0:0:0:0:
258,195,96017,1,8,0:0:0:0:
258,195,96185,1,0,0:0:0:0:
258,195,96270,1,0,0:0:0:0:
258,195,96354,1,8,0:0:0:0:
258,195,96522,1,0,0:0:0:0:
258,195,96691,1,8,0:0:0:0:
258,195,96860,1,8,0:0:0:0:
258,195,96944,1,0,0:0:0:0:
258,195,97028,1,0,0:0:0:0:
258,195,97197,1,0,0:0:0:0:
258,195,97281,1,0,0:0:0:0:
258,195,97365,1,8,0:0:0:0:
258,195,97534,1,0,0:0:0:0:
258,195,97702,1,8,0:0:0:0:
258,195,97786,1,0,0:0:0:0:
258,195,97871,1,8,0:0:0:0:
258,195,98039,1,0,0:0:0:0:
258,195,98208,1,8,0:0:0:0:
258,195,98292,1,0,0:0:0:0:
258,195,98376,1,0,0:0:0:0:
258,195,98545,1,0,0:0:0:0:
258,195,98629,1,0,0:0:0:0:
258,195,98713,1,8,0:0:0:0:
258,195,98882,1,0,0:0:0:0:
258,195,98966,1,0,0:0:0:0:
258,195,99051,1,8,0:0:0:0:
258,195,99219,1,0,0:0:0:0:
258,195,99388,1,8,0:0:0:0:
258,195,99472,5,0,0:0:0:0:
258,195,99556,1,0,0:0:0:0:
258,195,99640,1,8,0:0:0:0:
258,195,99725,1,0,0:0:0:0:
258,195,99808,1,0,0:0:0:0:
258,195,99893,1,8,0:0:0:0:
258,195,100062,1,0,0:0:0:0:
258,195,100146,1,8,0:0:0:0:
258,195,100230,1,0,0:0:0:0:
258,195,100399,1,8,0:0:0:0:
258,195,100483,1,0,0:0:0:0:
258,195,100567,1,0,0:0:0:0:
258,195,100735,1,8,0:0:0:0:
258,195,100820,1,8,0:0:0:0:
258,195,100904,1,0,0:0:0:0:
258,195,100988,1,0,0:0:0:0:
258,195,101072,1,8,0:0:0:0:
258,195,101157,1,8,0:0:0:0:
258,195,101241,1,0,0:0:0:0:
258,195,101325,1,0,0:0:0:0:
258,195,101410,1,8,0:0:0:0:
258,195,101494,1,8,0:0:0:0:
258,195,101578,1,8,0:0:0:0:
258,195,101662,1,0,0:0:0:0:
258,195,101747,1,0,0:0:0:0:
258,195,101831,1,8,0:0:0:0:
258,195,101915,1,8,0:0:0:0:
258,195,101999,1,0,0:0:0:0:
258,195,102084,1,0,0:0:0:0:
258,195,102252,1,8,0:0:0:0:
258,195,102336,1,8,0:0:0:0:
258,195,102421,1,0,0:0:0:0:
258,195,102589,1,8,0:0:0:0:
258,195,102758,1,0,0:0:0:0:
258,195,102842,1,8,0:0:0:0:
258,195,102926,1,8,0:0:0:0:
258,195,103011,1,0,0:0:0:0:
258,195,103095,1,8,0:0:0:0:
258,195,103263,1,0,0:0:0:0:
258,195,103432,1,8,0:0:0:0:
258,195,103516,1,8,0:0:0:0:
258,195,103601,1,0,0:0:0:0:
258,195,103769,1,0,0:0:0:0:
258,195,103938,1,0,0:0:0:0:
258,195,104022,1,0,0:0:0:0:
258,195,104106,1,8,0:0:0:0:
258,195,104275,1,8,0:0:0:0:
258,195,104443,1,0,0:0:0:0:
258,195,104527,1,0,0:0:0:0:
258,195,104612,1,8,0:0:0:0:
258,195,104780,1,0,0:0:0:0:
258,195,104949,1,8,0:0:0:0:
258,195,105033,1,8,0:0:0:0:
258,195,105117,1,0,0:0:0:0:
258,195,105286,1,8,0:0:0:0:
258,195,105454,1,0,0:0:0:0:
258,195,105623,1,8,0:0:0:0:
258,195,105707,1,0,0:0:0:0:
258,195,105791,1,0,0:0:0:0:
258,195,105960,1,8,0:0:0:0:
258,195,106044,1,8,0:0:0:0:
258,195,106129,1,0,0:0:0:0:
258,195,106213,1,0,0:0:0:0:
258,195,106297,1,8,0:0:0:0:
258,195,106466,1,8,0:0:0:0:
258,195,106550,1,0,0:0:0:0:
258,195,106634,1,0,0:0:0:0:
258,195,106718,1,8,0:0:0:0:
258,195,106803,1,0,0:0:0:0:
258,195,106971,1,0,0:0:0:0:
258,195,107056,1,0,0:0:0:0:
258,195,107140,1,8,0:0:0:0:
258,195,107308,1,0,0:0:0:0:
258,195,107393,1,8,0:0:0:0:
258,195,107477,1,0,0:0:0:0:
258,195,107645,1,8,0:0:0:0:
258,195,107814,1,8,0:0:0:0:
258,195,107898,1,0,0:0:0:0:
258,195,107983,1,0,0:0:0:0:
258,195,108067,1,8,0:0:0:0:
258,195,108151,1,0,0:0:0:0:
258,195,108320,1,0,0:0:0:0:
258,195,108404,1,0,0:0:0:0:
258,195,108489,1,8,0:0:0:0:
258,195,108657,1,0,0:0:0:0:
258,195,108825,1,0,0:0:0:0:
258,195,108910,1,8,0:0:0:0:
258,195,108994,1,0,0:0:0:0:
258,195,109162,1,0,0:0:0:0:
258,195,109331,1,8,0:0:0:0:
258,195,109499,1,0,0:0:0:0:
258,195,109584,1,8,0:0:0:0:
258,195,109668,1,8,0:0:0:0:
258,195,109752,1,0,0:0:0:0:
258,195,109836,1,8,0:0:0:0:
258,195,110005,1,0,0:0:0:0:
258,195,110089,1,0,0:0:0:0:
258,195,110174,5,8,0:0:0:0:
258,195,110342,1,0,0:0:0:0:
258,195,110426,1,8,0:0:0:0:
258,195,110511,1,8,0:0:0:0:
258,195,110679,1,0,0:0:0:0:
258,195,110763,1,0,0:0:0:0:
258,195,110848,1,8,0:0:0:0:
258,195,110932,1,8,0:0:0:0:
258,195,111016,1,0,0:0:0:0:
258,195,111101,1,8,0:0:0:0:
258,195,111185,1,0,0:0:0:0:
258,195,111353,1,8,0:0:0:0:
258,195,111522,5,0,0:0:0:0:
258,195,111606,1,0,0:0:0:0:
258,195,111690,1,8,0:0:0:0:
258,195,111775,1,0,0:0:0:0:
258,195,111859,1,8,0:0:0:0:
258,195,111943,1,8,0:0:0:0:
258,195,112027,1,0,0:0:0:0:
258,195,112196,1,8,0:0:0:0:
258,195,112280,1,0,0:0:0:0:
258,195,112365,1,0,0:0:0:0:
258,195,112533,1,0,0:0:0:0:
258,195,112702,1,8,0:0:0:0:
258,195,112870,5,8,0:0:0:0:
258,195,112954,1,0,0:0:0:0:
258,195,113039,1,0,0:0:0:0:
258,195,113123,1,0,0:0:0:0:
258,195,113207,1,8,0:0:0:0:
258,195,113292,1,0,0:0:0:0:
258,195,113376,1,0,0:0:0:0:
258,195,113460,1,0,0:0:0:0:
258,195,113544,1,8,0:0:0:0:
258,195,113629,1,0,0:0:0:0:
258,195,113713,1,0,0:0:0:0:
258,195,113797,1,0,0:0:0:0:
258,195,113881,1,8,0:0:0:0:
258,195,113966,1,0,0:0:0:0:
258,195,114050,1,8,0:0:0:0:
258,195,114134,1,0,0:0:0:0:
258,195,114218,1,8,0:0:0:0:
258,195,114387,1,0,0:0:0:0:
258,195,114471,1,0,0:0:0:0:
258,195,114556,1,8,0:0:0:0:
258,195,114724,1,8,0:0:0:0:
258,195,114893,1,8,0:0:0:0:
258,195,114977,1,0,0:0:0:0:
258,195,115061,1,0,0:0:0:0:
258,195,115230,1,8,0:0:0:0:
258,195,115398,1,0,0:0:0:0:
258,195,115483,1,0,0:0:0:0:
258,195,115567,1,8,0:0:0:0:
258,195,115651,1,8,0:0:0:0:
258,195,115735,1,0,0:0:0:0:
258,195,115904,1,8,0:0:0:0:
258,195,116072,1,0,0:0:0:0:
258,195,116157,1,0,0:0:0:0:
258,195,116241,1,8,0:0:0:0:
258,195,116325,1,8,0:0:0:0:
258,195,116410,1,0,0:0:0:0:
258,195,116494,1,0,0:0:0:0:
258,195,116578,1,8,0:0:0:0:
258,195,116662,1,8,0:0:0:0:
258,195,116747,1,0,0:0:0:0:
258,195,116915,1,0,0:0:0:0:
258,195,117084,1,0,0:0:0:0:
258,195,117168,1,0,0:0:0:0:
258,195,117252,1,8,0:0:0:0:
258,195,117421,1,8,0:0:0:0:
258,195,117589,1,8,0:0:0:0:
258,195,117674,1,0,0:0:0:0:
258,195,117758,1,0,0:0:0:0:
258,195,117926,1,0,0:0:0:0:
258,195,118095,1,0,0:0:0:0:
258,195,118179,1,0,0:0:0:0:
258,195,118263,1,8,0:0:0:0:
258,195,118432,1,8,0:0:0:0:
258,195,118516,1,0,0:0:0:0:
258,195,118601,1,0,0:0:0:0:
258,195,118685,1,8,0:0:0:0:
258,195,118769,1,0,0:0:0:0:
258,195,118938,1,0,0:0:0:0:
258,195,119022,1,0,0:0:0:0:
258,195,119106,1,8,0:0:0:0:
258,195,119190,1,0,0:0:0:0:
258,195,119275,1,8,0:0:0:0:
258,195,119359,1,8,0:0:0:0:
258,195,119443,1,0,0:0:0:0:
258,195,119527,1,0,0:0:0:0:
258,195,119612,1,8,0:0:0:0:
258,195,119780,1,0,0:0:0:0:
258,195,119865,1,0,0:0:0:0:
258,195,119949,1,8,0:0:0:0:
258,195,120117,1,8,0:0:0:0:
258,195,120202,1,8,0:0:0:0:
258,195,120286,1,0,0:0:0:0:
258,195,120454,1,0,0:0:0:0:
258,195,120623,1,8,0:0:0:0:
258,195,120792,1,0,0:0:0:0:
258,195,120876,1,0,0:0:0:0:
258,195,120960,1,8,0:0:0:0:
258,195,121044,1,8,0:0:0:0:
258,195,121129,1,0,0:0:0:0:
258,195,121297,1,8,0:0:0:0:
258,195,121381,1,8,0:0:0:0:
258,195,121466,1,0,0:0:0:0:
258,195,121634,1,0,0:0:0:0:
258,195,121718,1,0,0:0:0:0:
258,195,121803,1,8,0:0:0:0:
258,195,121887,1,0,0:0:0:0:
258,195,121971,1,8,0:0:0:0:
258,195,122056,1,0,0:0:0:0:
258,195,122140,1,0,0:0:0:0:
258,195,122308,1,0,0:0:0:0:
258,195,122393,1,0,0:0:0:0:
258,195,122477,1,0,0:0:0:0:
258,195,122561,1,8,0:0:0:0:
258,195,122645,1,8,0:0:0:0:
258,195,122814,1,8,0:0:0:0:
258,195,122983,1,0,0:0:0:0:
258,195,123067,1,8,0:0:0:0:
258,195,123151,1,0,0:0:0:0:
258,195,123320,1,8,0:0:0:0:
258,195,123404,1,0,0:0:0:0:
258,195,123488,1,8,0:0:0:0:
258,195,123657,1,0,0:0:0:0:
258,195,123741,1,8,0:0:0:0:
258,195,123825,1,8,0:0:0:0:
258,195,123910,1,0,0:0:0:0:
258,195,123994,1,0,0:0:0:0:
258,195,124079,1,8,0:0:0:0:
258,195,124163,1,0,0:0:0:0:
258,195,124247,1,0,0:0:0:0:
258,195,124331,1,8,0:0:0:0:
258,195,124416,1,8,0:0:0:0:
258,195,124500,1,0,0:0:0:0:
258,195,124584,1,0,0:0:0:0:
258,195,124669,1,8,0:0:0:0:
258,195,124753,1,0,0:0:0:0:
258,195,124837,1,0,0:0:0:0:
258,195,124921,1,0,0:0:0:0:
258,195,125006,1,8,0:0:0:0:
264,215,125174,1,0,0:0:0:0:
264,215,125342,1,0,0:0:0:0:
264,215,125426,1,0,0:0:0:0:
264,215,125511,1,8,0:0:0:0:
264,215,125679,1,8,0:0:0:0:
264,215,125848,1,8,0:0:0:0:
264,215,125932,1,0,0:0:0:0:
264,215,126016,1,0,0:0:0:0:
264,215,126185,1,8,0:0:0:0:
264,215,126353,1,8,0:0:0:0:
264,215,126438,1,8,0:0:0:0:
264,215,126522,1,0,0:0:0:0:
264,215,126606,1,0,0:0:0:0:
264,215,126690,1,8,0:0:0:0:
264,215,126859,1,0,0:0:0:0:
264,215,127027,1,0,0:0:0:0:
264,215,127112,1,0,0:0:0:0:
264,215,127196,1,8,0:0:0:0:
264,215,127365,1,0,0:0:0:0:
264,215,127533,1,8,0:0:0:0:
264,215,127702,1,8,0:0:0:0:
264,215,127786,1,8,0:0:0:0:
264,215,127870,1,0,0:0:0:0:
264,215,127954,1,0,0:0:0:0:
264,215,128039,1,8,0:0:0:0:
264,215,128123,1,0,0:0:0:0:
264,215,128207,1,0,0:0:0:0:
264,215,128292,1,8,0:0:0:0:
264,215,128376,1,8,0:0:0:0:
264,215,128460,1,0,0:0:0:0:
264,215,128544,1,8,0:0:0:0:
264,215,128713,1,8,0:0:0:0:
264,215,128797,1,0,0:0:0:0:
264,215,128881,1,0,0:0:0:0:
264,215,129050,1,8,0:0:0:0:
264,215,129218,1,0,0:0:0:0:
264,215,129303,1,8,0:0:0:0:
264,215,129387,1,0,0:0:0:0:
264,215,129471,1,0,0:0:0:0:
264,215,129556,1,8,0:0:0:0:
264,215,129724,1,0,0:0:0:0:
264,215,129893,1,0,0:0:0:0:
264,215,129977,1,0,0:0:0:0:
264,215,130061,1,8,0:0:0:0:
264,215,130145,1,8,0:0:0:0:
264,215,130230,1,0,0:0:0:0:
264,215,130398,1,8,0:0:0:0:
264,215,130567,1,0,0:0:0:0:
264,215,130651,1,0,0:0:0:0:
264,215,130735,1,0,0:0:0:0:
264,215,130904,1,0,0:0:0:0:
264,215,131072,1,8,0:0:0:0:
264,215,131241,1,0,0:0:0:0:
264,215,131325,1,0,0:0:0:0:
264,215,131410,1,8,0:0:0:0:
264,215,131578,1,0,0:0:0:0:
264,215,131747,1,8,0:0:0:0:
255,195,131915,1,8,0:0:0:0:
264,215,131999,1,8,0:0:0:0:
264,215,132084,1,0,0:0:0:0:
264,215,132252,1,8,0:0:0:0:
264,215,132421,1,0,0:0:0:0:
264,215,132589,1,8,0:0:0:0:
264,215,132674,1,0,0:0:0:0:
264,215,132758,1,0,0:0:0:0:
264,215,132926,1,0,0:0:0:0:
255,195,133095,5,8,0:0:0:0:
255,195,133179,1,0,0:0:0:0:
255,195,133263,1,0,0:0:0:0:
255,195,133348,1,0,0:0:0:0:
255,195,133432,1,8,0:0:0:0:
255,195,133516,1,0,0:0:0:0:
255,195,133601,1,0,0:0:0:0:
255,195,133685,1,0,0:0:0:0:
255,195,133769,1,8,0:0:0:0:
255,195,133853,1,0,0:0:0:0:
255,195,133938,1,0,0:0:0:0:
255,195,134022,1,0,0:0:0:0:
255,195,134106,1,8,0:0:0:0:
255,195,134190,1,0,0:0:0:0:
255,195,134275,1,8,0:0:0:0:
255,195,134359,1,0,0:0:0:0:
255,195,134443,1,8,0:0:0:0:
255,195,134527,1,0,0:0:0:0:
255,195,134612,1,0,0:0:0:0:
255,195,134696,1,0,0:0:0:0:
255,195,134780,1,8,0:0:0:0:
255,195,134865,1,0,0:0:0:0:
255,195,134949,1,0,0:0:0:0:
255,195,135033,1,0,0:0:0:0:
255,195,135117,1,8,0:0:0:0:
255,195,135202,1,8,0:0:0:0:
255,195,135286,1,0,0:0:0:0:
255,195,135370,1,0,0:0:0:0:
255,195,135454,1,8,0:0:0:0:
255,195,135539,1,0,0:0:0:0:
255,195,135623,1,8,0:0:0:0:
255,195,135707,1,8,0:0:0:0:
255,195,135792,1,8,0:0:0:0:
255,195,135960,1,0,0:0:0:0:
255,195,136044,1,0,0:0:0:0:
255,195,136129,1,8,0:0:0:0:
255,195,136297,1,8,0:0:0:0:
255,195,136466,1,0,0:0:0:0:
255,195,136550,1,8,0:0:0:0:
255,195,136634,1,8,0:0:0:0:
255,195,136803,1,0,0:0:0:0:
255,195,136971,1,8,0:0:0:0:
255,195,137056,1,8,0:0:0:0:
255,195,137140,1,0,0:0:0:0:
255,195,137224,1,0,0:0:0:0:
255,195,137308,1,8,0:0:0:0:
255,195,137393,1,0,0:0:0:0:
255,195,137477,1,8,0:0:0:0:
255,195,137645,1,8,0:0:0:0:
255,195,137730,1,8,0:0:0:0:
255,195,137814,1,0,0:0:0:0:
255,195,137983,1,8,0:0:0:0:
255,195,138151,1,0,0:0:0:0:
255,195,138235,1,0,0:0:0:0:
255,195,138320,1,8,0:0:0:0:
255,195,138488,1,8,0:0:0:0:
255,195,138572,1,0,0:0:0:0:
255,195,138657,1,0,0:0:0:0:
255,195,138741,1,8,0:0:0:0:
255,195,138825,1,8,0:0:0:0:
255,195,138910,1,0,0:0:0:0:
255,195,138994,1,0,0:0:0:0:
255,195,139078,1,0,0:0:0:0:
255,195,139162,1,8,0:0:0:0:
255,195,139331,1,0,0:0:0:0:
255,195,139499,1,8,0:0:0:0:
255,195,139584,1,8,0:0:0:0:
255,195,139668,1,0,0:0:0:0:
255,195,139836,1,8,0:0:0:0:
255,195,140005,1,0,0:0:0:0:
255,195,140174,1,0,0:0:0:0:
255,195,140258,1,0,0:0:0:0:
255,195,140342,1,8,0:0:0:0:
255,195,140426,1,0,0:0:0:0:
255,195,140511,1,8,0:0:0:0:
255,195,140595,1,0,0:0:0:0:
255,195,140679,1,8,0:0:0:0:
255,195,140763,1,8,0:0:0:0:
255,195,140848,1,0,0:0:0:0:
255,195,141016,1,8,0:0:0:0:
255,195,141185,1,0,0:0:0:0:
255,195,141353,1,0,0:0:0:0:
255,195,141438,1,0,0:0:0:0:
255,195,141522,1,8,0:0:0:0:
255,195,141690,1,0,0:0:0:0:
255,195,141859,1,8,0:0:0:0:
255,195,141943,1,8,0:0:0:0:
255,195,142027,1,0,0:0:0:0:
255,195,142196,1,8,0:0:0:0:
255,195,142365,1,0,0:0:0:0:
255,195,142533,1,8,0:0:0:0:
255,195,142617,1,8,0:0:0:0:
255,195,142702,1,0,0:0:0:0:
255,195,142786,1,8,0:0:0:0:
255,195,142870,1,0,0:0:0:0:
255,195,143039,1,8,0:0:0:0:
255,195,143207,1,0,0:0:0:0:
255,195,143292,1,0,0:0:0:0:
255,195,143376,1,8,0:0:0:0:
255,195,143544,1,8,0:0:0:0:
255,195,143713,1,0,0:0:0:0:
255,195,143881,1,8,0:0:0:0:
255,195,143966,1,8,0:0:0:0:
255,195,144050,1,0,0:0:0:0:
255,195,144218,1,8,0:0:0:0:
255,195,144387,1,0,0:0:0:0:
255,195,144471,1,8,0:0:0:0:
255,195,144556,1,0,0:0:0:0:
255,195,144724,1,8,0:0:0:0:
255,195,144808,1,0,0:0:0:0:
255,195,144893,1,0,0:0:0:0:
255,195,144977,1,8,0:0:0:0:
255,195,145061,1,0,0:0:0:0:
255,195,145230,1,8,0:0:0:0:
255,195,145314,1,8,0:0:0:0:
255,195,145398,1,0,0:0:0:0:
255,195,145483,1,0,0:0:0:0:
255,195,145567,1,8,0:0:0:0:
255,195,145651,1,0,0:0:0:0:
255,195,145735,1,0,0:0:0:0:
255,195,145820,1,0,0:0:0:0:
255,195,145904,1,8,0:0:0:0:
255,195,145988,1,0,0:0:0:0:
255,195,146072,1,0,0:0:0:0:
255,195,146157,1,8,0:0:0:0:
255,195,146241,1,0,0:0:0:0:
255,195,146325,1,0,0:0:0:0:
255,195,146410,1,8,0:0:0:0:
255,195,146494,1,0,0:0:0:0:
255,195,146578,1,8,0:0:0:0:
255,195,147084,1,0,0:0:0:0:
255,195,147253,1,8,0:0:0:0:
255,195,147589,1,8,0:0:0:0:
255,195,147674,1,0,0:0:0:0:
255,195,147758,1,0,0:0:0:0:
255,195,147926,1,0,0:0:0:0:
255,195,148432,1,0,0:0:0:0:
255,195,148601,1,8,0:0:0:0:
255,195,148938,1,0,0:0:0:0:
255,195,149275,1,8,0:0:0:0:
255,195,149359,1,0,0:0:0:0:
255,195,149443,1,0,0:0:0:0:
255,195,149527,1,8,0:0:0:0:
255,195,149612,1,8,0:0:0:0:
255,195,149780,1,0,0:0:0:0:
255,195,150117,1,0,0:0:0:0:
255,195,150202,1,0,0:0:0:0:
255,195,150286,1,8,0:0:0:0:
255,195,150454,1,0,0:0:0:0:
255,195,150623,1,8,0:0:0:0:
255,195,150707,1,8,0:0:0:0:
255,195,150792,1,0,0:0:0:0:
255,195,150876,1,0,0:0:0:0:
255,195,150960,1,8,0:0:0:0:
255,195,151044,1,0,0:0:0:0:
255,195,151129,1,8,0:0:0:0:
255,195,151213,1,8,0:0:0:0:
255,195,151297,1,0,0:0:0:0:
255,195,151466,1,0,0:0:0:0:
255,195,151550,1,0,0:0:0:0:
255,195,151634,1,8,0:0:0:0:
255,195,151803,1,0,0:0:0:0:
255,195,151971,1,8,0:0:0:0:
255,195,152140,1,0,0:0:0:0:
255,195,152224,1,0,0:0:0:0:
255,195,152308,1,8,0:0:0:0:
255,195,152477,1,0,0:0:0:0:
255,195,152645,1,8,0:0:0:0:
255,195,152730,1,8,0:0:0:0:
255,195,152814,1,0,0:0:0:0:
255,195,152983,1,8,0:0:0:0:
255,195,153151,1,0,0:0:0:0:
255,195,153320,1,0,0:0:0:0:
255,195,153488,5,0,0:0:0:0:
255,195,153572,1,0,0:0:0:0:
255,195,153657,1,8,0:0:0:0:
255,195,153825,1,0,0:0:0:0:
255,195,153994,1,8,0:0:0:0:
255,195,154078,1,8,0:0:0:0:
255,195,154162,1,0,0:0:0:0:
255,195,154331,1,8,0:0:0:0:
255,195,154499,1,0,0:0:0:0:
255,195,154668,5,8,0:0:0:0:
255,195,154752,1,8,0:0:0:0:
255,195,154836,1,0,0:0:0:0:
255,195,155005,1,0,0:0:0:0:
255,195,155174,1,8,0:0:0:0:
255,195,155258,1,8,0:0:0:0:
255,195,155342,1,0,0:0:0:0:
255,195,155511,1,8,0:0:0:0:
255,195,155679,5,0,0:0:0:0:
255,195,155763,1,0,0:0:0:0:
255,195,155848,1,8,0:0:0:0:
255,195,155932,1,0,0:0:0:0:
255,195,156016,1,0,0:0:0:0:
255,195,156101,1,8,0:0:0:0:
255,195,156185,1,0,0:0:0:0:
255,195,156269,1,0,0:0:0:0:
255,195,156353,1,8,0:0:0:0:
255,195,156438,1,0,0:0:0:0:
255,195,156522,1,8,0:0:0:0:
255,195,156606,1,8,0:0:0:0:
255,195,156690,1,8,0:0:0:0:
255,195,156775,1,0,0:0:0:0:
255,195,156859,1,0,0:0:0:0:
255,195,156943,1,0,0:0:0:0:
255,195,157027,1,8,0:0:0:0:
255,195,157112,1,0,0:0:0:0:
255,195,157196,1,0,0:0:0:0:
255,195,157280,1,0,0:0:0:0:
255,195,157365,1,8,0:0:0:0:
255,195,157702,1,8,0:0:0:0:
255,195,157786,1,0,0:0:0:0:
255,195,157870,1,0,0:0:0:0:
255,195,158039,1,8,0:0:0:0:
255,195,158207,1,0,0:0:0:0:
255,195,158292,1,8,0:0:0:0:
255,195,158375,1,0,0:0:0:0:
255,195,158460,1,0,0:0:0:0:
255,195,158544,1,8,0:0:0:0:
255,195,158629,1,0,0:0:0:0:
255,195,158713,1,8,0:0:0:0:
255,195,159050,1,8,0:0:0:0:
255,195,159218,1,0,0:0:0:0:
255,195,159556,1,0,0:0:0:0:
255,195,159724,1,8,0:0:0:0:
255,195,159808,1,0,0:0:0:0:
255,195,159893,1,0,0:0:0:0:
255,195,160061,1,8,0:0:0:0:
255,195,160230,1,0,0:0:0:0:
255,195,160314,1,0,0:0:0:0:
255,195,160398,1,8,0:0:0:0:
255,195,160483,1,0,0:0:0:0:
255,195,160567,1,0,0:0:0:0:
255,195,160651,1,8,0:0:0:0:
255,195,160735,1,0,0:0:0:0:
255,195,160820,1,8,0:0:0:0:
255,195,160904,1,8,0:0:0:0:
255,195,161072,1,0,0:0:0:0:
255,195,161241,5,8,0:0:0:0:
255,195,161325,1,0,0:0:0:0:
255,195,161410,5,8,0:0:0:0:
255,195,161747,1,8,0:0:0:0:
255,195,161915,1,0,0:0:0:0:
255,195,162253,1,0,0:0:0:0:
255,195,162336,1,0,0:0:0:0:
255,195,162421,1,8,0:0:0:0:
255,195,162505,1,8,0:0:0:0:
255,195,162589,1,0,0:0:0:0:
255,195,162674,1,0,0:0:0:0:
255,195,162758,5,8,0:0:0:0:
255,195,163095,1,0,0:0:0:0:
255,195,163264,1,0,0:0:0:0:
255,195,163601,1,8,0:0:0:0:
255,195,163685,1,8,0:0:0:0:
255,195,163770,1,0,0:0:0:0:
255,195,163853,1,8,0:0:0:0:
255,195,163938,1,0,0:0:0:0:
255,195,164022,1,0,0:0:0:0:
255,195,164106,1,8,0:0:0:0:
255,195,164443,1,8,0:0:0:0:
255,195,164612,1,0,0:0:0:0:
255,195,164949,1,8,0:0:0:0:
255,195,165118,1,0,0:0:0:0:
255,195,165286,1,0,0:0:0:0:
255,195,165370,1,8,0:0:0:0:
255,195,165454,1,8,0:0:0:0:
255,195,165623,1,0,0:0:0:0:
255,195,165707,1,0,0:0:0:0:
255,195,165792,1,8,0:0:0:0:
255,195,165960,1,0,0:0:0:0:
255,195,166129,1,8,0:0:0:0:
255,195,166297,1,8,0:0:0:0:
255,195,166381,1,8,0:0:0:0:
255,195,166466,1,0,0:0:0:0:
255,195,166550,1,8,0:0:0:0:
255,195,166634,1,0,0:0:0:0:
255,195,166718,1,8,0:0:0:0:
255,195,166803,1,0,0:0:0:0:
255,195,166971,1,0,0:0:0:0:
255,195,167140,1,0,0:0:0:0:
255,195,167224,1,8,0:0:0:0:
255,195,167308,1,0,0:0:0:0:
255,195,167477,1,8,0:0:0:0:
255,195,167562,1,0,0:0:0:0:
255,195,167646,1,0,0:0:0:0:
255,195,167730,1,8,0:0:0:0:
255,195,167815,1,0,0:0:0:0:
255,195,167899,1,0,0:0:0:0:
255,195,167983,1,0,0:0:0:0:
255,195,168067,1,0,0:0:0:0:
255,195,168151,1,8,0:0:0:0:
255,195,168320,1,0,0:0:0:0:
255,195,168404,1,0,0:0:0:0:
255,195,168488,1,8,0:0:0:0:
255,195,168657,1,0,0:0:0:0:
255,195,168994,1,8,0:0:0:0:
255,195,169331,1,8,0:0:0:0:
255,195,169415,1,0,0:0:0:0:
255,195,169499,1,0,0:0:0:0:
255,195,169668,1,0,0:0:0:0:
255,195,169836,1,0,0:0:0:0:
255,195,169921,1,8,0:0:0:0:
255,195,170004,1,0,0:0:0:0:
255,195,170174,1,8,0:0:0:0:
255,195,170342,1,8,0:0:0:0:
255,195,170426,1,0,0:0:0:0:
255,195,170511,1,8,0:0:0:0:
255,195,170679,1,0,0:0:0:0:
255,195,170848,5,8,0:0:0:0:
255,195,170932,1,8,0:0:0:0:
255,195,171016,1,0,0:0:0:0:
255,195,171101,1,0,0:0:0:0:
255,195,171185,1,8,0:0:0:0:
255,195,171269,1,0,0:0:0:0:
255,195,171353,1,0,0:0:0:0:
255,195,171522,1,0,0:0:0:0:
255,195,171606,1,0,0:0:0:0:
255,195,171690,1,8,0:0:0:0:
255,195,171859,1,8,0:0:0:0:
255,195,172027,1,0,0:0:0:0:
255,195,172112,1,8,0:0:0:0:
255,195,172196,1,8,0:0:0:0:
255,195,172365,1,0,0:0:0:0:
255,195,172533,1,8,0:0:0:0:
255,195,172617,1,8,0:0:0:0:
255,195,172702,1,0,0:0:0:0:
255,195,172786,1,0,0:0:0:0:
255,195,172870,1,0,0:0:0:0:
255,195,172954,1,8,0:0:0:0:
255,195,173039,1,0,0:0:0:0:
255,195,173123,1,0,0:0:0:0:
255,195,173207,1,8,0:0:0:0:
255,195,173292,1,8,0:0:0:0:
255,195,173376,1,0,0:0:0:0:
255,195,173544,1,8,0:0:0:0:
255,195,173629,1,0,0:0:0:0:
255,195,173713,1,0,0:0:0:0:
255,195,173797,1,8,0:0:0:0:
255,195,173881,1,0,0:0:0:0:
255,195,173966,1,8,0:0:0:0:
255,195,174050,1,0,0:0:0:0:
255,195,174134,1,0,0:0:0:0:
255,195,174218,1,8,0:0:0:0:
255,195,174303,1,0,0:0:0:0:
255,195,174387,1,8,0:0:0:0:
255,195,174471,1,8,0:0:0:0:
255,195,174556,1,0,0:0:0:0:
255,195,174640,1,0,0:0:0:0:
255,195,174724,1,8,0:0:0:0:
255,195,174808,1,0,0:0:0:0:
255,195,174893,1,8,0:0:0:0:
255,195,174977,1,8,0:0:0:0:
255,195,175061,1,0,0:0:0:0:
255,195,175145,1,8,0:0:0:0:
255,195,175230,1,0,0:0:0:0:
255,195,175314,1,0,0:0:0:0:
255,195,175398,1,0,0:0:0:0:
255,195,175483,1,0,0:0:0:0:
255,195,175567,1,0,0:0:0:0:
255,195,175735,1,0,0:0:0:0:
255,195,175820,1,0,0:0:0:0:
255,195,175904,1,8,0:0:0:0:
255,195,176072,1,0,0:0:0:0:
255,195,176241,1,8,0:0:0:0:
255,195,176325,1,0,0:0:0:0:
255,195,176410,1,0,0:0:0:0:
255,195,176578,1,8,0:0:0:0:
255,195,176662,1,0,0:0:0:0:
255,195,176747,1,8,0:0:0:0:
255,195,176831,1,8,0:0:0:0:
255,195,176915,1,0,0:0:0:0:
255,195,177084,1,0,0:0:0:0:
255,195,177252,1,8,0:0:0:0:
255,195,177421,1,0,0:0:0:0:
255,195,177589,5,0,0:0:0:0:
255,195,177674,1,0,0:0:0:0:
255,195,177758,1,8,0:0:0:0:
255,195,177842,1,8,0:0:0:0:
255,195,177926,1,0,0:0:0:0:
255,195,178011,1,8,0:0:0:0:
255,195,178095,1,0,0:0:0:0:
255,195,178179,1,0,0:0:0:0:
255,195,178263,1,8,0:0:0:0:
255,195,178348,1,8,0:0:0:0:
255,195,178432,1,0,0:0:0:0:
255,195,178516,1,0,0:0:0:0:
255,195,178601,1,8,0:0:0:0:
255,195,178685,1,8,0:0:0:0:
255,195,178769,1,8,0:0:0:0:
255,195,178853,1,8,0:0:0:0:
258,195,178938,5,0,0:0:0:0:
258,195,179444,1,0,0:0:0:0:
258,195,179528,1,0,0:0:0:0:
258,195,179613,1,8,0:0:0:0:
258,195,179781,1,0,0:0:0:0:
258,195,179949,1,8,0:0:0:0:
258,195,180118,1,8,0:0:0:0:
258,195,180286,1,0,0:0:0:0:
258,195,180792,1,8,0:0:0:0:
258,195,180961,1,0,0:0:0:0:
258,195,181298,1,0,0:0:0:0:
258,195,181466,1,0,0:0:0:0:
258,195,181550,1,0,0:0:0:0:
258,195,181635,1,8,0:0:0:0:
258,195,182140,1,8,0:0:0:0:
258,195,182224,1,0,0:0:0:0:
258,195,182308,1,8,0:0:0:0:
258,195,182477,1,8,0:0:0:0:
258,195,182646,1,0,0:0:0:0:
258,195,182814,1,0,0:0:0:0:
258,195,182899,1,0,0:0:0:0:
258,195,182983,1,8,0:0:0:0:
258,195,183489,5,8,0:0:0:0:
258,195,183573,1,0,0:0:0:0:
258,195,183657,1,0,0:0:0:0:
258,195,183994,1,8,0:0:0:0:
272,237,184162,1,0,0:0:0:0:
272,237,184331,5,0,0:0:0:0:
272,237,184584,1,8,0:0:0:0:
272,237,184836,1,0,0:0:0:0:
272,237,185005,1,8,0:0:0:0:
272,237,185230,1,0,0:0:0:0:
272,237,185454,1,8,0:0:0:0:
272,237,185679,1,8,0:0:0:0:
272,237,185763,1,0,0:0:0:0:
272,237,185848,1,0,0:0:0:0:
272,237,185932,1,0,0:0:0:0:
272,237,186016,1,8,0:0:0:0:
272,237,186101,1,0,0:0:0:0:
272,237,186185,1,0,0:0:0:0:
272,237,186269,1,0,0:0:0:0:
272,237,186353,1,8,0:0:0:0:
272,237,186438,1,0,0:0:0:0:
272,237,186522,1,0,0:0:0:0:
272,237,186606,1,0,0:0:0:0:
272,237,186690,1,8,0:0:0:0:
272,237,186775,1,0,0:0:0:0:
272,237,186859,1,0,0:0:0:0:
272,237,186943,1,0,0:0:0:0:
272,237,187027,1,8,0:0:0:0:
272,237,187112,1,8,0:0:0:0:
272,237,187196,1,8,0:0:0:0:
272,237,187280,1,0,0:0:0:0:
272,237,187365,1,0,0:0:0:0:
272,237,187449,1,8,0:0:0:0:
272,237,187533,1,8,0:0:0:0:
272,237,187617,1,0,0:0:0:0:
272,237,187702,1,0,0:0:0:0:
272,237,187786,1,0,0:0:0:0:
272,237,187870,1,8,0:0:0:0:
272,237,187954,1,0,0:0:0:0:
272,237,188039,1,8,0:0:0:0:
272,237,188123,1,8,0:0:0:0:
272,237,188207,1,8,0:0:0:0:
272,237,188292,1,0,0:0:0:0:
272,237,188376,1,8,0:0:0:0:
272,237,188460,1,8,0:0:0:0:
272,237,188544,1,0,0:0:0:0:
272,237,188629,1,0,0:0:0:0:
272,237,188713,1,8,0:0:0:0:
272,237,188797,1,0,0:0:0:0:
272,237,188881,1,8,0:0:0:0:
272,237,188966,1,8,0:0:0:0:
272,237,189050,1,8,0:0:0:0:
272,237,189134,1,0,0:0:0:0:
272,237,189218,1,0,0:0:0:0:
272,237,189303,1,0,0:0:0:0:
272,237,189387,1,8,0:0:0:0:
272,237,189471,1,8,0:0:0:0:
272,237,189556,1,0,0:0:0:0:
272,237,189640,1,0,0:0:0:0:
272,237,189724,1,8,0:0:0:0:
258,195,190230,1,0,0:0:0:0:
258,195,190314,1,0,0:0:0:0:
258,195,190399,1,8,0:0:0:0:
258,195,190567,1,0,0:0:0:0:
258,195,190735,1,8,0:0:0:0:
258,195,190904,1,8,0:0:0:0:
258,195,191072,1,0,0:0:0:0:
258,195,191578,1,8,0:0:0:0:
258,195,191747,1,0,0:0:0:0:
258,195,192084,1,0,0:0:0:0:
258,195,192252,1,0,0:0:0:0:
258,195,192336,1,0,0:0:0:0:
258,195,192421,1,8,0:0:0:0:
258,195,192926,1,8,0:0:0:0:
258,195,193010,1,0,0:0:0:0:
258,195,193094,1,8,0:0:0:0:
258,195,193263,1,8,0:0:0:0:
258,195,193432,1,0,0:0:0:0:
258,195,193600,1,0,0:0:0:0:
258,195,193685,1,0,0:0:0:0:
258,195,193769,1,8,0:0:0:0:
258,195,194106,1,8,0:0:0:0:
258,195,194443,1,0,0:0:0:0:
258,195,194780,1,0,0:0:0:0:
258,195,194949,1,8,0:0:0:0:
258,195,195117,1,0,0:0:0:0:
258,195,195202,1,0,0:0:0:0:
258,195,195286,1,8,0:0:0:0:
258,195,195370,1,0,0:0:0:0:
258,195,195454,1,8,0:0:0:0:
258,195,195539,1,8,0:0:0:0:
258,195,195623,1,0,0:0:0:0:
258,195,195707,1,0,0:0:0:0:
258,195,195792,1,8,0:0:0:0:
258,195,195876,1,8,0:0:0:0:
258,195,195960,1,0,0:0:0:0:
258,195,196044,1,0,0:0:0:0:
258,195,196129,1,8,0:0:0:0:
258,195,196213,1,0,0:0:0:0:
258,195,196297,1,0,0:0:0:0:
258,195,196381,1,8,0:0:0:0:
258,195,196466,1,8,0:0:0:0:
258,195,196550,1,8,0:0:0:0:
258,195,196634,1,0,0:0:0:0:
258,195,196887,1,0,0:0:0:0:
258,195,196972,1,8,0:0:0:0:
258,195,197056,1,0,0:0:0:0:
258,195,197140,1,8,0:0:0:0:
258,195,197224,1,8,0:0:0:0:
258,195,197309,1,0,0:0:0:0:
258,195,197393,1,0,0:0:0:0:
258,195,197477,1,8,0:0:0:0:
258,195,197561,1,0,0:0:0:0:
258,195,197645,1,0,0:0:0:0:
258,195,197730,1,0,0:0:0:0:
258,195,197814,1,8,0:0:0:0:
258,195,197898,1,0,0:0:0:0:
258,195,197983,1,0,0:0:0:0:
258,195,198067,1,8,0:0:0:0:
258,195,198151,1,0,0:0:0:0:
258,195,198235,1,0,0:0:0:0:
258,195,198320,1,8,0:0:0:0:
258,195,198404,1,0,0:0:0:0:
258,195,198488,1,8,0:0:0:0:
258,195,198572,1,8,0:0:0:0:
258,195,198657,1,8,0:0:0:0:
258,195,198741,1,0,0:0:0:0:
258,195,198825,1,8,0:0:0:0:
258,195,198910,1,0,0:0:0:0:
258,195,198994,1,0,0:0:0:0:
258,195,199078,1,0,0:0:0:0:
258,195,199162,1,8,0:0:0:0:
258,195,199247,1,0,0:0:0:0:
258,195,199331,1,0,0:0:0:0:
258,195,199415,1,8,0:0:0:0:
258,195,199499,1,0,0:0:0:0:
258,195,199584,1,0,0:0:0:0:
258,195,199668,1,8,0:0:0:0:
258,195,199752,1,0,0:0:0:0:
258,195,199836,1,8,0:0:0:0:
258,195,199921,1,8,0:0:0:0:
258,195,200005,1,8,0:0:0:0:
258,195,200089,1,0,0:0:0:0:
258,195,200174,1,8,0:0:0:0:
258,195,200258,1,0,0:0:0:0:
258,195,200342,1,8,0:0:0:0:
258,195,200426,1,8,0:0:0:0:
258,195,200510,1,0,0:0:0:0:
258,195,200595,1,8,0:0:0:0:
258,195,200679,1,0,0:0:0:0:
258,195,200763,1,0,0:0:0:0:
258,195,200848,5,8,0:0:0:0:
258,195,201016,1,0,0:0:0:0:
258,195,201269,1,8,0:0:0:0:
258,195,201353,1,0,0:0:0:0:
258,195,201438,1,0,0:0:0:0:
258,195,201522,1,8,0:0:0:0:
258,195,201859,5,8,0:0:0:0:
258,195,201943,1,8,0:0:0:0:
258,195,202027,1,0,0:0:0:0:
258,195,202112,1,8,0:0:0:0:
258,195,202196,1,8,0:0:0:0:
258,195,202280,1,0,0:0:0:0:
258,195,202365,1,0,0:0:0:0:
258,195,202449,1,0,0:0:0:0:
258,195,202533,1,8,0:0:0:0:
258,195,202617,1,0,0:0:0:0:
258,195,202702,1,8,0:0:0:0:
258,195,202786,1,8,0:0:0:0:
258,195,202870,1,8,0:0:0:0:
258,195,202954,1,0,0:0:0:0:
258,195,203039,1,0,0:0:0:0:
258,195,203123,1,8,0:0:0:0:
258,195,203207,1,8,0:0:0:0:
258,195,203292,1,0,0:0:0:0:
258,195,203376,1,0,0:0:0:0:
258,195,203460,1,0,0:0:0:0:
258,195,203544,1,8,0:0:0:0:
258,195,203629,1,0,0:0:0:0:
258,195,203713,1,8,0:0:0:0:
258,195,203797,1,8,0:0:0:0:
258,195,203881,1,0,0:0:0:0:
258,195,203966,1,0,0:0:0:0:
258,195,204050,1,8,0:0:0:0:
258,195,204134,1,0,0:0:0:0:
258,195,204218,1,8,0:0:0:0:
258,195,204303,1,0,0:0:0:0:
258,195,204387,1,0,0:0:0:0:
258,195,204471,1,0,0:0:0:0:
251,188,204556,5,8,0:0:0:0:
251,188,204668,1,0,0:0:0:0:
251,188,204780,1,0,0:0:0:0:
251,188,204893,1,8,0:0:0:0:
251,188,205005,1,0,0:0:0:0:
251,188,205117,1,0,0:0:0:0:
251,188,205230,1,8,0:0:0:0:
251,188,205342,1,0,0:0:0:0:
251,188,205454,1,8,0:0:0:0:
251,188,205567,1,8,0:0:0:0:
251,188,205679,1,0,0:0:0:0:
251,188,205792,1,0,0:0:0:0:
251,188,205904,1,8,0:0:0:0:
251,188,205988,1,0,0:0:0:0:
251,188,206072,1,0,0:0:0:0:
251,188,206157,1,0,0:0:0:0:
251,188,206241,1,8,0:0:0:0:
251,188,206325,1,0,0:0:0:0:
251,188,206410,1,0,0:0:0:0:
251,188,206494,1,8,0:0:0:0:
251,188,206578,1,0,0:0:0:0:
251,188,206662,1,8,0:0:0:0:
251,188,206747,1,0,0:0:0:0:
251,188,206831,1,0,0:0:0:0:
251,188,206915,1,8,0:0:0:0:
251,188,206999,1,8,0:0:0:0:
251,188,207084,1,0,0:0:0:0:
251,188,207168,1,0,0:0:0:0:
251,188,207252,1,8,0:0:0:0:
251,188,207336,1,0,0:0:0:0:
251,188,207421,1,8,0:0:0:0:
251,188,207505,1,0,0:0:0:0:
251,188,207589,1,8,0:0:0:0:
251,188,207674,1,0,0:0:0:0:
251,188,207758,1,0,0:0:0:0:
251,188,207842,1,8,0:0:0:0:
251,188,207926,1,8,0:0:0:0:
251,188,208011,1,0,0:0:0:0:
251,188,208095,1,0,0:0:0:0:
251,188,208179,1,8,0:0:0:0:
251,188,208263,1,8,0:0:0:0:
251,188,208348,1,0,0:0:0:0:
251,188,208432,1,0,0:0:0:0:
251,188,208516,1,0,0:0:0:0:
251,188,208601,1,8,0:0:0:0:
251,188,208685,1,0,0:0:0:0:
251,188,208769,1,8,0:0:0:0:
251,188,208853,1,0,0:0:0:0:
251,188,208938,1,8,0:0:0:0:
251,188,209022,1,8,0:0:0:0:
251,188,209106,1,0,0:0:0:0:
251,188,209190,1,0,0:0:0:0:
251,188,209275,1,8,0:0:0:0:
251,188,209359,1,0,0:0:0:0:
251,188,209443,1,0,0:0:0:0:
251,188,209527,1,8,0:0:0:0:
251,188,209612,1,0,0:0:0:0:
251,188,209696,1,8,0:0:0:0:
251,188,209780,1,8,0:0:0:0:
251,188,209865,1,8,0:0:0:0:
251,188,209949,1,8,0:0:0:0:
251,188,210033,1,0,0:0:0:0:
251,188,210117,1,0,0:0:0:0:
251,188,210202,1,8,0:0:0:0:
251,188,210286,1,0,0:0:0:0:
251,188,210370,1,8,0:0:0:0:
251,188,210454,1,8,0:0:0:0:
251,188,210539,1,8,0:0:0:0:
251,188,210623,1,0,0:0:0:0:
251,188,210707,1,8,0:0:0:0:
251,188,210792,1,0,0:0:0:0:
251,188,210876,1,0,0:0:0:0:
251,188,210960,1,8,0:0:0:0:
251,188,211044,1,8,0:0:0:0:
251,188,211129,1,0,0:0:0:0:
251,188,211213,1,0,0:0:0:0:
251,188,211297,1,8,0:0:0:0:
251,188,211381,1,0,0:0:0:0:
251,188,211466,1,0,0:0:0:0:
251,188,211550,1,0,0:0:0:0:
251,188,211634,1,8,0:0:0:0:
251,188,211718,1,0,0:0:0:0:
251,188,211803,1,0,0:0:0:0:
251,188,211887,1,8,0:0:0:0:
251,188,211971,1,0,0:0:0:0:
251,188,212056,1,8,0:0:0:0:
251,188,212140,1,0,0:0:0:0:
251,188,212224,1,8,0:0:0:0:
251,188,212308,1,0,0:0:0:0:
251,188,212393,1,0,0:0:0:0:
251,188,212477,1,8,0:0:0:0:
251,188,212561,1,0,0:0:0:0:
251,188,212645,1,8,0:0:0:0:
251,188,212730,1,8,0:0:0:0:
251,188,212814,5,0,0:0:0:0:
251,188,212898,1,8,0:0:0:0:
251,188,212983,1,0,0:0:0:0:
251,188,213067,1,8,0:0:0:0:
251,188,213151,1,8,0:0:0:0:
251,188,213235,1,0,0:0:0:0:
251,188,213320,1,0,0:0:0:0:
251,188,213404,1,8,0:0:0:0:
251,188,213488,1,0,0:0:0:0:
251,188,213572,1,8,0:0:0:0:
251,188,213657,1,8,0:0:0:0:
251,188,213741,1,0,0:0:0:0:
251,188,213825,1,0,0:0:0:0:
251,188,213994,5,8,0:0:0:0:
251,188,214162,1,0,0:0:0:0:
251,188,214247,1,0,0:0:0:0:
251,188,214331,1,8,0:0:0:0:
251,188,214499,1,0,0:0:0:0:
251,188,214668,1,8,0:0:0:0:
251,188,214836,1,8,0:0:0:0:
251,188,214921,1,0,0:0:0:0:
251,188,215005,1,0,0:0:0:0:
251,188,215089,1,8,0:0:0:0:
251,188,215174,1,8,0:0:0:0:
251,188,215342,5,8,0:0:0:0:
251,188,215511,1,8,0:0:0:0:
251,188,215595,1,0,0:0:0:0:
251,188,215679,1,0,0:0:0:0:
251,188,215848,1,0,0:0:0:0:
251,188,216016,1,8,0:0:0:0:
251,188,216101,1,8,0:0:0:0:
251,188,216185,1,0,0:0:0:0:
251,188,216353,1,0,0:0:0:0:
251,188,216522,1,8,0:0:0:0:
251,188,216690,5,8,0:0:0:0:
251,188,216775,1,0,0:0:0:0:
251,188,216859,1,0,0:0:0:0:
251,188,216943,1,0,0:0:0:0:
251,188,217027,1,8,0:0:0:0:
251,188,217112,1,0,0:0:0:0:
251,188,217196,1,0,0:0:0:0:
251,188,217280,1,0,0:0:0:0:
251,188,217365,1,8,0:0:0:0:
251,188,217449,1,0,0:0:0:0:
251,188,217533,1,0,0:0:0:0:
251,188,217617,1,0,0:0:0:0:
251,188,217702,1,8,0:0:0:0:
251,188,217786,1,0,0:0:0:0:
251,188,217870,1,0,0:0:0:0:
251,188,217954,1,0,0:0:0:0:
256,192,218039,12,8,219893,0:0:0:0:
251,188,220061,5,8,0:0:0:0:
258,195,220229,1,0,0:0:0:0:
258,195,220313,1,8,0:0:0:0:
258,195,220398,1,8,0:0:0:0:
258,195,220566,1,8,0:0:0:0:
258,195,220735,1,0,0:0:0:0:
258,195,220819,1,8,0:0:0:0:
258,195,220903,1,0,0:0:0:0:
258,195,221072,1,8,0:0:0:0:
258,195,221240,1,0,0:0:0:0:
258,195,221325,1,0,0:0:0:0:
258,195,221409,1,8,0:0:0:0:
258,195,221493,1,8,0:0:0:0:
258,195,221577,1,0,0:0:0:0:
258,195,221746,1,8,0:0:0:0:
258,195,221914,1,0,0:0:0:0:
258,195,221999,1,0,0:0:0:0:
258,195,222083,1,8,0:0:0:0:
258,195,222167,1,8,0:0:0:0:
258,195,222252,1,0,0:0:0:0:
258,195,222336,1,8,0:0:0:0:
258,195,222420,1,0,0:0:0:0:
258,195,222504,1,8,0:0:0:0:
258,195,222589,1,0,0:0:0:0:
258,195,222757,1,0,0:0:0:0:
258,195,222926,1,0,0:0:0:0:
258,195,223010,1,0,0:0:0:0:
258,195,223094,1,8,0:0:0:0:
258,195,223263,1,8,0:0:0:0:
258,195,223431,1,8,0:0:0:0:
258,195,223516,1,8,0:0:0:0:
258,195,223600,1,0,0:0:0:0:
258,195,223768,1,0,0:0:0:0:
258,195,223937,1,0,0:0:0:0:
258,195,224021,1,0,0:0:0:0:
258,195,224105,1,8,0:0:0:0:
258,195,224274,1,8,0:0:0:0:
258,195,224358,1,0,0:0:0:0:
258,195,224443,1,8,0:0:0:0:
258,195,224528,1,8,0:0:0:0:
258,195,224611,1,0,0:0:0:0:
258,195,224780,1,0,0:0:0:0:
258,195,224864,1,8,0:0:0:0:
258,195,224948,1,8,0:0:0:0:
258,195,225032,1,0,0:0:0:0:
258,195,225117,1,8,0:0:0:0:
258,195,225201,1,0,0:0:0:0:
258,195,225285,1,0,0:0:0:0:
258,195,225369,1,8,0:0:0:0:
258,195,225454,1,8,0:0:0:0:
258,195,225622,1,0,0:0:0:0:
258,195,225707,1,0,0:0:0:0:
258,195,225791,1,8,0:0:0:0:
258,195,225959,1,8,0:0:0:0:
258,195,226044,1,0,0:0:0:0:
258,195,226128,1,8,0:0:0:0:
258,195,226296,1,0,0:0:0:0:
258,195,226465,1,8,0:0:0:0:
258,195,226634,1,0,0:0:0:0:
258,195,226718,1,0,0:0:0:0:
258,195,226802,1,8,0:0:0:0:
258,195,226886,1,8,0:0:0:0:
258,195,226971,1,0,0:0:0:0:
258,195,227139,1,8,0:0:0:0:
258,195,227223,1,8,0:0:0:0:
258,195,227308,1,0,0:0:0:0:
258,195,227392,1,0,0:0:0:0:
258,195,227476,1,8,0:0:0:0:
258,195,227560,1,0,0:0:0:0:
258,195,227645,1,8,0:0:0:0:
258,195,227813,1,8,0:0:0:0:
258,195,227898,1,0,0:0:0:0:
258,195,227982,1,0,0:0:0:0:
258,195,228066,1,8,0:0:0:0:
258,195,228150,1,0,0:0:0:0:
258,195,228319,1,0,0:0:0:0:
258,195,228403,1,0,0:0:0:0:
258,195,228487,1,8,0:0:0:0:
258,195,228656,1,8,0:0:0:0:
258,195,228825,1,0,0:0:0:0:
258,195,228909,1,8,0:0:0:0:
258,195,228993,1,0,0:0:0:0:
258,195,229162,1,8,0:0:0:0:
258,195,229246,1,0,0:0:0:0:
258,195,229330,1,0,0:0:0:0:
258,195,229499,1,8,0:0:0:0:
258,195,229583,1,0,0:0:0:0:
258,195,229667,1,0,0:0:0:0:
258,195,229752,1,8,0:0:0:0:
258,195,229836,1,0,0:0:0:0:
258,195,229921,1,8,0:0:0:0:
258,195,230005,1,0,0:0:0:0:
258,195,230089,1,0,0:0:0:0:
258,195,230173,1,8,0:0:0:0:
258,195,230258,1,0,0:0:0:0:
258,195,230342,1,8,0:0:0:0:
258,195,230426,1,0,0:0:0:0:
258,195,230511,1,8,0:0:0:0:
258,195,230595,1,8,0:0:0:0:
258,195,230679,1,0,0:0:0:0:
258,195,230763,1,0,0:0:0:0:
258,195,230848,1,8,0:0:0:0:
264,215,231016,1,0,0:0:0:0:
264,215,231184,1,0,0:0:0:0:
264,215,231268,1,0,0:0:0:0:
264,215,231353,1,8,0:0:0:0:
264,215,231521,1,8,0:0:0:0:
264,215,231690,1,8,0:0:0:0:
264,215,231774,1,0,0:0:0:0:
264,215,231858,1,8,0:0:0:0:
264,215,232027,1,8,0:0:0:0:
264,215,232195,1,0,0:0:0:0:
264,215,232280,1,0,0:0:0:0:
264,215,232364,1,8,0:0:0:0:
264,215,232448,1,0,0:0:0:0:
264,215,232532,1,8,0:0:0:0:
264,215,232701,1,0,0:0:0:0:
264,215,232869,1,0,0:0:0:0:
264,215,232954,1,8,0:0:0:0:
264,215,233038,1,8,0:0:0:0:
264,215,233207,1,0,0:0:0:0:
264,215,233375,1,8,0:0:0:0:
264,215,233544,1,8,0:0:0:0:
264,215,233628,1,8,0:0:0:0:
264,215,233712,1,0,0:0:0:0:
264,215,233796,1,0,0:0:0:0:
264,215,233881,1,8,0:0:0:0:
264,215,233965,1,0,0:0:0:0:
264,215,234049,1,0,0:0:0:0:
264,215,234134,1,8,0:0:0:0:
264,215,234218,1,8,0:0:0:0:
264,215,234302,1,0,0:0:0:0:
264,215,234386,1,8,0:0:0:0:
264,215,234555,1,8,0:0:0:0:
264,215,234639,1,0,0:0:0:0:
264,215,234723,1,0,0:0:0:0:
264,215,234892,1,8,0:0:0:0:
264,215,235060,1,0,0:0:0:0:
264,215,235145,1,8,0:0:0:0:
264,215,235229,1,0,0:0:0:0:
264,215,235313,1,0,0:0:0:0:
264,215,235398,1,8,0:0:0:0:
264,215,235566,1,0,0:0:0:0:
264,215,235735,1,0,0:0:0:0:
264,215,235819,1,0,0:0:0:0:
264,215,235903,1,8,0:0:0:0:
264,215,235987,1,8,0:0:0:0:
264,215,236072,1,0,0:0:0:0:
264,215,236240,1,8,0:0:0:0:
264,215,236409,1,0,0:0:0:0:
264,215,236493,1,0,0:0:0:0:
264,215,236577,1,0,0:0:0:0:
264,215,236746,1,0,0:0:0:0:
264,215,236914,1,8,0:0:0:0:
264,215,237083,1,0,0:0:0:0:
264,215,237167,1,0,0:0:0:0:
264,215,237252,1,8,0:0:0:0:
264,215,237420,1,0,0:0:0:0:
264,215,237589,1,8,0:0:0:0:
255,195,237757,1,8,0:0:0:0:
264,215,237841,1,8,0:0:0:0:
264,215,237926,1,0,0:0:0:0:
264,215,238094,1,8,0:0:0:0:
264,215,238263,1,0,0:0:0:0:
264,215,238431,1,8,0:0:0:0:
264,215,238516,1,0,0:0:0:0:
264,215,238600,1,0,0:0:0:0:
264,215,238768,1,0,0:0:0:0:
255,195,238937,5,8,0:0:0:0:
255,195,239021,1,0,0:0:0:0:
255,195,239105,1,0,0:0:0:0:
255,195,239190,1,0,0:0:0:0:
255,195,239274,1,8,0:0:0:0:
255,195,239358,1,8,0:0:0:0:
255,195,239443,1,0,0:0:0:0:
255,195,239527,1,0,0:0:0:0:
255,195,239611,1,8,0:0:0:0:
255,195,239695,1,0,0:0:0:0:
255,195,239780,1,0,0:0:0:0:
255,195,239864,1,0,0:0:0:0:
255,195,239948,1,8,0:0:0:0:
255,195,240032,1,0,0:0:0:0:
255,195,240117,1,8,0:0:0:0:
255,195,240201,1,0,0:0:0:0:
255,195,240285,1,8,0:0:0:0:
255,195,240369,1,8,0:0:0:0:
255,195,240454,1,0,0:0:0:0:
255,195,240538,1,0,0:0:0:0:
255,195,240622,1,8,0:0:0:0:
255,195,240707,1,0,0:0:0:0:
255,195,240791,1,0,0:0:0:0:
255,195,240875,1,0,0:0:0:0:
255,195,240959,1,8,0:0:0:0:
255,195,241044,1,8,0:0:0:0:
255,195,241128,1,0,0:0:0:0:
255,195,241212,1,0,0:0:0:0:
255,195,241296,1,8,0:0:0:0:
255,195,241381,1,0,0:0:0:0:
255,195,241465,1,8,0:0:0:0:
255,195,241549,1,8,0:0:0:0:
255,195,241634,1,8,0:0:0:0:
258,195,241802,1,0,0:0:0:0:
258,195,241886,1,0,0:0:0:0:
258,195,241971,1,8,0:0:0:0:
258,195,242139,1,8,0:0:0:0:
258,195,242308,1,8,0:0:0:0:
258,195,242392,1,0,0:0:0:0:
258,195,242476,1,8,0:0:0:0:
258,195,242645,1,8,0:0:0:0:
258,195,242813,1,0,0:0:0:0:
258,195,242898,1,0,0:0:0:0:
258,195,242982,1,8,0:0:0:0:
258,195,243066,1,8,0:0:0:0:
258,195,243150,1,0,0:0:0:0:
258,195,243319,1,8,0:0:0:0:
258,195,243487,1,0,0:0:0:0:
258,195,243572,1,0,0:0:0:0:
258,195,243656,1,8,0:0:0:0:
258,195,243740,1,8,0:0:0:0:
258,195,243825,1,0,0:0:0:0:
258,195,243909,1,8,0:0:0:0:
258,195,243993,1,0,0:0:0:0:
258,195,244077,1,8,0:0:0:0:
258,195,244162,1,8,0:0:0:0:
258,195,244330,1,0,0:0:0:0:
258,195,244499,1,0,0:0:0:0:
258,195,244583,1,8,0:0:0:0:
258,195,244667,1,8,0:0:0:0:
258,195,244836,1,8,0:0:0:0:
258,195,245004,1,8,0:0:0:0:
258,195,245089,1,0,0:0:0:0:
258,195,245173,1,8,0:0:0:0:
258,195,245341,1,8,0:0:0:0:
258,195,245426,1,0,0:0:0:0:
258,195,245510,1,8,0:0:0:0:
258,195,245594,1,0,0:0:0:0:
258,195,245678,1,8,0:0:0:0:
258,195,245763,1,0,0:0:0:0:
258,195,245847,1,8,0:0:0:0:
258,195,245931,1,0,0:0:0:0:
258,195,246016,1,0,0:0:0:0:
258,195,246101,1,8,0:0:0:0:
258,195,246184,1,0,0:0:0:0:
258,195,246353,1,0,0:0:0:0:
258,195,246437,1,0,0:0:0:0:
258,195,246521,1,8,0:0:0:0:
258,195,246605,1,0,0:0:0:0:
258,195,246690,1,8,0:0:0:0:
258,195,246774,1,8,0:0:0:0:
258,195,246858,1,0,0:0:0:0:
258,195,246942,1,0,0:0:0:0:
258,195,247027,1,8,0:0:0:0:
258,195,247195,1,0,0:0:0:0:
258,195,247280,1,0,0:0:0:0:
258,195,247364,1,8,0:0:0:0:
258,195,247532,1,8,0:0:0:0:
258,195,247617,1,0,0:0:0:0:
258,195,247701,1,8,0:0:0:0:
258,195,247869,1,0,0:0:0:0:
258,195,248038,1,8,0:0:0:0:
258,195,248122,1,0,0:0:0:0:
258,195,248207,1,0,0:0:0:0:
258,195,248291,1,0,0:0:0:0:
258,195,248375,1,8,0:0:0:0:
258,195,248459,1,0,0:0:0:0:
258,195,248544,1,8,0:0:0:0:
258,195,248712,1,8,0:0:0:0:
258,195,248796,1,8,0:0:0:0:
258,195,248881,1,0,0:0:0:0:
258,195,249049,1,0,0:0:0:0:
258,195,249133,1,0,0:0:0:0:
258,195,249218,1,8,0:0:0:0:
258,195,249386,1,0,0:0:0:0:
258,195,249471,1,8,0:0:0:0:
258,195,249555,1,8,0:0:0:0:
258,195,249723,1,0,0:0:0:0:
258,195,249808,1,0,0:0:0:0:
258,195,249892,1,8,0:0:0:0:
258,195,249976,1,0,0:0:0:0:
258,195,250060,1,8,0:0:0:0:
258,195,250229,1,8,0:0:0:0:
258,195,250398,1,0,0:0:0:0:
258,195,250482,1,8,0:0:0:0:
258,195,250566,1,0,0:0:0:0:
258,195,250735,1,8,0:0:0:0:
258,195,250819,1,0,0:0:0:0:
258,195,250903,1,0,0:0:0:0:
258,195,251072,1,0,0:0:0:0:
258,195,251156,1,8,0:0:0:0:
258,195,251240,1,8,0:0:0:0:
258,195,251325,1,0,0:0:0:0:
258,195,251409,1,0,0:0:0:0:
258,195,251494,1,8,0:0:0:0:
258,195,251578,1,0,0:0:0:0:
258,195,251662,1,0,0:0:0:0:
258,195,251746,1,8,0:0:0:0:
258,195,251831,1,0,0:0:0:0:
258,195,251915,1,8,0:0:0:0:
258,195,251999,1,0,0:0:0:0:
258,195,252084,1,8,0:0:0:0:
258,195,252168,1,8,0:0:0:0:
258,195,252252,1,0,0:0:0:0:
258,195,252336,1,0,0:0:0:0:
258,195,252421,1,8,0:0:0:0:
264,215,252589,1,0,0:0:0:0:
264,215,252757,1,0,0:0:0:0:
264,215,252841,1,0,0:0:0:0:
264,215,252926,1,8,0:0:0:0:
264,215,253094,1,8,0:0:0:0:
264,215,253263,1,8,0:0:0:0:
264,215,253347,1,8,0:0:0:0:
264,215,253431,1,0,0:0:0:0:
264,215,253600,1,8,0:0:0:0:
264,215,253768,1,8,0:0:0:0:
264,215,253853,1,0,0:0:0:0:
264,215,253937,1,0,0:0:0:0:
264,215,254021,1,8,0:0:0:0:
264,215,254105,1,8,0:0:0:0:
264,215,254274,1,0,0:0:0:0:
264,215,254442,1,0,0:0:0:0:
264,215,254527,1,0,0:0:0:0:
264,215,254611,1,8,0:0:0:0:
264,215,254780,1,0,0:0:0:0:
264,215,254948,1,8,0:0:0:0:
264,215,255117,1,8,0:0:0:0:
264,215,255201,1,8,0:0:0:0:
264,215,255285,1,0,0:0:0:0:
264,215,255369,1,0,0:0:0:0:
264,215,255454,1,8,0:0:0:0:
264,215,255538,1,0,0:0:0:0:
264,215,255622,1,0,0:0:0:0:
264,215,255707,1,8,0:0:0:0:
264,215,255791,1,8,0:0:0:0:
264,215,255875,1,0,0:0:0:0:
264,215,255959,1,8,0:0:0:0:
264,215,256128,1,8,0:0:0:0:
264,215,256212,1,0,0:0:0:0:
264,215,256296,1,8,0:0:0:0:
264,215,256381,1,8,0:0:0:0:
264,215,256465,1,0,0:0:0:0:
264,215,256549,1,8,0:0:0:0:
264,215,256633,1,8,0:0:0:0:
264,215,256718,1,0,0:0:0:0:
264,215,256802,1,0,0:0:0:0:
264,215,256886,1,0,0:0:0:0:
264,215,256971,1,8,0:0:0:0:
264,215,257139,1,0,0:0:0:0:
264,215,257308,1,0,0:0:0:0:
264,215,257392,1,0,0:0:0:0:
264,215,257476,1,8,0:0:0:0:
264,215,257560,1,8,0:0:0:0:
264,215,257645,1,0,0:0:0:0:
264,215,257813,1,8,0:0:0:0:
264,215,257982,1,0,0:0:0:0:
264,215,258066,1,0,0:0:0:0:
264,215,258150,1,0,0:0:0:0:
264,215,258319,1,0,0:0:0:0:
264,215,258487,1,8,0:0:0:0:
264,215,258656,1,0,0:0:0:0:
264,215,258740,1,0,0:0:0:0:
264,215,258825,1,8,0:0:0:0:
264,215,258993,1,0,0:0:0:0:
264,215,259162,1,8,0:0:0:0:
255,195,259330,1,8,0:0:0:0:
264,215,259414,1,8,0:0:0:0:
264,215,259499,1,0,0:0:0:0:
264,215,259667,1,8,0:0:0:0:
264,215,259836,1,0,0:0:0:0:
264,215,260004,1,8,0:0:0:0:
264,215,260089,1,0,0:0:0:0:
264,215,260173,1,0,0:0:0:0:
264,215,260341,1,0,0:0:0:0:
255,195,260510,5,8,0:0:0:0:
255,195,260594,1,0,0:0:0:0:
255,195,260678,1,0,0:0:0:0:
255,195,260763,1,0,0:0:0:0:
255,195,260847,1,8,0:0:0:0:
255,195,260931,1,0,0:0:0:0:
255,195,261016,1,0,0:0:0:0:
255,195,261100,1,0,0:0:0:0:
255,195,261184,1,8,0:0:0:0:
255,195,261268,1,0,0:0:0:0:
255,195,261353,1,0,0:0:0:0:
255,195,261437,1,0,0:0:0:0:
255,195,261521,1,8,0:0:0:0:
255,195,261605,1,0,0:0:0:0:
255,195,261690,1,8,0:0:0:0:
255,195,261774,1,0,0:0:0:0:
255,195,261858,1,8,0:0:0:0:
255,195,261942,1,0,0:0:0:0:
255,195,262027,1,0,0:0:0:0:
255,195,262111,1,0,0:0:0:0:
255,195,262195,1,8,0:0:0:0:
255,195,262280,1,0,0:0:0:0:
255,195,262364,1,0,0:0:0:0:
255,195,262448,1,0,0:0:0:0:
255,195,262532,1,8,0:0:0:0:
255,195,262617,1,8,0:0:0:0:
255,195,262701,1,0,0:0:0:0:
255,195,262785,1,0,0:0:0:0:
255,195,262869,1,8,0:0:0:0:
255,195,262954,1,0,0:0:0:0:
255,195,263038,1,8,0:0:0:0:
255,195,263122,1,8,0:0:0:0:
255,195,263207,1,8,0:0:0:0:
258,195,263375,1,0,0:0:0:0:
258,195,263459,1,0,0:0:0:0:
258,195,263544,1,8,0:0:0:0:
258,195,263712,1,8,0:0:0:0:
258,195,263881,1,8,0:0:0:0:
258,195,263965,1,0,0:0:0:0:
258,195,264049,1,8,0:0:0:0:
258,195,264218,1,8,0:0:0:0:
258,195,264386,1,0,0:0:0:0:
258,195,264471,1,0,0:0:0:0:
258,195,264555,1,8,0:0:0:0:
258,195,264639,1,8,0:0:0:0:
258,195,264723,1,0,0:0:0:0:
258,195,264892,1,8,0:0:0:0:
258,195,265060,1,0,0:0:0:0:
258,195,265145,1,0,0:0:0:0:
258,195,265229,1,8,0:0:0:0:
258,195,265313,1,8,0:0:0:0:
258,195,265398,1,0,0:0:0:0:
258,195,265482,1,8,0:0:0:0:
258,195,265566,1,0,0:0:0:0:
258,195,265650,1,8,0:0:0:0:
258,195,265735,1,8,0:0:0:0:
258,195,265903,1,0,0:0:0:0:
258,195,266072,1,0,0:0:0:0:
258,195,266156,1,8,0:0:0:0:
258,195,266240,1,8,0:0:0:0:
258,195,266409,1,8,0:0:0:0:
258,195,266577,1,8,0:0:0:0:
258,195,266662,1,0,0:0:0:0:
258,195,266746,1,8,0:0:0:0:
258,195,266914,1,8,0:0:0:0:
258,195,266999,1,0,0:0:0:0:
258,195,267083,1,8,0:0:0:0:
258,195,267167,1,8,0:0:0:0:
258,195,267252,1,0,0:0:0:0:
258,195,267336,1,8,0:0:0:0:
258,195,267420,1,8,0:0:0:0:
258,195,267504,1,0,0:0:0:0:
258,195,267589,1,0,0:0:0:0:
258,195,267674,1,8,0:0:0:0:
258,195,267757,1,0,0:0:0:0:
258,195,267926,1,0,0:0:0:0:
258,195,268010,1,0,0:0:0:0:
258,195,268094,1,8,0:0:0:0:
258,195,268178,1,0,0:0:0:0:
258,195,268263,1,8,0:0:0:0:
258,195,268347,1,8,0:0:0:0:
258,195,268431,1,0,0:0:0:0:
258,195,268515,1,8,0:0:0:0:
258,195,268600,1,0,0:0:0:0:
258,195,268768,1,0,0:0:0:0:
258,195,268853,1,0,0:0:0:0:
258,195,268937,1,8,0:0:0:0:
258,195,269021,1,8,0:0:0:0:
258,195,269105,1,0,0:0:0:0:
258,195,269274,1,8,0:0:0:0:
258,195,269358,1,8,0:0:0:0:
258,195,269443,1,8,0:0:0:0:
258,195,269527,1,0,0:0:0:0:
258,195,269611,1,0,0:0:0:0:
258,195,269695,1,8,0:0:0:0:
258,195,269780,1,0,0:0:0:0:
258,195,269864,1,0,0:0:0:0:
258,195,269948,1,0,0:0:0:0:
258,195,270117,1,8,0:0:0:0:
258,195,270285,1,0,0:0:0:0:
258,195,270369,1,0,0:0:0:0:
258,195,270454,1,8,0:0:0:0:
258,195,270622,1,0,0:0:0:0:
258,195,270791,1,8,0:0:0:0:
258,195,270875,1,8,0:0:0:0:
258,195,270959,1,0,0:0:0:0:
258,195,271044,1,0,0:0:0:0:
258,195,271128,1,8,0:0:0:0:
258,195,271296,1,0,0:0:0:0:
258,195,271634,1,8,0:0:0:0:
258,195,271802,1,8,0:0:0:0:
258,195,271886,1,0,0:0:0:0:
258,195,271970,1,0,0:0:0:0:
258,195,272308,1,0,0:0:0:0:
258,195,272476,1,0,0:0:0:0:
258,195,272560,1,0,0:0:0:0:
258,195,272645,1,8,0:0:0:0:
258,195,272813,1,0,0:0:0:0:
258,195,272898,1,8,0:0:0:0:
258,195,272982,1,8,0:0:0:0:
258,195,273150,1,0,0:0:0:0:
281,199,273319,1,8,0:0:0:0:
281,199,273403,1,8,0:0:0:0:
258,195,273487,1,0,0:0:0:0:
258,195,273572,1,0,0:0:0:0:
258,195,273656,1,8,0:0:0:0:
258,195,273740,1,8,0:0:0:0:
258,195,273825,1,0,0:0:0:0:
258,195,273909,1,0,0:0:0:0:
258,195,273993,1,8,0:0:0:0:
281,199,274330,1,8,0:0:0:0:
281,199,274667,1,0,0:0:0:0:
258,195,274752,1,8,0:0:0:0:
281,199,274835,1,8,0:0:0:0:
281,199,275173,1,0,0:0:0:0:
281,199,275510,1,0,0:0:0:0:
281,199,275594,1,0,0:0:0:0:
281,199,275678,1,8,0:0:0:0:
281,199,275847,1,0,0:0:0:0:
281,199,276016,1,8,0:0:0:0:
281,199,276100,1,0,0:0:0:0:
281,199,276184,1,8,0:0:0:0:
281,199,276268,1,0,0:0:0:0:
281,199,276353,1,0,0:0:0:0:
281,199,276690,1,8,0:0:0:0:
281,199,277027,1,8,0:0:0:0:
281,199,277111,1,0,0:0:0:0:
281,199,277195,1,0,0:0:0:0:
281,199,277364,1,8,0:0:0:0:
281,199,277448,1,8,0:0:0:0:
281,199,277532,1,0,0:0:0:0:
281,199,277617,1,0,0:0:0:0:
281,199,277701,1,8,0:0:0:0:
281,199,277785,1,0,0:0:0:0:
281,199,277869,1,0,0:0:0:0:
281,199,277954,1,0,0:0:0:0:
281,199,278038,1,8,0:0:0:0:
257,194,278207,1,8,0:0:0:0:
257,194,278375,1,0,0:0:0:0:
257,194,278459,1,0,0:0:0:0:
257,194,278544,1,8,0:0:0:0:
257,194,278712,1,0,0:0:0:0:
257,194,278796,1,0,0:0:0:0:
257,194,278880,1,0,0:0:0:0:
257,194,278964,1,8,0:0:0:0:
257,194,279049,1,8,0:0:0:0:
257,194,279133,1,0,0:0:0:0:
257,194,279217,1,8,0:0:0:0:
257,194,279386,1,8,0:0:0:0:
257,194,279471,1,8,0:0:0:0:
257,194,279555,1,0,0:0:0:0:
257,194,279639,1,0,0:0:0:0:
257,194,279723,1,8,0:0:0:0:
257,194,279808,1,8,0:0:0:0:
257,194,279892,1,0,0:0:0:0:
257,194,279976,1,0,0:0:0:0:
257,194,280060,1,8,0:0:0:0:
257,194,280145,1,8,0:0:0:0:
257,194,280229,1,0,0:0:0:0:
257,194,280313,1,0,0:0:0:0:
257,194,280397,1,8,0:0:0:0:
257,194,280482,1,8,0:0:0:0:
257,194,280566,1,0,0:0:0:0:
257,194,280650,1,0,0:0:0:0:
257,194,280735,1,8,0:0:0:0:
257,194,280819,1,0,0:0:0:0:
257,194,280903,1,8,0:0:0:0:
257,194,280987,1,8,0:0:0:0:
257,194,281072,1,0,0:0:0:0:
257,194,281156,1,0,0:0:0:0:
257,194,281240,1,8,0:0:0:0:
257,194,281325,1,0,0:0:0:0:
257,194,281409,1,8,0:0:0:0:
257,194,281493,1,8,0:0:0:0:
257,194,281577,1,0,0:0:0:0:
257,194,281662,1,0,0:0:0:0:
257,194,281746,1,8,0:0:0:0:
257,194,281830,1,0,0:0:0:0:
257,194,281914,1,0,0:0:0:0:
257,194,281999,1,0,0:0:0:0:
257,194,282083,1,8,0:0:0:0:
257,194,282167,1,0,0:0:0:0:
257,194,282252,1,0,0:0:0:0:
257,194,282336,1,0,0:0:0:0:
257,194,282420,1,8,0:0:0:0:
257,194,282504,1,0,0:0:0:0:
257,194,282589,1,0,0:0:0:0:
257,194,282673,1,0,0:0:0:0:
257,194,282757,1,8,0:0:0:0:
257,194,282841,1,0,0:0:0:0:
257,194,282926,1,0,0:0:0:0:
257,194,283010,1,8,0:0:0:0:
257,194,283094,1,8,0:0:0:0:
257,194,283178,1,0,0:0:0:0:
257,194,283263,1,0,0:0:0:0:
257,194,283347,1,8,0:0:0:0:
256,192,283431,12,0,284611,0:0:0:0:
258,195,284780,5,0,0:0:0:0:
258,195,285285,5,0,0:0:0:0:
258,195,285369,1,0,0:0:0:0:
258,195,285454,1,8,0:0:0:0:
258,195,285622,1,0,0:0:0:0:
258,195,285790,1,8,0:0:0:0:
258,195,285959,1,8,0:0:0:0:
258,195,286127,1,0,0:0:0:0:
258,195,286633,1,8,0:0:0:0:
258,195,286802,1,0,0:0:0:0:
258,195,287139,1,0,0:0:0:0:
258,195,287307,1,0,0:0:0:0:
258,195,287391,1,0,0:0:0:0:
258,195,287476,1,8,0:0:0:0:
258,195,287981,1,8,0:0:0:0:
258,195,288065,1,0,0:0:0:0:
258,195,288149,1,8,0:0:0:0:
258,195,288318,1,8,0:0:0:0:
258,195,288487,1,0,0:0:0:0:
258,195,288655,1,0,0:0:0:0:
258,195,288740,1,0,0:0:0:0:
258,195,288824,1,8,0:0:0:0:
258,195,289330,1,8,0:0:0:0:
258,195,289414,1,0,0:0:0:0:
258,195,289498,1,8,0:0:0:0:
258,195,289835,1,0,0:0:0:0:
258,195,290004,1,8,0:0:0:0:
258,195,290088,1,0,0:0:0:0:
258,195,290172,1,0,0:0:0:0:
258,195,290678,1,0,0:0:0:0:
258,195,290763,1,0,0:0:0:0:
258,195,290847,1,8,0:0:0:0:
258,195,291352,1,0,0:0:0:0:
258,195,291436,1,8,0:0:0:0:
258,195,291521,1,8,0:0:0:0:
258,195,292026,1,8,0:0:0:0:
258,195,292111,1,8,0:0:0:0:
258,195,292195,1,8,0:0:0:0:
258,195,292532,1,8,0:0:0:0:
258,195,292700,1,0,0:0:0:0:
258,195,292869,1,8,0:0:0:0:
258,195,292953,1,0,0:0:0:0:
258,195,293037,1,0,0:0:0:0:
258,195,293122,1,8,0:0:0:0:
258,195,293206,1,0,0:0:0:0:
258,195,293290,1,0,0:0:0:0:
258,195,293375,1,8,0:0:0:0:
258,195,293459,1,0,0:0:0:0:
258,195,293543,1,0,0:0:0:0:
258,195,293627,1,8,0:0:0:0:
258,195,293712,1,0,0:0:0:0:
258,195,293796,1,0,0:0:0:0:
258,195,293880,1,8,0:0:0:0:
258,195,294049,1,8,0:0:0:0:
258,195,294217,5,0,0:0:0:0:
258,195,294386,1,8,0:0:0:0:
258,195,294470,1,0,0:0:0:0:
258,195,294554,1,0,0:0:0:0:
258,195,294639,1,0,0:0:0:0:
258,195,294723,1,0,0:0:0:0:
258,195,294807,1,0,0:0:0:0:
258,195,294891,1,8,0:0:0:0:
258,195,294976,1,0,0:0:0:0:
258,195,295060,1,8,0:0:0:0:
258,195,295144,1,0,0:0:0:0:
258,195,295229,1,0,0:0:0:0:
258,195,295313,1,8,0:0:0:0:
258,195,295397,1,0,0:0:0:0:
258,195,295481,1,8,0:0:0:0:
256,192,295566,12,0,300285,0:0:0:0:
