osu file format v14

[General]
AudioFilename: audio.mp3
AudioLeadIn: 0
PreviewTime: 72923
Countdown: 0
SampleSet: Normal
StackLeniency: 0.7
Mode: 1
LetterboxInBreaks: 0
WidescreenStoryboard: 0

[Editor]
DistanceSpacing: 4
BeatDivisor: 4
GridSize: 32
TimelineZoom: 2.5

[Metadata]
Title:Destiny
TitleUnicode:Destiny
Artist:Galneryus
ArtistUnicode:Galneryus
Creator:k3v227
Version:Tatsujin
Source:
Tags:Resurrection
BeatmapID:1015380
BeatmapSetID:475221

[Difficulty]
HPDrainRate:5
CircleSize:5
OverallDifficulty:6
ApproachRate:5
SliderMultiplier:1.4
SliderTickRate:1

[Events]
//Background and Video events
0,0,"Galneryus - Destiny.jpg",0,0
//Break Periods
//Storyboard Layer 0 (Background)
//Storyboard Layer 1 (Fail)
//Storyboard Layer 2 (Pass)
//Storyboard Layer 3 (Foreground)
//Storyboard Sound Samples

[TimingPoints]
43,326.086956521739,4,1,0,100,1,0
52216,-111.111111111111,4,1,0,100,0,0
61347,-109.89010989011,4,1,0,100,0,0
61510,-108.695652173913,4,1,0,100,0,0
61673,-107.52688172043,4,1,0,100,0,0
61836,-106.382978723404,4,1,0,100,0,0
61999,-105.263157894737,4,1,0,100,0,0
62162,-104.166666666667,4,1,0,100,0,0
62325,-103.092783505155,4,1,0,100,0,0
62651,-100,4,1,0,100,0,0
75695,-100,4,1,0,100,0,1
96564,-100,4,1,0,100,0,0
113521,326.086956521739,5,1,0,100,1,0
126564,326.086956521739,4,1,0,100,1,0
131781,-100,4,1,0,100,0,1
155096,-100,4,1,0,100,0,0
165205,-101.010101010101,4,1,0,100,0,0
165368,-102.040816326531,4,1,0,100,0,0
165531,-104.166666666667,4,1,0,100,0,0
165694,-106.382978723404,4,1,0,100,0,0
165775,-111.111111111111,4,1,0,100,0,0
172053,-109.89010989011,4,1,0,100,0,0
172216,-108.695652173913,4,1,0,100,0,0
172379,-107.52688172043,4,1,0,100,0,0
172542,-106.382978723404,4,1,0,100,0,0
172705,-105.263157894737,4,1,0,100,0,0
172868,-104.166666666667,4,1,0,100,0,0
173031,-103.092783505155,4,1,0,100,0,0
173194,-102.040816326531,4,1,0,100,0,0
173520,-100,4,1,0,100,0,0
189009,-100,4,1,0,100,0,0
189091,-100,4,1,0,20,0,0
191781,-100,4,1,0,100,0,1
211346,-100,4,1,0,100,0,0
212650,-100,4,1,0,100,0,1
236129,-100,4,1,0,100,0,0
236210,-100,4,1,0,50,0,0
238738,326.086956521739,4,1,0,100,1,0
278269,342.857142857143,4,1,0,100,1,8
278648,352.941176470588,4,1,0,100,1,8
279076,375,4,1,0,100,1,8
279523,400,4,1,0,100,1,0
280013,428.571428571429,4,1,0,100,1,8
280539,461.538461538462,4,1,0,100,1,8
281159,521.739130434783,7,1,0,100,1,8
281989,326.086956521739,4,1,0,60,1,0
297641,326.086956521739,6,1,0,60,1,0
299557,342.857142857143,7,1,0,100,1,0
299557,-95.2380952380952,7,1,0,100,0,0
301155,337.078651685393,4,1,0,100,1,0
301155,-90.9090909090909,4,1,0,100,0,0

[HitObjects]
256,192,43,5,12,0:0:0:0:
256,192,1021,1,0,0:0:0:0:
256,192,1184,1,0,0:0:0:0:
256,192,1347,1,12,0:0:0:0:
256,192,1673,1,0,0:0:0:0:
256,192,1836,1,12,0:0:0:0:
256,192,2162,1,8,0:0:0:0:
256,192,2325,1,12,0:0:0:0:
256,192,2651,1,12,0:0:0:0:
256,192,3629,1,0,0:0:0:0:
256,192,3792,1,0,0:0:0:0:
256,192,3956,1,12,0:0:0:0:
256,192,4119,1,0,0:0:0:0:
256,192,4200,1,0,0:0:0:0:
256,192,4282,1,0,0:0:0:0:
256,192,4445,1,12,0:0:0:0:
256,192,4608,1,0,0:0:0:0:
256,192,4771,1,0,0:0:0:0:
256,192,4934,1,12,0:0:0:0:
256,192,5260,1,0,0:0:0:0:
256,192,5423,1,8,0:0:0:0:
256,192,5586,1,8,0:0:0:0:
256,192,5749,1,0,0:0:0:0:
256,192,5831,1,8,0:0:0:0:
256,192,5912,1,8,0:0:0:0:
256,192,6075,1,8,0:0:0:0:
256,192,6238,1,8,0:0:0:0:
256,192,6320,1,8,0:0:0:0:
256,192,6401,1,8,0:0:0:0:
256,192,6483,1,8,0:0:0:0:
256,192,6564,1,0,0:0:0:0:
256,192,6727,1,0,0:0:0:0:
256,192,6809,1,8,0:0:0:0:
256,192,6890,1,8,0:0:0:0:
160,192,6972,1,0,0:0:0:0:
256,192,7053,1,8,0:0:0:0:
256,192,7135,1,8,0:0:0:0:
256,192,7216,1,8,0:0:0:0:
128,192,7298,1,0,0:0:0:0:
256,192,7379,1,8,0:0:0:0:
256,192,7461,1,8,0:0:0:0:
256,192,7542,1,8,0:0:0:0:
256,192,7624,1,8,0:0:0:0:
256,192,7706,1,8,0:0:0:0:
256,192,7869,1,12,0:0:0:0:
256,192,8032,1,0,0:0:0:0:
256,192,8195,1,0,0:0:0:0:
256,192,8358,1,12,0:0:0:0:
256,192,8521,1,0,0:0:0:0:
256,192,8684,1,0,0:0:0:0:
256,192,8847,1,4,0:0:0:0:
256,192,9010,1,0,0:0:0:0:
256,192,9173,1,12,0:0:0:0:
256,192,9336,1,0,0:0:0:0:
256,192,9499,1,12,0:0:0:0:
256,192,9825,1,4,0:0:0:0:
256,192,9988,1,4,0:0:0:0:
256,192,10151,1,4,0:0:0:0:
256,192,10314,1,12,0:0:0:0:
256,192,10640,1,0,0:0:0:0:
256,192,10722,1,0,0:0:0:0:
256,192,10803,1,8,0:0:0:0:
256,192,10885,1,8,0:0:0:0:
256,192,10966,1,0,0:0:0:0:
256,192,11048,1,8,0:0:0:0:
256,192,11129,1,0,0:0:0:0:
256,192,11211,1,0,0:0:0:0:
256,192,11292,1,8,0:0:0:0:
256,192,11374,1,8,0:0:0:0:
256,192,11456,1,0,0:0:0:0:
256,192,11537,1,0,0:0:0:0:
256,192,11619,1,0,0:0:0:0:
256,192,11945,1,8,0:0:0:0:
256,192,12026,1,8,0:0:0:0:
256,192,12108,1,0,0:0:0:0:
256,192,12189,1,0,0:0:0:0:
256,192,12271,1,8,0:0:0:0:
256,192,12352,1,0,0:0:0:0:
256,192,12434,1,8,0:0:0:0:
256,192,12515,1,8,0:0:0:0:
256,192,12597,1,0,0:0:0:0:
256,192,12678,1,0,0:0:0:0:
256,192,12760,1,8,0:0:0:0:
256,192,12841,1,8,0:0:0:0:
256,192,12923,1,0,0:0:0:0:
256,192,13249,1,8,0:0:0:0:
256,192,13331,1,8,0:0:0:0:
256,192,13412,1,0,0:0:0:0:
256,192,13494,1,0,0:0:0:0:
256,192,13575,1,8,0:0:0:0:
256,192,13657,1,0,0:0:0:0:
256,192,13738,1,8,0:0:0:0:
256,192,13820,1,8,0:0:0:0:
256,192,13901,1,0,0:0:0:0:
256,192,13983,1,8,0:0:0:0:
256,192,14064,1,8,0:0:0:0:
256,192,14146,1,8,0:0:0:0:
256,192,14227,1,0,0:0:0:0:
256,192,14309,1,0,0:0:0:0:
256,192,14390,1,8,0:0:0:0:
256,192,14472,1,0,0:0:0:0:
256,192,14553,1,8,0:0:0:0:
256,192,14635,1,8,0:0:0:0:
256,192,14716,1,0,0:0:0:0:
256,192,14798,1,8,0:0:0:0:
256,192,14879,1,8,0:0:0:0:
256,192,14961,1,8,0:0:0:0:
256,192,15042,1,0,0:0:0:0:
256,192,15124,1,0,0:0:0:0:
256,192,15206,1,8,0:0:0:0:
256,192,15287,1,8,0:0:0:0:
256,192,15369,1,0,0:0:0:0:
256,192,15532,1,4,0:0:0:0:
256,192,15858,1,0,0:0:0:0:
256,192,15939,1,8,0:0:0:0:
256,192,16021,1,0,0:0:0:0:
256,192,16102,1,0,0:0:0:0:
256,192,16184,1,8,0:0:0:0:
256,192,16265,1,0,0:0:0:0:
256,192,16347,1,8,0:0:0:0:
256,192,16428,1,0,0:0:0:0:
256,192,16510,1,8,0:0:0:0:
256,192,16591,1,8,0:0:0:0:
256,192,16673,1,0,0:0:0:0:
256,192,16754,1,0,0:0:0:0:
256,192,16836,1,8,0:0:0:0:
256,192,17162,1,8,0:0:0:0:
256,192,17244,1,8,0:0:0:0:
256,192,17325,1,0,0:0:0:0:
256,192,17407,1,0,0:0:0:0:
256,192,17488,1,8,0:0:0:0:
256,192,17570,1,0,0:0:0:0:
256,192,17651,1,8,0:0:0:0:
256,192,17733,1,8,0:0:0:0:
256,192,17814,1,0,0:0:0:0:
256,192,17896,1,8,0:0:0:0:
256,192,17977,1,0,0:0:0:0:
256,192,18059,1,0,0:0:0:0:
256,192,18140,1,8,0:0:0:0:
256,192,18466,1,8,0:0:0:0:
256,192,18548,1,8,0:0:0:0:
256,192,18629,1,0,0:0:0:0:
256,192,18711,1,0,0:0:0:0:
256,192,18792,1,8,0:0:0:0:
256,192,18874,1,0,0:0:0:0:
256,192,18956,1,8,0:0:0:0:
256,192,19037,1,8,0:0:0:0:
256,192,19119,1,0,0:0:0:0:
256,192,19200,1,0,0:0:0:0:
256,192,19282,1,0,0:0:0:0:
256,192,19445,1,0,0:0:0:0:
256,192,19526,1,0,0:0:0:0:
256,192,19608,1,8,0:0:0:0:
256,192,19689,1,0,0:0:0:0:
256,192,19771,1,8,0:0:0:0:
256,192,19852,1,8,0:0:0:0:
256,192,19934,1,8,0:0:0:0:
256,192,20015,1,8,0:0:0:0:
256,192,20097,1,0,0:0:0:0:
256,192,20178,1,0,0:0:0:0:
256,192,20260,1,8,0:0:0:0:
256,192,20341,1,0,0:0:0:0:
256,192,20423,1,8,0:0:0:0:
256,192,20504,1,8,0:0:0:0:
256,192,20586,1,8,0:0:0:0:
256,192,20749,1,4,0:0:0:0:
256,192,21075,1,0,0:0:0:0:
256,192,21238,1,8,0:0:0:0:
256,192,21401,1,0,0:0:0:0:
256,192,21483,1,0,0:0:0:0:
256,192,21564,1,8,0:0:0:0:
256,192,21727,1,8,0:0:0:0:
256,192,21809,1,8,0:0:0:0:
256,192,21890,1,8,0:0:0:0:
256,192,22053,1,4,0:0:0:0:
256,192,22379,1,0,0:0:0:0:
256,192,22542,1,8,0:0:0:0:
256,192,22706,1,8,0:0:0:0:
256,192,22787,1,0,0:0:0:0:
256,192,22869,1,8,0:0:0:0:
256,192,23032,1,8,0:0:0:0:
256,192,23113,1,8,0:0:0:0:
256,192,23195,1,8,0:0:0:0:
256,192,23276,1,8,0:0:0:0:
256,192,23358,1,0,0:0:0:0:
256,192,23439,1,0,0:0:0:0:
256,192,23521,1,8,0:0:0:0:
256,192,23602,1,8,0:0:0:0:
256,192,23684,1,0,0:0:0:0:
256,192,23765,1,8,0:0:0:0:
256,192,23847,1,0,0:0:0:0:
256,192,23928,1,8,0:0:0:0:
256,192,24010,1,8,0:0:0:0:
256,192,24091,1,0,0:0:0:0:
256,192,24173,1,8,0:0:0:0:
256,192,24254,1,0,0:0:0:0:
256,192,24336,1,0,0:0:0:0:
256,192,24417,1,8,0:0:0:0:
256,192,24499,1,8,0:0:0:0:
256,192,24581,1,0,0:0:0:0:
256,192,24662,1,0,0:0:0:0:
256,192,24744,1,0,0:0:0:0:
256,192,24825,1,8,0:0:0:0:
256,192,24907,1,0,0:0:0:0:
256,192,24988,1,8,0:0:0:0:
256,192,25070,1,8,0:0:0:0:
256,192,25151,1,8,0:0:0:0:
256,192,25233,1,0,0:0:0:0:
256,192,25314,1,0,0:0:0:0:
256,192,25396,1,8,0:0:0:0:
256,192,25477,1,8,0:0:0:0:
256,192,25559,1,0,0:0:0:0:
256,192,25640,1,8,0:0:0:0:
256,192,25722,1,0,0:0:0:0:
256,192,25803,1,8,0:0:0:0:
256,192,25885,1,8,0:0:0:0:
256,192,25966,1,0,0:0:0:0:
256,192,26048,1,0,0:0:0:0:
256,192,26129,1,8,0:0:0:0:
256,192,26211,1,0,0:0:0:0:
256,192,26292,1,0,0:0:0:0:
256,192,26374,1,8,0:0:0:0:
256,192,26456,1,8,0:0:0:0:
256,192,26537,1,0,0:0:0:0:
256,192,26619,1,8,0:0:0:0:
256,192,26700,1,0,0:0:0:0:
256,192,26782,1,8,0:0:0:0:
256,192,26863,1,8,0:0:0:0:
256,192,26945,1,8,0:0:0:0:
256,192,27026,1,0,0:0:0:0:
256,192,27108,1,8,0:0:0:0:
256,192,27189,1,8,0:0:0:0:
256,192,27271,1,0,0:0:0:0:
256,192,27352,1,0,0:0:0:0:
256,192,27434,1,8,0:0:0:0:
256,192,27515,1,0,0:0:0:0:
256,192,27597,1,8,0:0:0:0:
256,192,27678,1,8,0:0:0:0:
256,192,27760,1,8,0:0:0:0:
256,192,27841,1,0,0:0:0:0:
256,192,27923,1,8,0:0:0:0:
256,192,28004,1,0,0:0:0:0:
256,192,28086,1,8,0:0:0:0:
256,192,28167,1,8,0:0:0:0:
256,192,28249,1,0,0:0:0:0:
256,192,28331,1,0,0:0:0:0:
256,192,28412,1,8,0:0:0:0:
256,192,28494,1,8,0:0:0:0:
256,192,28575,1,8,0:0:0:0:
256,192,28657,1,8,0:0:0:0:
256,192,28738,1,0,0:0:0:0:
256,192,28901,1,0,0:0:0:0:
256,192,29064,1,8,0:0:0:0:
256,192,29146,1,8,0:0:0:0:
256,192,29227,1,0,0:0:0:0:
256,192,29309,1,0,0:0:0:0:
256,192,29390,1,8,0:0:0:0:
256,192,29635,1,0,0:0:0:0:
256,192,29879,1,8,0:0:0:0:
256,192,30042,1,8,0:0:0:0:
256,192,30206,1,0,0:0:0:0:
256,192,30287,1,0,0:0:0:0:
256,192,30369,1,8,0:0:0:0:
256,192,30450,1,8,0:0:0:0:
256,192,30532,1,0,0:0:0:0:
256,192,30695,1,8,0:0:0:0:
256,192,30858,1,8,0:0:0:0:
256,192,30939,1,8,0:0:0:0:
256,192,31021,1,8,0:0:0:0:
256,192,31102,1,8,0:0:0:0:
256,192,31184,1,0,0:0:0:0:
256,192,31510,1,0,0:0:0:0:
256,192,31673,1,8,0:0:0:0:
256,192,31999,1,0,0:0:0:0:
256,192,32162,1,0,0:0:0:0:
256,192,32325,1,8,0:0:0:0:
256,192,32651,1,0,0:0:0:0:
256,192,32814,1,0,0:0:0:0:
256,192,32977,1,8,0:0:0:0:
256,192,33140,1,8,0:0:0:0:
256,192,33222,1,0,0:0:0:0:
256,192,33303,1,0,0:0:0:0:
256,192,33466,1,0,0:0:0:0:
256,192,33629,1,8,0:0:0:0:
256,192,33792,1,4,0:0:0:0:
256,192,34119,1,8,0:0:0:0:
256,192,34282,1,0,0:0:0:0:
256,192,34445,1,8,0:0:0:0:
256,192,34608,1,8,0:0:0:0:
256,192,34771,1,0,0:0:0:0:
256,192,34852,1,8,0:0:0:0:
256,192,34934,1,8,0:0:0:0:
256,192,35097,1,4,0:0:0:0:
256,192,35423,1,0,0:0:0:0:
256,192,35586,1,8,0:0:0:0:
256,192,35749,1,8,0:0:0:0:
256,192,35831,1,8,0:0:0:0:
256,192,35912,1,8,0:0:0:0:
256,192,36075,1,0,0:0:0:0:
256,192,36238,1,8,0:0:0:0:
256,192,36401,1,4,0:0:0:0:
256,192,36727,1,0,0:0:0:0:
256,192,36890,1,8,0:0:0:0:
256,192,37216,1,0,0:0:0:0:
256,192,37379,1,0,0:0:0:0:
256,192,37542,1,8,0:0:0:0:
256,192,37869,1,0,0:0:0:0:
256,192,38032,1,0,0:0:0:0:
256,192,38195,1,8,0:0:0:0:
256,192,38358,1,0,0:0:0:0:
256,192,38521,1,0,0:0:0:0:
256,192,38602,1,0,0:0:0:0:
256,192,38684,1,8,0:0:0:0:
256,192,38847,1,8,0:0:0:0:
256,192,39010,1,4,0:0:0:0:
256,192,39336,1,0,0:0:0:0:
256,192,39499,1,8,0:0:0:0:
256,192,39662,1,8,0:0:0:0:
256,192,39744,1,0,0:0:0:0:
256,192,39825,1,0,0:0:0:0:
256,192,39988,1,0,0:0:0:0:
256,192,40151,1,8,0:0:0:0:
256,192,40314,1,4,0:0:0:0:
256,192,40640,1,8,0:0:0:0:
256,192,40722,1,8,0:0:0:0:
256,192,40803,1,0,0:0:0:0:
256,192,40966,1,8,0:0:0:0:
256,192,41048,1,8,0:0:0:0:
256,192,41129,1,8,0:0:0:0:
256,192,41292,1,0,0:0:0:0:
256,192,41374,1,0,0:0:0:0:
256,192,41456,1,8,0:0:0:0:
256,192,41619,1,4,0:0:0:0:
256,192,41945,1,0,0:0:0:0:
256,192,42108,1,12,0:0:0:0:
256,192,42434,1,0,0:0:0:0:
256,192,42597,1,0,0:0:0:0:
256,192,42760,1,8,0:0:0:0:
256,192,42923,1,4,0:0:0:0:
256,192,43249,1,0,0:0:0:0:
256,192,43412,1,8,0:0:0:0:
256,192,43575,1,8,0:0:0:0:
256,192,43657,1,8,0:0:0:0:
256,192,43738,1,0,0:0:0:0:
256,192,43901,1,0,0:0:0:0:
256,192,44064,1,8,0:0:0:0:
256,192,44227,1,4,0:0:0:0:
256,192,44553,1,0,0:0:0:0:
256,192,44716,1,8,0:0:0:0:
256,192,44879,1,0,0:0:0:0:
256,192,44961,1,0,0:0:0:0:
256,192,45042,1,8,0:0:0:0:
256,192,45206,1,8,0:0:0:0:
256,192,45369,1,0,0:0:0:0:
256,192,45532,1,12,0:0:0:0:
256,192,45858,1,8,0:0:0:0:
256,192,45939,1,8,0:0:0:0:
256,192,46021,1,8,0:0:0:0:
256,192,46184,1,0,0:0:0:0:
256,192,46265,1,0,0:0:0:0:
256,192,46347,1,0,0:0:0:0:
256,192,46510,1,0,0:0:0:0:
256,192,46591,1,8,0:0:0:0:
256,192,46673,1,8,0:0:0:0:
256,192,46836,1,4,0:0:0:0:
256,192,47162,1,0,0:0:0:0:
256,192,47325,1,8,0:0:0:0:
256,192,47488,1,0,0:0:0:0:
256,192,47651,1,0,0:0:0:0:
256,192,47814,1,0,0:0:0:0:
256,192,47977,1,8,0:0:0:0:
256,192,48140,1,4,0:0:0:0:
256,192,48466,1,0,0:0:0:0:
256,192,48629,1,8,0:0:0:0:
256,192,48792,1,8,0:0:0:0:
256,192,48874,1,8,0:0:0:0:
256,192,48956,1,0,0:0:0:0:
256,192,49119,1,0,0:0:0:0:
256,192,49282,1,8,0:0:0:0:
256,192,49445,1,4,0:0:0:0:
256,192,49771,1,0,0:0:0:0:
256,192,49934,1,8,0:0:0:0:
256,192,50097,1,0,0:0:0:0:
256,192,50260,1,0,0:0:0:0:
256,192,50423,1,0,0:0:0:0:
256,192,50586,1,8,0:0:0:0:
256,192,50749,1,0,0:0:0:0:
256,192,50831,1,0,0:0:0:0:
256,192,50912,1,0,0:0:0:0:
256,192,51075,1,0,0:0:0:0:
256,192,51238,1,12,0:0:0:0:
256,192,51401,1,0,0:0:0:0:
256,192,51564,1,4,0:0:0:0:
256,192,51727,1,0,0:0:0:0:
256,192,51890,1,12,0:0:0:0:
256,192,52216,1,4,0:0:0:0:
256,192,52869,1,8,0:0:0:0:
256,192,53358,1,0,0:0:0:0:
256,192,53521,1,0,0:0:0:0:
256,192,53847,1,0,0:0:0:0:
256,192,54173,1,8,0:0:0:0:
256,192,54499,1,0,0:0:0:0:
256,192,54825,1,0,0:0:0:0:
256,192,55477,1,8,0:0:0:0:
256,192,55966,1,0,0:0:0:0:
256,192,56129,1,0,0:0:0:0:
256,192,56456,1,0,0:0:0:0:
256,192,56782,1,8,0:0:0:0:
256,192,57108,1,8,0:0:0:0:
256,192,57271,1,0,0:0:0:0:
256,192,57434,1,0,0:0:0:0:
256,192,57760,1,0,0:0:0:0:
256,192,58086,1,8,0:0:0:0:
256,192,58575,1,0,0:0:0:0:
256,192,58738,1,0,0:0:0:0:
256,192,59064,1,0,0:0:0:0:
256,192,59390,1,8,0:0:0:0:
256,192,59716,1,0,0:0:0:0:
256,192,60042,1,0,0:0:0:0:
256,192,60532,1,0,0:0:0:0:
256,192,60695,1,8,0:0:0:0:
256,192,60858,1,0,0:0:0:0:
256,192,61021,1,0,0:0:0:0:
256,192,61184,1,0,0:0:0:0:
256,192,61347,1,12,0:0:0:0:
256,192,61510,1,0,0:0:0:0:
256,192,61673,1,0,0:0:0:0:
256,192,61836,1,12,0:0:0:0:
256,192,61999,1,0,0:0:0:0:
256,192,62162,1,0,0:0:0:0:
256,192,62325,1,12,0:0:0:0:
256,192,62651,1,4,0:0:0:0:
256,192,62977,1,8,0:0:0:0:
256,192,63140,1,0,0:0:0:0:
256,192,63222,1,0,0:0:0:0:
256,192,63303,1,0,0:0:0:0:
256,192,63466,1,0,0:0:0:0:
256,192,63629,1,8,0:0:0:0:
256,192,63792,1,0,0:0:0:0:
256,192,63956,1,0,0:0:0:0:
256,192,64282,1,8,0:0:0:0:
256,192,64363,1,8,0:0:0:0:
256,192,64445,1,0,0:0:0:0:
256,192,64608,1,0,0:0:0:0:
256,192,64771,1,0,0:0:0:0:
256,192,64934,1,8,0:0:0:0:
256,192,65260,1,0,0:0:0:0:
256,192,65586,1,8,0:0:0:0:
256,192,65912,1,0,0:0:0:0:
256,192,66075,1,8,0:0:0:0:
256,192,66238,1,8,0:0:0:0:
256,192,66320,1,0,0:0:0:0:
256,192,66401,1,8,0:0:0:0:
256,192,66564,1,0,0:0:0:0:
256,192,66890,1,12,0:0:0:0:
256,192,67053,1,0,0:0:0:0:
256,192,67135,1,0,0:0:0:0:
256,192,67216,1,0,0:0:0:0:
256,192,67379,1,0,0:0:0:0:
256,192,67542,1,12,0:0:0:0:
256,192,67869,1,4,0:0:0:0:
256,192,68195,1,8,0:0:0:0:
256,192,68358,1,0,0:0:0:0:
256,192,68521,1,0,0:0:0:0:
256,192,68684,1,0,0:0:0:0:
256,192,68847,1,8,0:0:0:0:
256,192,69010,1,0,0:0:0:0:
256,192,69091,1,0,0:0:0:0:
256,192,69173,1,0,0:0:0:0:
256,192,69336,1,0,0:0:0:0:
256,192,69499,1,8,0:0:0:0:
256,192,69662,1,0,0:0:0:0:
256,192,69825,1,0,0:0:0:0:
256,192,69988,1,8,0:0:0:0:
256,192,70151,1,0,0:0:0:0:
256,192,70314,1,12,0:0:0:0:
256,192,70640,1,0,0:0:0:0:
256,192,70803,1,8,0:0:0:0:
256,192,71048,1,8,0:0:0:0:
256,192,71129,1,0,0:0:0:0:
256,192,71292,1,8,0:0:0:0:
256,192,71456,1,0,0:0:0:0:
256,192,71537,1,8,0:0:0:0:
256,192,71619,1,0,0:0:0:0:
256,192,71782,1,8,0:0:0:0:
256,192,71945,1,0,0:0:0:0:
256,192,72108,1,8,0:0:0:0:
256,192,72271,1,8,0:0:0:0:
256,192,72352,1,8,0:0:0:0:
256,192,72434,1,8,0:0:0:0:
256,192,72597,1,0,0:0:0:0:
256,192,72760,1,8,0:0:0:0:
256,192,72841,1,8,0:0:0:0:
256,192,72923,1,0,0:0:0:0:
256,192,73086,1,8,0:0:0:0:
256,192,73167,1,0,0:0:0:0:
256,192,73249,1,0,0:0:0:0:
256,192,73331,1,8,0:0:0:0:
256,192,73412,1,0,0:0:0:0:
256,192,73494,1,0,0:0:0:0:
256,192,73575,1,8,0:0:0:0:
256,192,73657,1,8,0:0:0:0:
256,192,73738,1,0,0:0:0:0:
256,192,73820,1,0,0:0:0:0:
256,192,73901,1,8,0:0:0:0:
256,192,73983,1,0,0:0:0:0:
256,192,74064,1,8,0:0:0:0:
256,192,74146,1,8,0:0:0:0:
256,192,74227,1,8,0:0:0:0:
256,192,74309,1,0,0:0:0:0:
256,192,74390,1,8,0:0:0:0:
256,192,74472,1,0,0:0:0:0:
256,192,74553,1,8,0:0:0:0:
256,192,74635,1,8,0:0:0:0:
256,192,74716,1,8,0:0:0:0:
256,192,74798,1,0,0:0:0:0:
256,192,74879,1,8,0:0:0:0:
256,192,74961,1,8,0:0:0:0:
256,192,75042,1,8,0:0:0:0:
256,192,75124,1,0,0:0:0:0:
256,192,75206,1,0,0:0:0:0:
256,192,75287,1,8,0:0:0:0:
256,192,75369,1,8,0:0:0:0:
256,192,75532,1,8,0:0:0:0:
256,192,75695,1,4,0:0:0:0:
256,192,75858,1,8,0:0:0:0:
256,192,76021,1,0,0:0:0:0:
256,192,76102,1,0,0:0:0:0:
256,192,76184,1,8,0:0:0:0:
256,192,76347,1,0,0:0:0:0:
256,192,76428,1,0,0:0:0:0:
256,192,76510,1,8,0:0:0:0:
256,192,76591,1,8,0:0:0:0:
256,192,76673,1,0,0:0:0:0:
256,192,76754,1,0,0:0:0:0:
256,192,76836,1,8,0:0:0:0:
256,192,76999,1,0,0:0:0:0:
256,192,77162,1,8,0:0:0:0:
256,192,77244,1,8,0:0:0:0:
256,192,77325,1,8,0:0:0:0:
256,192,77488,1,0,0:0:0:0:
256,192,77651,1,8,0:0:0:0:
256,192,77814,1,0,0:0:0:0:
256,192,77977,1,8,0:0:0:0:
256,192,78059,1,8,0:0:0:0:
256,192,78140,1,0,0:0:0:0:
256,192,78222,1,0,0:0:0:0:
256,192,78303,1,0,0:0:0:0:
256,192,78466,1,8,0:0:0:0:
256,192,78629,1,8,0:0:0:0:
256,192,78711,1,8,0:0:0:0:
256,192,78792,1,0,0:0:0:0:
256,192,78956,1,0,0:0:0:0:
256,192,79037,1,0,0:0:0:0:
256,192,79119,1,8,0:0:0:0:
256,192,79200,1,0,0:0:0:0:
256,192,79282,1,8,0:0:0:0:
256,192,79445,1,0,0:0:0:0:
256,192,79608,1,8,0:0:0:0:
256,192,79771,1,0,0:0:0:0:
256,192,79852,1,8,0:0:0:0:
256,192,79934,1,0,0:0:0:0:
256,192,80097,1,8,0:0:0:0:
256,192,80260,1,0,0:0:0:0:
256,192,80341,1,0,0:0:0:0:
256,192,80423,1,8,0:0:0:0:
256,192,80504,1,8,0:0:0:0:
256,192,80586,1,8,0:0:0:0:
256,192,80749,1,8,0:0:0:0:
256,192,80831,1,8,0:0:0:0:
256,192,80912,1,0,0:0:0:0:
256,192,81075,1,8,0:0:0:0:
256,192,81238,1,0,0:0:0:0:
256,192,81320,1,0,0:0:0:0:
256,192,81401,1,8,0:0:0:0:
256,192,81564,1,0,0:0:0:0:
256,192,81727,1,8,0:0:0:0:
256,192,81809,1,0,0:0:0:0:
256,192,81890,1,8,0:0:0:0:
256,192,81972,1,8,0:0:0:0:
256,192,82053,1,0,0:0:0:0:
256,192,82135,1,0,0:0:0:0:
256,192,82216,1,8,0:0:0:0:
256,192,82379,1,0,0:0:0:0:
256,192,82461,1,0,0:0:0:0:
256,192,82542,1,0,0:0:0:0:
256,192,82706,1,8,0:0:0:0:
256,192,82869,1,8,0:0:0:0:
256,192,82950,1,0,0:0:0:0:
256,192,83032,1,0,0:0:0:0:
256,192,83113,1,0,0:0:0:0:
256,192,83195,1,8,0:0:0:0:
256,192,83358,1,0,0:0:0:0:
256,192,83521,1,0,0:0:0:0:
256,192,83602,1,0,0:0:0:0:
256,192,83684,1,8,0:0:0:0:
256,192,83765,1,0,0:0:0:0:
256,192,83847,1,0,0:0:0:0:
256,192,83928,1,0,0:0:0:0:
256,192,84010,1,8,0:0:0:0:
256,192,84091,1,0,0:0:0:0:
256,192,84173,1,0,0:0:0:0:
256,192,84254,1,0,0:0:0:0:
256,192,84336,1,8,0:0:0:0:
256,192,84417,1,0,0:0:0:0:
256,192,84499,1,8,0:0:0:0:
256,192,84581,1,8,0:0:0:0:
256,192,84662,1,0,0:0:0:0:
256,192,84825,1,0,0:0:0:0:
256,192,84907,1,0,0:0:0:0:
256,192,84988,1,8,0:0:0:0:
256,192,85070,1,0,0:0:0:0:
256,192,85151,1,8,0:0:0:0:
256,192,85233,1,0,0:0:0:0:
256,192,85314,1,8,0:0:0:0:
256,192,85396,1,0,0:0:0:0:
256,192,85477,1,8,0:0:0:0:
256,192,85559,1,8,0:0:0:0:
256,192,85640,1,8,0:0:0:0:
256,192,85722,1,8,0:0:0:0:
256,192,85803,1,8,0:0:0:0:
256,192,85885,1,8,0:0:0:0:
256,192,85966,1,0,0:0:0:0:
256,192,86048,1,0,0:0:0:0:
256,192,86129,1,8,0:0:0:0:
256,192,86292,1,0,0:0:0:0:
256,192,86374,1,0,0:0:0:0:
256,192,86456,1,8,0:0:0:0:
256,192,86537,1,8,0:0:0:0:
256,192,86619,1,0,0:0:0:0:
256,192,86700,1,8,0:0:0:0:
256,192,86782,1,0,0:0:0:0:
256,192,86863,1,0,0:0:0:0:
256,192,86945,1,8,0:0:0:0:
256,192,87026,1,8,0:0:0:0:
256,192,87108,1,0,0:0:0:0:
256,192,87271,1,0,0:0:0:0:
256,192,87352,1,0,0:0:0:0:
256,192,87434,1,8,0:0:0:0:
256,192,87597,1,8,0:0:0:0:
256,192,87678,1,0,0:0:0:0:
256,192,87760,1,8,0:0:0:0:
256,192,87841,1,8,0:0:0:0:
256,192,87923,1,0,0:0:0:0:
256,192,88004,1,8,0:0:0:0:
256,192,88086,1,0,0:0:0:0:
256,192,88167,1,0,0:0:0:0:
256,192,88249,1,8,0:0:0:0:
256,192,88331,1,0,0:0:0:0:
256,192,88412,1,8,0:0:0:0:
256,192,88575,1,0,0:0:0:0:
256,192,88657,1,0,0:0:0:0:
256,192,88738,1,8,0:0:0:0:
256,192,88901,1,8,0:0:0:0:
256,192,88983,1,0,0:0:0:0:
256,192,89064,1,8,0:0:0:0:
256,192,89227,1,8,0:0:0:0:
256,192,89309,1,8,0:0:0:0:
256,192,89390,1,8,0:0:0:0:
256,192,89472,1,8,0:0:0:0:
256,192,89553,1,0,0:0:0:0:
256,192,89716,1,8,0:0:0:0:
256,192,89798,1,8,0:0:0:0:
256,192,89879,1,0,0:0:0:0:
256,192,89961,1,0,0:0:0:0:
256,192,90042,1,8,0:0:0:0:
256,192,90206,1,0,0:0:0:0:
256,192,90287,1,0,0:0:0:0:
256,192,90369,1,8,0:0:0:0:
256,192,90532,1,0,0:0:0:0:
256,192,90695,1,8,0:0:0:0:
256,192,90858,1,8,0:0:0:0:
256,192,90939,1,8,0:0:0:0:
256,192,91021,1,8,0:0:0:0:
256,192,91184,1,0,0:0:0:0:
256,192,91347,1,8,0:0:0:0:
256,192,91510,1,0,0:0:0:0:
256,192,91591,1,0,0:0:0:0:
256,192,91673,1,0,0:0:0:0:
256,192,91836,1,8,0:0:0:0:
256,192,91917,1,8,0:0:0:0:
256,192,91999,1,0,0:0:0:0:
256,192,92081,1,8,0:0:0:0:
256,192,92162,1,0,0:0:0:0:
256,192,92244,1,0,0:0:0:0:
256,192,92325,1,8,0:0:0:0:
256,192,92407,1,8,0:0:0:0:
256,192,92488,1,0,0:0:0:0:
256,192,92651,1,0,0:0:0:0:
256,192,92814,1,8,0:0:0:0:
256,192,92896,1,8,0:0:0:0:
256,192,92977,1,0,0:0:0:0:
256,192,93140,1,0,0:0:0:0:
256,192,93303,1,8,0:0:0:0:
256,192,93385,1,0,0:0:0:0:
256,192,93466,1,0,0:0:0:0:
256,192,93548,1,8,0:0:0:0:
256,192,93629,1,0,0:0:0:0:
256,192,93711,1,0,0:0:0:0:
256,192,93792,1,8,0:0:0:0:
256,192,93956,1,8,0:0:0:0:
256,192,94119,1,0,0:0:0:0:
256,192,94200,1,0,0:0:0:0:
256,192,94282,1,8,0:0:0:0:
256,192,94445,1,0,0:0:0:0:
256,192,94526,1,0,0:0:0:0:
256,192,94608,1,8,0:0:0:0:
256,192,94771,1,0,0:0:0:0:
256,192,94934,1,8,0:0:0:0:
256,192,95015,1,8,0:0:0:0:
256,192,95097,1,0,0:0:0:0:
256,192,95178,1,0,0:0:0:0:
256,192,95260,1,8,0:0:0:0:
256,192,95341,1,0,0:0:0:0:
256,192,95423,1,0,0:0:0:0:
256,192,95504,1,0,0:0:0:0:
256,192,95586,1,0,0:0:0:0:
256,192,95667,1,0,0:0:0:0:
256,192,95749,1,8,0:0:0:0:
256,192,95831,1,8,0:0:0:0:
256,192,95912,1,0,0:0:0:0:
256,192,95994,1,0,0:0:0:0:
256,192,96075,1,0,0:0:0:0:
256,192,96157,1,0,0:0:0:0:
256,192,96238,1,8,0:0:0:0:
256,192,96320,1,8,0:0:0:0:
256,192,96401,1,8,0:0:0:0:
256,192,96483,1,8,0:0:0:0:
256,192,96564,1,0,0:0:0:0:
256,192,96727,1,0,0:0:0:0:
256,192,96890,1,0,0:0:0:0:
256,192,97053,1,0,0:0:0:0:
256,192,97216,1,8,0:0:0:0:
256,192,97379,1,0,0:0:0:0:
256,192,97542,1,8,0:0:0:0:
256,192,97706,1,8,0:0:0:0:
256,192,97869,1,0,0:0:0:0:
256,192,98032,1,0,0:0:0:0:
256,192,98195,1,0,0:0:0:0:
256,192,98358,1,8,0:0:0:0:
256,192,98521,1,8,0:0:0:0:
256,192,98684,1,8,0:0:0:0:
256,192,98847,1,0,0:0:0:0:
256,192,99010,1,8,0:0:0:0:
256,192,99173,1,0,0:0:0:0:
256,192,99336,1,0,0:0:0:0:
256,192,99499,1,8,0:0:0:0:
256,192,99662,1,8,0:0:0:0:
256,192,99825,1,0,0:0:0:0:
256,192,99988,1,8,0:0:0:0:
256,192,100151,1,0,0:0:0:0:
256,192,100314,1,8,0:0:0:0:
256,192,100477,1,8,0:0:0:0:
256,192,100640,1,8,0:0:0:0:
256,192,100803,1,0,0:0:0:0:
256,192,100966,1,8,0:0:0:0:
256,192,101129,1,8,0:0:0:0:
256,192,101292,1,0,0:0:0:0:
256,192,101456,1,8,0:0:0:0:
256,192,101619,1,0,0:0:0:0:
256,192,101782,1,8,0:0:0:0:
256,192,101863,1,8,0:0:0:0:
256,192,101945,1,0,0:0:0:0:
256,192,102026,1,0,0:0:0:0:
256,192,102108,1,8,0:0:0:0:
256,192,102597,1,8,0:0:0:0:
256,192,102678,1,8,0:0:0:0:
256,192,102760,1,8,0:0:0:0:
256,192,102841,1,8,0:0:0:0:
256,192,102923,1,0,0:0:0:0:
256,192,103086,1,0,0:0:0:0:
256,192,103167,1,8,0:0:0:0:
256,192,103249,1,0,0:0:0:0:
256,192,103331,1,8,0:0:0:0:
256,192,103412,1,8,0:0:0:0:
256,192,103494,1,8,0:0:0:0:
256,192,103575,1,0,0:0:0:0:
256,192,103657,1,0,0:0:0:0:
256,192,103738,1,8,0:0:0:0:
256,192,103820,1,8,0:0:0:0:
256,192,103901,1,8,0:0:0:0:
256,192,103983,1,8,0:0:0:0:
256,192,104064,1,8,0:0:0:0:
256,192,104146,1,8,0:0:0:0:
256,192,104227,1,0,0:0:0:0:
256,192,104390,1,8,0:0:0:0:
256,192,104472,1,8,0:0:0:0:
256,192,104553,1,0,0:0:0:0:
256,192,104635,1,8,0:0:0:0:
256,192,104716,1,0,0:0:0:0:
256,192,105042,1,8,0:0:0:0:
256,192,105206,1,0,0:0:0:0:
256,192,105287,1,8,0:0:0:0:
256,192,105369,1,8,0:0:0:0:
256,192,105450,1,0,0:0:0:0:
256,192,105532,1,0,0:0:0:0:
256,192,105695,1,8,0:0:0:0:
256,192,105776,1,8,0:0:0:0:
256,192,105939,1,8,0:0:0:0:
256,192,106102,1,8,0:0:0:0:
256,192,106265,1,8,0:0:0:0:
256,192,106428,1,8,0:0:0:0:
256,192,106591,1,8,0:0:0:0:
256,192,106673,1,8,0:0:0:0:
256,192,106754,1,8,0:0:0:0:
256,192,106836,1,8,0:0:0:0:
256,192,106917,1,8,0:0:0:0:
256,192,106999,1,0,0:0:0:0:
256,192,107162,1,8,0:0:0:0:
256,192,107325,1,8,0:0:0:0:
256,192,107407,1,0,0:0:0:0:
256,192,107488,1,0,0:0:0:0:
256,192,107570,1,0,0:0:0:0:
256,192,107651,1,0,0:0:0:0:
256,192,107733,1,8,0:0:0:0:
256,192,107814,1,8,0:0:0:0:
256,192,107896,1,8,0:0:0:0:
256,192,107977,1,8,0:0:0:0:
256,192,108059,1,0,0:0:0:0:
256,192,108140,1,0,0:0:0:0:
256,192,108222,1,0,0:0:0:0:
256,192,108303,1,0,0:0:0:0:
256,192,108385,1,8,0:0:0:0:
256,192,108548,1,0,0:0:0:0:
256,192,108711,1,8,0:0:0:0:
256,192,108874,1,0,0:0:0:0:
256,192,108956,1,8,0:0:0:0:
256,192,109037,1,8,0:0:0:0:
256,192,109119,1,0,0:0:0:0:
256,192,109200,1,8,0:0:0:0:
256,192,109363,1,8,0:0:0:0:
256,192,109445,1,0,0:0:0:0:
256,192,109608,1,8,0:0:0:0:
256,192,109771,1,0,0:0:0:0:
256,192,109852,1,8,0:0:0:0:
256,192,109934,1,8,0:0:0:0:
256,192,110015,1,0,0:0:0:0:
256,192,110097,1,8,0:0:0:0:
256,192,110178,1,8,0:0:0:0:
256,192,110260,1,8,0:0:0:0:
256,192,110341,1,0,0:0:0:0:
256,192,110423,1,0,0:0:0:0:
256,192,110504,1,8,0:0:0:0:
256,192,110586,1,8,0:0:0:0:
256,192,110667,1,0,0:0:0:0:
256,192,110749,1,8,0:0:0:0:
256,192,110831,1,0,0:0:0:0:
256,192,110912,1,0,0:0:0:0:
256,192,110994,1,8,0:0:0:0:
256,192,111075,1,8,0:0:0:0:
256,192,111157,1,0,0:0:0:0:
256,192,111238,1,8,0:0:0:0:
256,192,111401,1,0,0:0:0:0:
256,192,111646,1,8,0:0:0:0:
256,192,111727,1,8,0:0:0:0:
256,192,111809,1,0,0:0:0:0:
256,192,111890,1,8,0:0:0:0:
256,192,112053,1,8,0:0:0:0:
256,192,112298,1,8,0:0:0:0:
256,192,112379,1,8,0:0:0:0:
256,192,112461,1,0,0:0:0:0:
256,192,112542,1,8,0:0:0:0:
256,192,112706,1,8,0:0:0:0:
256,192,112950,1,8,0:0:0:0:
256,192,113032,1,8,0:0:0:0:
256,192,113113,1,0,0:0:0:0:
256,192,113195,1,8,0:0:0:0:
256,192,113276,1,8,0:0:0:0:
256,192,113358,1,0,0:0:0:0:
256,192,113439,1,0,0:0:0:0:
256,192,113521,1,8,0:0:0:0:
256,192,113602,1,8,0:0:0:0:
256,192,113684,1,0,0:0:0:0:
256,192,113765,1,0,0:0:0:0:
256,192,113847,1,8,0:0:0:0:
256,192,114010,1,8,0:0:0:0:
256,192,114091,1,8,0:0:0:0:
256,192,114173,1,0,0:0:0:0:
256,192,114254,1,0,0:0:0:0:
256,192,114336,1,0,0:0:0:0:
256,192,114499,1,8,0:0:0:0:
256,192,114580,1,0,0:0:0:0:
256,192,114662,1,8,0:0:0:0:
256,192,114743,1,0,0:0:0:0:
256,192,114825,1,0,0:0:0:0:
256,192,114906,1,8,0:0:0:0:
256,192,114988,1,8,0:0:0:0:
256,192,115069,1,0,0:0:0:0:
256,192,115151,1,8,0:0:0:0:
256,192,115232,1,8,0:0:0:0:
256,192,115314,1,0,0:0:0:0:
256,192,115396,1,0,0:0:0:0:
256,192,115477,1,0,0:0:0:0:
256,192,115640,1,8,0:0:0:0:
256,192,115722,1,8,0:0:0:0:
256,192,115803,1,0,0:0:0:0:
256,192,115885,1,0,0:0:0:0:
256,192,115966,1,0,0:0:0:0:
256,192,116129,1,8,0:0:0:0:
256,192,116211,1,0,0:0:0:0:
256,192,116292,1,0,0:0:0:0:
256,192,116374,1,8,0:0:0:0:
256,192,116455,1,8,0:0:0:0:
256,192,116537,1,0,0:0:0:0:
256,192,116618,1,0,0:0:0:0:
256,192,116700,1,8,0:0:0:0:
256,192,116781,1,8,0:0:0:0:
256,192,116863,1,8,0:0:0:0:
256,192,116944,1,0,0:0:0:0:
256,192,117026,1,0,0:0:0:0:
256,192,117107,1,0,0:0:0:0:
256,192,117271,1,8,0:0:0:0:
256,192,117352,1,8,0:0:0:0:
256,192,117434,1,0,0:0:0:0:
256,192,117515,1,0,0:0:0:0:
256,192,117597,1,0,0:0:0:0:
256,192,117760,1,8,0:0:0:0:
256,192,117841,1,0,0:0:0:0:
256,192,117923,1,8,0:0:0:0:
256,192,118004,1,0,0:0:0:0:
256,192,118086,1,0,0:0:0:0:
256,192,118167,1,8,0:0:0:0:
256,192,118249,1,8,0:0:0:0:
256,192,118330,1,0,0:0:0:0:
256,192,118412,1,8,0:0:0:0:
256,192,118493,1,8,0:0:0:0:
256,192,118575,1,0,0:0:0:0:
256,192,118656,1,0,0:0:0:0:
256,192,118738,1,0,0:0:0:0:
256,192,118901,1,8,0:0:0:0:
256,192,118982,1,8,0:0:0:0:
256,192,119064,1,0,0:0:0:0:
256,192,119146,1,0,0:0:0:0:
256,192,119227,1,0,0:0:0:0:
256,192,119390,1,8,0:0:0:0:
256,192,119472,1,0,0:0:0:0:
256,192,119553,1,8,0:0:0:0:
256,192,119635,1,0,0:0:0:0:
256,192,119716,1,0,0:0:0:0:
256,192,119798,1,8,0:0:0:0:
256,192,119879,1,0,0:0:0:0:
256,192,119961,1,8,0:0:0:0:
256,192,120042,1,8,0:0:0:0:
256,192,120124,1,8,0:0:0:0:
256,192,120205,1,0,0:0:0:0:
256,192,120287,1,0,0:0:0:0:
256,192,120368,1,0,0:0:0:0:
256,192,120531,1,8,0:0:0:0:
256,192,120613,1,8,0:0:0:0:
256,192,120694,1,0,0:0:0:0:
256,192,120776,1,0,0:0:0:0:
256,192,120857,1,0,0:0:0:0:
256,192,121021,1,8,0:0:0:0:
256,192,121102,1,0,0:0:0:0:
256,192,121184,1,8,0:0:0:0:
256,192,121265,1,0,0:0:0:0:
256,192,121347,1,0,0:0:0:0:
256,192,121428,1,8,0:0:0:0:
256,192,121510,1,8,0:0:0:0:
256,192,121591,1,0,0:0:0:0:
256,192,121673,1,8,0:0:0:0:
256,192,121754,1,8,0:0:0:0:
256,192,121836,1,0,0:0:0:0:
256,192,121917,1,0,0:0:0:0:
256,192,121999,1,0,0:0:0:0:
256,192,122162,1,8,0:0:0:0:
256,192,122243,1,8,0:0:0:0:
256,192,122325,1,0,0:0:0:0:
256,192,122406,1,0,0:0:0:0:
256,192,122488,1,0,0:0:0:0:
256,192,122651,1,8,0:0:0:0:
256,192,122732,1,0,0:0:0:0:
256,192,122814,1,0,0:0:0:0:
256,192,122896,1,8,0:0:0:0:
256,192,122977,1,8,0:0:0:0:
256,192,123059,1,0,0:0:0:0:
256,192,123140,1,0,0:0:0:0:
256,192,123222,1,8,0:0:0:0:
256,192,123303,1,8,0:0:0:0:
256,192,123385,1,8,0:0:0:0:
256,192,123466,1,0,0:0:0:0:
256,192,123548,1,0,0:0:0:0:
256,192,123629,1,0,0:0:0:0:
256,192,123792,1,8,0:0:0:0:
256,192,123874,1,8,0:0:0:0:
256,192,123955,1,0,0:0:0:0:
256,192,124037,1,0,0:0:0:0:
256,192,124118,1,0,0:0:0:0:
256,192,124281,1,8,0:0:0:0:
256,192,124363,1,0,0:0:0:0:
256,192,124444,1,8,0:0:0:0:
256,192,124526,1,0,0:0:0:0:
256,192,124607,1,0,0:0:0:0:
256,192,124689,1,8,0:0:0:0:
256,192,124771,1,8,0:0:0:0:
256,192,124852,1,0,0:0:0:0:
256,192,124934,1,8,0:0:0:0:
256,192,125015,1,8,0:0:0:0:
256,192,125097,1,0,0:0:0:0:
256,192,125178,1,0,0:0:0:0:
256,192,125260,1,0,0:0:0:0:
256,192,125423,1,8,0:0:0:0:
256,192,125504,1,8,0:0:0:0:
256,192,125586,1,0,0:0:0:0:
256,192,125667,1,0,0:0:0:0:
256,192,125749,1,0,0:0:0:0:
256,192,125912,1,8,0:0:0:0:
256,192,125993,1,0,0:0:0:0:
256,192,126075,1,8,0:0:0:0:
256,192,126156,1,0,0:0:0:0:
256,192,126238,1,0,0:0:0:0:
256,192,126319,1,8,0:0:0:0:
256,192,126401,1,8,0:0:0:0:
256,192,126482,1,0,0:0:0:0:
256,192,126564,1,8,0:0:0:0:
256,192,126727,1,8,0:0:0:0:
256,192,126890,1,0,0:0:0:0:
256,192,127053,1,8,0:0:0:0:
256,192,127216,1,0,0:0:0:0:
256,192,127379,1,8,0:0:0:0:
256,192,127542,1,0,0:0:0:0:
256,192,127623,1,8,0:0:0:0:
256,192,127705,1,8,0:0:0:0:
256,192,127868,1,0,0:0:0:0:
256,192,128031,1,8,0:0:0:0:
256,192,128194,1,0,0:0:0:0:
256,192,128357,1,8,0:0:0:0:
256,192,128520,1,0,0:0:0:0:
256,192,128683,1,4,0:0:0:0:
256,192,128846,1,4,0:0:0:0:
256,192,129009,1,4,0:0:0:0:
256,192,129172,1,0,0:0:0:0:
256,192,129254,1,8,0:0:0:0:
256,192,129335,1,8,0:0:0:0:
256,192,129417,1,8,0:0:0:0:
256,192,129498,1,0,0:0:0:0:
256,192,129580,1,8,0:0:0:0:
256,192,129661,1,8,0:0:0:0:
256,192,129743,1,8,0:0:0:0:
256,192,129824,1,0,0:0:0:0:
256,192,129906,1,8,0:0:0:0:
256,192,129987,1,8,0:0:0:0:
256,192,130069,1,8,0:0:0:0:
256,192,130150,1,8,0:0:0:0:
256,192,130232,1,0,0:0:0:0:
256,192,130314,1,0,0:0:0:0:
256,192,130395,1,8,0:0:0:0:
256,192,130477,1,8,0:0:0:0:
256,192,130640,1,8,0:0:0:0:
256,192,130803,1,0,0:0:0:0:
256,192,130966,1,12,0:0:0:0:
256,192,131129,1,0,0:0:0:0:
256,192,131292,1,12,0:0:0:0:
256,192,131455,1,8,0:0:0:0:
256,192,131536,1,8,0:0:0:0:
256,192,131618,1,8,0:0:0:0:
256,192,131699,1,8,0:0:0:0:
256,192,131781,1,0,0:0:0:0:
256,192,131862,1,0,0:0:0:0:
256,192,131944,1,8,0:0:0:0:
256,192,132025,1,0,0:0:0:0:
256,192,132107,1,0,0:0:0:0:
256,192,132189,1,0,0:0:0:0:
256,192,132270,1,8,0:0:0:0:
256,192,132352,1,8,0:0:0:0:
256,192,132433,1,0,0:0:0:0:
256,192,132515,1,0,0:0:0:0:
256,192,132596,1,8,0:0:0:0:
256,192,132678,1,0,0:0:0:0:
256,192,132759,1,8,0:0:0:0:
256,192,132841,1,0,0:0:0:0:
256,192,132922,1,8,0:0:0:0:
256,192,133004,1,8,0:0:0:0:
256,192,133085,1,0,0:0:0:0:
256,192,133167,1,0,0:0:0:0:
256,192,133248,1,8,0:0:0:0:
256,192,133330,1,8,0:0:0:0:
256,192,133411,1,0,0:0:0:0:
256,192,133493,1,0,0:0:0:0:
256,192,133574,1,8,0:0:0:0:
256,192,133656,1,0,0:0:0:0:
256,192,133737,1,8,0:0:0:0:
256,192,133819,1,0,0:0:0:0:
256,192,133900,1,8,0:0:0:0:
256,192,133982,1,8,0:0:0:0:
256,192,134064,1,0,0:0:0:0:
256,192,134145,1,0,0:0:0:0:
256,192,134227,1,8,0:0:0:0:
256,192,134308,1,8,0:0:0:0:
256,192,134390,1,0,0:0:0:0:
256,192,134471,1,0,0:0:0:0:
256,192,134553,1,8,0:0:0:0:
256,192,134634,1,0,0:0:0:0:
256,192,134716,1,0,0:0:0:0:
256,192,134797,1,0,0:0:0:0:
256,192,134879,1,8,0:0:0:0:
256,192,134960,1,8,0:0:0:0:
256,192,135042,1,0,0:0:0:0:
256,192,135123,1,0,0:0:0:0:
256,192,135205,1,8,0:0:0:0:
256,192,135286,1,0,0:0:0:0:
256,192,135368,1,8,0:0:0:0:
256,192,135449,1,0,0:0:0:0:
256,192,135531,1,8,0:0:0:0:
256,192,135612,1,8,0:0:0:0:
256,192,135694,1,0,0:0:0:0:
256,192,135775,1,0,0:0:0:0:
256,192,135857,1,8,0:0:0:0:
256,192,135939,1,8,0:0:0:0:
256,192,136020,1,0,0:0:0:0:
256,192,136102,1,0,0:0:0:0:
256,192,136183,1,8,0:0:0:0:
256,192,136265,1,0,0:0:0:0:
256,192,136346,1,8,0:0:0:0:
256,192,136428,1,0,0:0:0:0:
256,192,136509,1,8,0:0:0:0:
256,192,136591,1,8,0:0:0:0:
256,192,136672,1,0,0:0:0:0:
256,192,136754,1,0,0:0:0:0:
256,192,136835,1,8,0:0:0:0:
256,192,136917,1,8,0:0:0:0:
256,192,136998,1,0,0:0:0:0:
256,192,137080,1,0,0:0:0:0:
256,192,137161,1,8,0:0:0:0:
256,192,137243,1,0,0:0:0:0:
256,192,137324,1,0,0:0:0:0:
256,192,137406,1,0,0:0:0:0:
256,192,137487,1,8,0:0:0:0:
256,192,137569,1,8,0:0:0:0:
256,192,137650,1,0,0:0:0:0:
256,192,137732,1,0,0:0:0:0:
256,192,137814,1,8,0:0:0:0:
256,192,137895,1,0,0:0:0:0:
256,192,137977,1,8,0:0:0:0:
256,192,138058,1,0,0:0:0:0:
256,192,138140,1,8,0:0:0:0:
256,192,138221,1,8,0:0:0:0:
256,192,138303,1,0,0:0:0:0:
256,192,138384,1,0,0:0:0:0:
256,192,138466,1,8,0:0:0:0:
256,192,138547,1,8,0:0:0:0:
256,192,138629,1,0,0:0:0:0:
256,192,138710,1,0,0:0:0:0:
256,192,138792,1,8,0:0:0:0:
256,192,138873,1,0,0:0:0:0:
256,192,138955,1,8,0:0:0:0:
256,192,139036,1,0,0:0:0:0:
256,192,139118,1,8,0:0:0:0:
256,192,139199,1,8,0:0:0:0:
256,192,139281,1,0,0:0:0:0:
256,192,139362,1,0,0:0:0:0:
256,192,139444,1,8,0:0:0:0:
256,192,139525,1,8,0:0:0:0:
256,192,139607,1,0,0:0:0:0:
256,192,139689,1,0,0:0:0:0:
256,192,139770,1,8,0:0:0:0:
256,192,139852,1,0,0:0:0:0:
256,192,139933,1,0,0:0:0:0:
256,192,140015,1,0,0:0:0:0:
256,192,140096,1,8,0:0:0:0:
256,192,140178,1,8,0:0:0:0:
256,192,140259,1,0,0:0:0:0:
256,192,140341,1,0,0:0:0:0:
256,192,140422,1,8,0:0:0:0:
256,192,140504,1,0,0:0:0:0:
256,192,140585,1,8,0:0:0:0:
256,192,140667,1,0,0:0:0:0:
256,192,140748,1,8,0:0:0:0:
256,192,140830,1,8,0:0:0:0:
256,192,140911,1,0,0:0:0:0:
256,192,140993,1,0,0:0:0:0:
256,192,141074,1,8,0:0:0:0:
256,192,141156,1,8,0:0:0:0:
256,192,141237,1,0,0:0:0:0:
256,192,141319,1,0,0:0:0:0:
256,192,141400,1,8,0:0:0:0:
256,192,141482,1,0,0:0:0:0:
256,192,141564,1,8,0:0:0:0:
256,192,141645,1,8,0:0:0:0:
256,192,141727,1,8,0:0:0:0:
256,192,141808,1,8,0:0:0:0:
256,192,141890,1,8,0:0:0:0:
256,192,141971,1,0,0:0:0:0:
256,192,142053,1,8,0:0:0:0:
256,192,142216,1,0,0:0:0:0:
256,192,142297,1,0,0:0:0:0:
256,192,142379,1,8,0:0:0:0:
256,192,142460,1,0,0:0:0:0:
256,192,142542,1,0,0:0:0:0:
256,192,142623,1,0,0:0:0:0:
256,192,142705,1,8,0:0:0:0:
256,192,142786,1,8,0:0:0:0:
256,192,142868,1,0,0:0:0:0:
256,192,142949,1,0,0:0:0:0:
256,192,143031,1,8,0:0:0:0:
256,192,143112,1,0,0:0:0:0:
256,192,143194,1,8,0:0:0:0:
256,192,143275,1,0,0:0:0:0:
256,192,143357,1,8,0:0:0:0:
256,192,143439,1,8,0:0:0:0:
256,192,143520,1,0,0:0:0:0:
256,192,143602,1,0,0:0:0:0:
256,192,143683,1,8,0:0:0:0:
256,192,143765,1,8,0:0:0:0:
256,192,143846,1,0,0:0:0:0:
256,192,143928,1,0,0:0:0:0:
256,192,144009,1,8,0:0:0:0:
256,192,144091,1,0,0:0:0:0:
256,192,144172,1,8,0:0:0:0:
256,192,144254,1,0,0:0:0:0:
256,192,144335,1,8,0:0:0:0:
256,192,144417,1,8,0:0:0:0:
256,192,144498,1,0,0:0:0:0:
256,192,144580,1,0,0:0:0:0:
256,192,144661,1,8,0:0:0:0:
256,192,144743,1,8,0:0:0:0:
256,192,144824,1,0,0:0:0:0:
256,192,144906,1,0,0:0:0:0:
256,192,144987,1,8,0:0:0:0:
256,192,145069,1,0,0:0:0:0:
256,192,145150,1,0,0:0:0:0:
256,192,145232,1,0,0:0:0:0:
256,192,145314,1,8,0:0:0:0:
256,192,145395,1,8,0:0:0:0:
256,192,145477,1,0,0:0:0:0:
256,192,145558,1,0,0:0:0:0:
256,192,145640,1,8,0:0:0:0:
256,192,145721,1,0,0:0:0:0:
256,192,145803,1,8,0:0:0:0:
256,192,145884,1,0,0:0:0:0:
256,192,145966,1,8,0:0:0:0:
256,192,146047,1,8,0:0:0:0:
256,192,146129,1,0,0:0:0:0:
256,192,146210,1,0,0:0:0:0:
256,192,146292,1,8,0:0:0:0:
256,192,146373,1,8,0:0:0:0:
256,192,146455,1,0,0:0:0:0:
256,192,146536,1,0,0:0:0:0:
256,192,146618,1,8,0:0:0:0:
256,192,146699,1,0,0:0:0:0:
256,192,146781,1,8,0:0:0:0:
256,192,146862,1,0,0:0:0:0:
256,192,146944,1,8,0:0:0:0:
256,192,147025,1,8,0:0:0:0:
256,192,147107,1,0,0:0:0:0:
256,192,147189,1,0,0:0:0:0:
256,192,147270,1,8,0:0:0:0:
256,192,147352,1,0,0:0:0:0:
256,192,147433,1,8,0:0:0:0:
256,192,147515,1,8,0:0:0:0:
256,192,147596,1,0,0:0:0:0:
256,192,147678,1,0,0:0:0:0:
256,192,147759,1,8,0:0:0:0:
256,192,147841,1,8,0:0:0:0:
256,192,147922,1,0,0:0:0:0:
256,192,148004,1,0,0:0:0:0:
256,192,148085,1,8,0:0:0:0:
256,192,148167,1,8,0:0:0:0:
256,192,148248,1,8,0:0:0:0:
256,192,148330,1,0,0:0:0:0:
256,192,148411,1,8,0:0:0:0:
256,192,148493,1,8,0:0:0:0:
256,192,148574,1,8,0:0:0:0:
256,192,148656,1,0,0:0:0:0:
256,192,148737,1,0,0:0:0:0:
256,192,148819,1,0,0:0:0:0:
256,192,148900,1,8,0:0:0:0:
256,192,148982,1,0,0:0:0:0:
256,192,149064,1,8,0:0:0:0:
256,192,149145,1,8,0:0:0:0:
256,192,149227,1,0,0:0:0:0:
256,192,149308,1,8,0:0:0:0:
256,192,149390,1,0,0:0:0:0:
256,192,149471,1,0,0:0:0:0:
256,192,149553,1,8,0:0:0:0:
256,192,149634,1,0,0:0:0:0:
256,192,149716,1,8,0:0:0:0:
256,192,149797,1,8,0:0:0:0:
256,192,149879,1,0,0:0:0:0:
256,192,149960,1,0,0:0:0:0:
256,192,150042,1,8,0:0:0:0:
256,192,150123,1,0,0:0:0:0:
256,192,150205,1,0,0:0:0:0:
256,192,150286,1,8,0:0:0:0:
256,192,150368,1,0,0:0:0:0:
256,192,150449,1,0,0:0:0:0:
256,192,150531,1,8,0:0:0:0:
256,192,150612,1,0,0:0:0:0:
256,192,150694,1,8,0:0:0:0:
256,192,150775,1,0,0:0:0:0:
256,192,150857,1,0,0:0:0:0:
256,192,150939,1,8,0:0:0:0:
256,192,151020,1,0,0:0:0:0:
256,192,151102,1,0,0:0:0:0:
256,192,151183,1,8,0:0:0:0:
256,192,151265,1,0,0:0:0:0:
256,192,151346,1,8,0:0:0:0:
256,192,151428,1,0,0:0:0:0:
256,192,151509,1,0,0:0:0:0:
256,192,151591,1,8,0:0:0:0:
256,192,151672,1,0,0:0:0:0:
256,192,151754,1,0,0:0:0:0:
256,192,151835,1,8,0:0:0:0:
256,192,151917,1,0,0:0:0:0:
256,192,151998,1,8,0:0:0:0:
256,192,152080,1,0,0:0:0:0:
256,192,152161,1,0,0:0:0:0:
256,192,152243,1,8,0:0:0:0:
256,192,152324,1,0,0:0:0:0:
256,192,152406,1,0,0:0:0:0:
256,192,152487,1,8,0:0:0:0:
256,192,152569,1,0,0:0:0:0:
256,192,152650,1,8,0:0:0:0:
256,192,152732,1,0,0:0:0:0:
256,192,152814,1,8,0:0:0:0:
256,192,152895,1,8,0:0:0:0:
256,192,152977,1,0,0:0:0:0:
256,192,153058,1,0,0:0:0:0:
256,192,153140,1,8,0:0:0:0:
256,192,153221,1,0,0:0:0:0:
256,192,153303,1,8,0:0:0:0:
256,192,153384,1,0,0:0:0:0:
256,192,153466,1,8,0:0:0:0:
256,192,153547,1,8,0:0:0:0:
256,192,153629,1,0,0:0:0:0:
256,192,153710,1,0,0:0:0:0:
256,192,153792,1,8,0:0:0:0:
256,192,153873,1,0,0:0:0:0:
256,192,153955,1,8,0:0:0:0:
256,192,154036,1,0,0:0:0:0:
256,192,154118,1,8,0:0:0:0:
256,192,154199,1,8,0:0:0:0:
256,192,154281,1,8,0:0:0:0:
256,192,154362,1,8,0:0:0:0:
256,192,154444,1,8,0:0:0:0:
256,192,154525,1,8,0:0:0:0:
256,192,154607,1,8,0:0:0:0:
256,192,154689,1,8,0:0:0:0:
256,192,154770,1,8,0:0:0:0:
256,192,154852,1,8,0:0:0:0:
256,192,154933,1,0,0:0:0:0:
256,192,155096,1,12,0:0:0:0:
256,192,155422,1,0,0:0:0:0:
256,192,155504,1,0,0:0:0:0:
256,192,155585,1,8,0:0:0:0:
256,192,155667,1,8,0:0:0:0:
256,192,155748,1,0,0:0:0:0:
256,192,155830,1,8,0:0:0:0:
256,192,155911,1,0,0:0:0:0:
256,192,155993,1,0,0:0:0:0:
256,192,156074,1,8,0:0:0:0:
256,192,156156,1,8,0:0:0:0:
256,192,156237,1,0,0:0:0:0:
256,192,156319,1,0,0:0:0:0:
256,192,156400,1,0,0:0:0:0:
256,192,156727,1,8,0:0:0:0:
256,192,156808,1,8,0:0:0:0:
256,192,156890,1,0,0:0:0:0:
256,192,156971,1,0,0:0:0:0:
256,192,157053,1,8,0:0:0:0:
256,192,157134,1,0,0:0:0:0:
256,192,157216,1,8,0:0:0:0:
256,192,157297,1,8,0:0:0:0:
256,192,157379,1,0,0:0:0:0:
256,192,157460,1,0,0:0:0:0:
256,192,157542,1,8,0:0:0:0:
256,192,157623,1,8,0:0:0:0:
256,192,157705,1,0,0:0:0:0:
256,192,158031,1,8,0:0:0:0:
256,192,158112,1,8,0:0:0:0:
256,192,158194,1,0,0:0:0:0:
256,192,158275,1,0,0:0:0:0:
256,192,158357,1,8,0:0:0:0:
256,192,158439,1,0,0:0:0:0:
256,192,158520,1,8,0:0:0:0:
256,192,158602,1,8,0:0:0:0:
256,192,158683,1,0,0:0:0:0:
256,192,158765,1,8,0:0:0:0:
256,192,158846,1,8,0:0:0:0:
256,192,158928,1,8,0:0:0:0:
256,192,159009,1,0,0:0:0:0:
256,192,159091,1,0,0:0:0:0:
256,192,159172,1,8,0:0:0:0:
256,192,159254,1,0,0:0:0:0:
256,192,159335,1,8,0:0:0:0:
256,192,159417,1,8,0:0:0:0:
256,192,159498,1,0,0:0:0:0:
256,192,159580,1,8,0:0:0:0:
256,192,159661,1,8,0:0:0:0:
256,192,159743,1,8,0:0:0:0:
256,192,159824,1,0,0:0:0:0:
256,192,159906,1,8,0:0:0:0:
256,192,159987,1,8,0:0:0:0:
256,192,160069,1,8,0:0:0:0:
256,192,160150,1,8,0:0:0:0:
256,192,160314,1,12,0:0:0:0:
256,192,160640,1,0,0:0:0:0:
256,192,160721,1,8,0:0:0:0:
256,192,160803,1,0,0:0:0:0:
256,192,160884,1,0,0:0:0:0:
256,192,160966,1,8,0:0:0:0:
256,192,161047,1,0,0:0:0:0:
256,192,161129,1,8,0:0:0:0:
256,192,161210,1,0,0:0:0:0:
256,192,161292,1,8,0:0:0:0:
256,192,161373,1,8,0:0:0:0:
256,192,161455,1,0,0:0:0:0:
256,192,161536,1,0,0:0:0:0:
256,192,161618,1,8,0:0:0:0:
256,192,161944,1,8,0:0:0:0:
256,192,162025,1,8,0:0:0:0:
256,192,162107,1,0,0:0:0:0:
256,192,162189,1,0,0:0:0:0:
256,192,162270,1,8,0:0:0:0:
256,192,162352,1,0,0:0:0:0:
256,192,162433,1,8,0:0:0:0:
256,192,162515,1,8,0:0:0:0:
256,192,162596,1,0,0:0:0:0:
256,192,162678,1,8,0:0:0:0:
256,192,162759,1,0,0:0:0:0:
256,192,162841,1,0,0:0:0:0:
256,192,162922,1,8,0:0:0:0:
256,192,163248,1,8,0:0:0:0:
256,192,163330,1,8,0:0:0:0:
256,192,163411,1,0,0:0:0:0:
256,192,163493,1,0,0:0:0:0:
256,192,163574,1,8,0:0:0:0:
256,192,163656,1,0,0:0:0:0:
256,192,163737,1,8,0:0:0:0:
256,192,163819,1,8,0:0:0:0:
256,192,163900,1,0,0:0:0:0:
256,192,163982,1,0,0:0:0:0:
256,192,164064,1,0,0:0:0:0:
256,192,164227,1,8,0:0:0:0:
256,192,164390,1,8,0:0:0:0:
256,192,164553,1,8,0:0:0:0:
256,192,164634,1,8,0:0:0:0:
256,192,164716,1,8,0:0:0:0:
256,192,164797,1,8,0:0:0:0:
256,192,164879,1,0,0:0:0:0:
256,192,164960,1,0,0:0:0:0:
256,192,165042,1,8,0:0:0:0:
256,192,165205,1,0,0:0:0:0:
256,192,165368,1,0,0:0:0:0:
256,192,165531,1,0,0:0:0:0:
256,192,165694,1,12,0:0:0:0:
256,192,166672,1,0,0:0:0:0:
256,192,166835,1,0,0:0:0:0:
256,192,166998,1,12,0:0:0:0:
256,192,167977,1,0,0:0:0:0:
256,192,168140,1,0,0:0:0:0:
256,192,168303,1,12,0:0:0:0:
256,192,169281,1,0,0:0:0:0:
256,192,169444,1,0,0:0:0:0:
256,192,169607,1,12,0:0:0:0:
256,192,169933,1,8,0:0:0:0:
256,192,170096,1,12,0:0:0:0:
256,192,170422,1,0,0:0:0:0:
256,192,170585,1,12,0:0:0:0:
256,192,170911,1,4,0:0:0:0:
256,192,171237,1,0,0:0:0:0:
256,192,171564,1,8,0:0:0:0:
256,192,171727,1,0,0:0:0:0:
256,192,171808,1,0,0:0:0:0:
256,192,171890,1,0,0:0:0:0:
256,192,172053,1,0,0:0:0:0:
256,192,172216,1,12,0:0:0:0:
256,192,172379,1,0,0:0:0:0:
256,192,172542,1,0,0:0:0:0:
256,192,172705,1,12,0:0:0:0:
256,192,172868,1,0,0:0:0:0:
256,192,173031,1,0,0:0:0:0:
256,192,173194,1,12,0:0:0:0:
256,192,173520,1,0,0:0:0:0:
256,192,173602,1,0,0:0:0:0:
256,192,173683,1,8,0:0:0:0:
256,192,173765,1,0,0:0:0:0:
256,192,173846,1,8,0:0:0:0:
256,192,173928,1,8,0:0:0:0:
256,192,174009,1,0,0:0:0:0:
256,192,174091,1,8,0:0:0:0:
256,192,174172,1,8,0:0:0:0:
256,192,174254,1,0,0:0:0:0:
256,192,174335,1,8,0:0:0:0:
256,192,174417,1,0,0:0:0:0:
256,192,174498,1,8,0:0:0:0:
256,192,174580,1,8,0:0:0:0:
256,192,174661,1,0,0:0:0:0:
256,192,174743,1,0,0:0:0:0:
256,192,174824,1,8,0:0:0:0:
256,192,174987,1,0,0:0:0:0:
256,192,175150,1,0,0:0:0:0:
256,192,175314,1,12,0:0:0:0:
256,192,175477,1,0,0:0:0:0:
256,192,175640,1,0,0:0:0:0:
256,192,175803,1,12,0:0:0:0:
256,192,176129,1,4,0:0:0:0:
256,192,176455,1,12,0:0:0:0:
256,192,176618,1,0,0:0:0:0:
256,192,176699,1,0,0:0:0:0:
256,192,176781,1,0,0:0:0:0:
256,192,176944,1,0,0:0:0:0:
256,192,177107,1,8,0:0:0:0:
256,192,177270,1,0,0:0:0:0:
256,192,177433,1,0,0:0:0:0:
256,192,177596,1,0,0:0:0:0:
256,192,177759,1,8,0:0:0:0:
256,192,177841,1,8,0:0:0:0:
256,192,177922,1,0,0:0:0:0:
256,192,178085,1,0,0:0:0:0:
256,192,178248,1,0,0:0:0:0:
256,192,178411,1,8,0:0:0:0:
256,192,178574,1,0,0:0:0:0:
256,192,178737,1,0,0:0:0:0:
256,192,178900,1,0,0:0:0:0:
256,192,178982,1,0,0:0:0:0:
256,192,179063,1,8,0:0:0:0:
256,192,179227,1,0,0:0:0:0:
256,192,179390,1,0,0:0:0:0:
256,192,179553,1,8,0:0:0:0:
256,192,179716,1,0,0:0:0:0:
256,192,180042,1,0,0:0:0:0:
256,192,180205,1,8,0:0:0:0:
256,192,180368,1,12,0:0:0:0:
256,192,180531,1,0,0:0:0:0:
256,192,180694,1,8,0:0:0:0:
256,192,180857,1,8,0:0:0:0:
256,192,180938,1,8,0:0:0:0:
256,192,181020,1,8,0:0:0:0:
256,192,181183,1,0,0:0:0:0:
256,192,181346,1,8,0:0:0:0:
256,192,181509,1,0,0:0:0:0:
256,192,181672,1,12,0:0:0:0:
256,192,181835,1,0,0:0:0:0:
256,192,181998,1,12,0:0:0:0:
256,192,182161,1,0,0:0:0:0:
256,192,182324,1,12,0:0:0:0:
256,192,182487,1,0,0:0:0:0:
256,192,182650,1,12,0:0:0:0:
256,192,182813,1,0,0:0:0:0:
256,192,182977,1,12,0:0:0:0:
256,192,183140,1,8,0:0:0:0:
256,192,183303,1,0,0:0:0:0:
256,192,183466,1,12,0:0:0:0:
256,192,183629,1,8,0:0:0:0:
256,192,183792,1,12,0:0:0:0:
256,192,184118,1,0,0:0:0:0:
256,192,184281,1,8,0:0:0:0:
256,192,184444,1,0,0:0:0:0:
256,192,184525,1,0,0:0:0:0:
256,192,184607,1,0,0:0:0:0:
256,192,184770,1,8,0:0:0:0:
256,192,184933,1,0,0:0:0:0:
256,192,185096,1,0,0:0:0:0:
256,192,185178,1,0,0:0:0:0:
256,192,185259,1,8,0:0:0:0:
256,192,185422,1,0,0:0:0:0:
256,192,185585,1,8,0:0:0:0:
256,192,185667,1,8,0:0:0:0:
256,192,185748,1,0,0:0:0:0:
256,192,185911,1,0,0:0:0:0:
256,192,186074,1,8,0:0:0:0:
256,192,186156,1,8,0:0:0:0:
256,192,186237,1,8,0:0:0:0:
256,192,186400,1,0,0:0:0:0:
256,192,186563,1,8,0:0:0:0:
256,192,186645,1,0,0:0:0:0:
256,192,186727,1,0,0:0:0:0:
256,192,186808,1,8,0:0:0:0:
256,192,186890,1,0,0:0:0:0:
256,192,186971,1,8,0:0:0:0:
256,192,187053,1,8,0:0:0:0:
256,192,187134,1,0,0:0:0:0:
256,192,187216,1,8,0:0:0:0:
256,192,187297,1,0,0:0:0:0:
256,192,187379,1,0,0:0:0:0:
256,192,187460,1,8,0:0:0:0:
256,192,187542,1,8,0:0:0:0:
256,192,187623,1,0,0:0:0:0:
256,192,187705,1,8,0:0:0:0:
256,192,187786,1,0,0:0:0:0:
256,192,187868,1,8,0:0:0:0:
256,192,187949,1,8,0:0:0:0:
256,192,188031,1,0,0:0:0:0:
256,192,188112,1,8,0:0:0:0:
256,192,188194,1,8,0:0:0:0:
256,192,188275,1,0,0:0:0:0:
256,192,188357,1,8,0:0:0:0:
256,192,188438,1,8,0:0:0:0:
256,192,188520,1,8,0:0:0:0:
256,192,188602,1,0,0:0:0:0:
256,192,188683,1,8,0:0:0:0:
256,192,188765,1,8,0:0:0:0:
256,192,188846,1,8,0:0:0:0:
256,192,189009,1,12,0:0:0:0:
256,192,189172,8,0,191618,0:0:0:0:
256,192,191781,5,4,0:0:0:0:
256,192,191944,1,8,0:0:0:0:
256,192,192107,1,0,0:0:0:0:
256,192,192188,1,0,0:0:0:0:
256,192,192270,1,8,0:0:0:0:
256,192,192433,1,0,0:0:0:0:
256,192,192515,1,0,0:0:0:0:
256,192,192596,1,8,0:0:0:0:
256,192,192678,1,8,0:0:0:0:
256,192,192759,1,0,0:0:0:0:
256,192,192841,1,0,0:0:0:0:
256,192,192922,1,8,0:0:0:0:
256,192,193085,1,0,0:0:0:0:
256,192,193248,1,8,0:0:0:0:
256,192,193330,1,8,0:0:0:0:
256,192,193411,1,8,0:0:0:0:
256,192,193574,1,0,0:0:0:0:
256,192,193737,1,8,0:0:0:0:
256,192,193900,1,0,0:0:0:0:
256,192,194063,1,8,0:0:0:0:
256,192,194145,1,8,0:0:0:0:
256,192,194227,1,0,0:0:0:0:
256,192,194308,1,0,0:0:0:0:
256,192,194390,1,0,0:0:0:0:
256,192,194553,1,8,0:0:0:0:
256,192,194716,1,8,0:0:0:0:
256,192,194797,1,8,0:0:0:0:
256,192,194879,1,0,0:0:0:0:
256,192,195042,1,0,0:0:0:0:
256,192,195123,1,0,0:0:0:0:
256,192,195205,1,8,0:0:0:0:
256,192,195286,1,0,0:0:0:0:
256,192,195368,1,8,0:0:0:0:
256,192,195531,1,0,0:0:0:0:
256,192,195694,1,8,0:0:0:0:
256,192,195857,1,0,0:0:0:0:
256,192,195938,1,8,0:0:0:0:
256,192,196020,1,0,0:0:0:0:
256,192,196183,1,8,0:0:0:0:
256,192,196346,1,0,0:0:0:0:
256,192,196428,1,0,0:0:0:0:
256,192,196509,1,8,0:0:0:0:
256,192,196591,1,8,0:0:0:0:
256,192,196672,1,8,0:0:0:0:
256,192,196835,1,8,0:0:0:0:
256,192,196917,1,8,0:0:0:0:
256,192,196998,1,0,0:0:0:0:
256,192,197161,1,8,0:0:0:0:
256,192,197324,1,0,0:0:0:0:
256,192,197406,1,0,0:0:0:0:
256,192,197487,1,8,0:0:0:0:
256,192,197650,1,0,0:0:0:0:
256,192,197813,1,8,0:0:0:0:
256,192,197895,1,0,0:0:0:0:
256,192,197977,1,8,0:0:0:0:
256,192,198058,1,8,0:0:0:0:
256,192,198140,1,0,0:0:0:0:
256,192,198221,1,0,0:0:0:0:
256,192,198303,1,8,0:0:0:0:
256,192,198466,1,0,0:0:0:0:
256,192,198547,1,0,0:0:0:0:
256,192,198629,1,0,0:0:0:0:
256,192,198792,1,8,0:0:0:0:
256,192,198955,1,8,0:0:0:0:
256,192,199036,1,0,0:0:0:0:
256,192,199118,1,0,0:0:0:0:
256,192,199199,1,0,0:0:0:0:
256,192,199281,1,8,0:0:0:0:
256,192,199444,1,0,0:0:0:0:
256,192,199607,1,0,0:0:0:0:
256,192,199688,1,0,0:0:0:0:
256,192,199770,1,8,0:0:0:0:
256,192,199852,1,0,0:0:0:0:
256,192,199933,1,0,0:0:0:0:
256,192,200015,1,0,0:0:0:0:
256,192,200096,1,8,0:0:0:0:
256,192,200178,1,0,0:0:0:0:
256,192,200259,1,0,0:0:0:0:
256,192,200341,1,0,0:0:0:0:
256,192,200422,1,8,0:0:0:0:
256,192,200504,1,0,0:0:0:0:
256,192,200585,1,8,0:0:0:0:
256,192,200667,1,8,0:0:0:0:
256,192,200748,1,0,0:0:0:0:
256,192,200911,1,0,0:0:0:0:
256,192,200993,1,0,0:0:0:0:
256,192,201074,1,8,0:0:0:0:
256,192,201156,1,8,0:0:0:0:
256,192,201237,1,0,0:0:0:0:
256,192,201319,1,0,0:0:0:0:
256,192,201400,1,8,0:0:0:0:
256,192,201482,1,0,0:0:0:0:
256,192,201563,1,8,0:0:0:0:
256,192,201645,1,8,0:0:0:0:
256,192,201727,1,8,0:0:0:0:
256,192,201808,1,8,0:0:0:0:
256,192,201890,1,8,0:0:0:0:
256,192,201971,1,0,0:0:0:0:
256,192,202053,1,0,0:0:0:0:
256,192,202134,1,0,0:0:0:0:
256,192,202216,1,8,0:0:0:0:
256,192,202379,1,0,0:0:0:0:
256,192,202460,1,0,0:0:0:0:
256,192,202542,1,8,0:0:0:0:
256,192,202623,1,8,0:0:0:0:
256,192,202705,1,0,0:0:0:0:
256,192,202786,1,8,0:0:0:0:
256,192,202868,1,0,0:0:0:0:
256,192,202949,1,0,0:0:0:0:
256,192,203031,1,8,0:0:0:0:
256,192,203112,1,8,0:0:0:0:
256,192,203194,1,0,0:0:0:0:
256,192,203357,1,0,0:0:0:0:
256,192,203438,1,0,0:0:0:0:
256,192,203520,1,8,0:0:0:0:
256,192,203683,1,8,0:0:0:0:
256,192,203765,1,0,0:0:0:0:
256,192,203846,1,8,0:0:0:0:
256,192,203928,1,8,0:0:0:0:
256,192,204009,1,0,0:0:0:0:
256,192,204091,1,8,0:0:0:0:
256,192,204172,1,0,0:0:0:0:
256,192,204254,1,0,0:0:0:0:
256,192,204335,1,8,0:0:0:0:
256,192,204417,1,0,0:0:0:0:
256,192,204498,1,8,0:0:0:0:
256,192,204661,1,0,0:0:0:0:
256,192,204743,1,0,0:0:0:0:
256,192,204824,1,8,0:0:0:0:
256,192,204987,1,8,0:0:0:0:
256,192,205069,1,0,0:0:0:0:
256,192,205150,1,8,0:0:0:0:
256,192,205313,1,8,0:0:0:0:
256,192,205395,1,8,0:0:0:0:
256,192,205477,1,8,0:0:0:0:
256,192,205558,1,8,0:0:0:0:
256,192,205640,1,0,0:0:0:0:
256,192,205803,1,8,0:0:0:0:
256,192,205884,1,8,0:0:0:0:
256,192,205966,1,0,0:0:0:0:
256,192,206047,1,0,0:0:0:0:
256,192,206129,1,8,0:0:0:0:
256,192,206292,1,0,0:0:0:0:
256,192,206373,1,0,0:0:0:0:
256,192,206455,1,8,0:0:0:0:
256,192,206618,1,0,0:0:0:0:
256,192,206781,1,8,0:0:0:0:
256,192,206944,1,8,0:0:0:0:
256,192,207025,1,8,0:0:0:0:
256,192,207107,1,8,0:0:0:0:
256,192,207270,1,0,0:0:0:0:
256,192,207433,1,8,0:0:0:0:
256,192,207596,1,0,0:0:0:0:
256,192,207678,1,0,0:0:0:0:
256,192,207759,1,0,0:0:0:0:
256,192,207922,1,8,0:0:0:0:
256,192,208004,1,8,0:0:0:0:
256,192,208085,1,0,0:0:0:0:
256,192,208167,1,8,0:0:0:0:
256,192,208248,1,0,0:0:0:0:
256,192,208330,1,0,0:0:0:0:
256,192,208411,1,8,0:0:0:0:
256,192,208493,1,8,0:0:0:0:
256,192,208574,1,0,0:0:0:0:
256,192,208737,1,0,0:0:0:0:
256,192,208900,1,8,0:0:0:0:
256,192,208982,1,8,0:0:0:0:
256,192,209063,1,0,0:0:0:0:
256,192,209227,1,0,0:0:0:0:
256,192,209390,1,8,0:0:0:0:
256,192,209471,1,0,0:0:0:0:
256,192,209553,1,0,0:0:0:0:
256,192,209634,1,8,0:0:0:0:
256,192,209716,1,0,0:0:0:0:
256,192,209797,1,0,0:0:0:0:
256,192,209879,1,8,0:0:0:0:
256,192,210042,1,8,0:0:0:0:
256,192,210205,1,0,0:0:0:0:
256,192,210286,1,0,0:0:0:0:
256,192,210368,1,8,0:0:0:0:
256,192,210531,1,0,0:0:0:0:
256,192,210612,1,0,0:0:0:0:
256,192,210694,1,8,0:0:0:0:
256,192,210857,1,0,0:0:0:0:
256,192,211020,1,8,0:0:0:0:
256,192,211102,1,8,0:0:0:0:
256,192,211183,1,0,0:0:0:0:
256,192,211265,1,0,0:0:0:0:
256,192,211346,1,8,0:0:0:0:
256,192,211428,1,0,0:0:0:0:
256,192,211509,1,0,0:0:0:0:
256,192,211591,1,0,0:0:0:0:
256,192,211672,1,8,0:0:0:0:
256,192,211754,1,0,0:0:0:0:
256,192,211835,1,8,0:0:0:0:
256,192,211917,1,8,0:0:0:0:
256,192,211998,1,8,0:0:0:0:
256,192,212080,1,8,0:0:0:0:
256,192,212161,1,0,0:0:0:0:
256,192,212243,1,8,0:0:0:0:
256,192,212324,1,8,0:0:0:0:
256,192,212406,1,8,0:0:0:0:
256,192,212487,1,0,0:0:0:0:
256,192,212569,1,0,0:0:0:0:
256,192,212650,1,8,0:0:0:0:
256,192,212813,1,0,0:0:0:0:
256,192,212895,1,0,0:0:0:0:
256,192,212977,1,0,0:0:0:0:
256,192,213140,1,8,0:0:0:0:
256,192,213303,1,0,0:0:0:0:
256,192,213384,1,8,0:0:0:0:
256,192,213466,1,0,0:0:0:0:
256,192,213547,1,0,0:0:0:0:
256,192,213629,1,8,0:0:0:0:
256,192,213792,1,8,0:0:0:0:
256,192,213873,1,8,0:0:0:0:
256,192,213955,1,8,0:0:0:0:
256,192,214118,1,0,0:0:0:0:
256,192,214199,1,0,0:0:0:0:
256,192,214281,1,8,0:0:0:0:
256,192,214362,1,0,0:0:0:0:
256,192,214444,1,8,0:0:0:0:
256,192,214607,1,0,0:0:0:0:
256,192,214770,1,0,0:0:0:0:
256,192,214852,1,0,0:0:0:0:
256,192,214933,1,8,0:0:0:0:
256,192,215015,1,8,0:0:0:0:
256,192,215096,1,8,0:0:0:0:
256,192,215178,1,8,0:0:0:0:
256,192,215259,1,0,0:0:0:0:
256,192,215422,1,0,0:0:0:0:
256,192,215504,1,8,0:0:0:0:
256,192,215585,1,0,0:0:0:0:
256,192,215748,1,8,0:0:0:0:
256,192,215911,1,8,0:0:0:0:
256,192,215993,1,8,0:0:0:0:
256,192,216074,1,0,0:0:0:0:
256,192,216156,1,8,0:0:0:0:
256,192,216237,1,0,0:0:0:0:
256,192,216400,1,8,0:0:0:0:
256,192,216563,1,8,0:0:0:0:
256,192,216645,1,8,0:0:0:0:
256,192,216727,1,8,0:0:0:0:
256,192,216808,1,0,0:0:0:0:
256,192,216890,1,8,0:0:0:0:
256,192,217053,1,8,0:0:0:0:
256,192,217134,1,0,0:0:0:0:
256,192,217216,1,0,0:0:0:0:
256,192,217297,1,8,0:0:0:0:
256,192,217460,1,0,0:0:0:0:
256,192,217542,1,8,0:0:0:0:
256,192,217705,1,0,0:0:0:0:
256,192,217786,1,0,0:0:0:0:
256,192,217868,1,8,0:0:0:0:
256,192,217949,1,0,0:0:0:0:
256,192,218031,1,0,0:0:0:0:
256,192,218112,1,0,0:0:0:0:
256,192,218194,1,8,0:0:0:0:
256,192,218357,1,8,0:0:0:0:
256,192,218438,1,0,0:0:0:0:
256,192,218520,1,8,0:0:0:0:
256,192,218683,1,0,0:0:0:0:
256,192,218846,1,8,0:0:0:0:
256,192,218928,1,0,0:0:0:0:
256,192,219009,1,8,0:0:0:0:
256,192,219091,1,8,0:0:0:0:
256,192,219172,1,0,0:0:0:0:
256,192,219335,1,8,0:0:0:0:
256,192,219417,1,8,0:0:0:0:
256,192,219498,1,8,0:0:0:0:
256,192,219661,1,0,0:0:0:0:
256,192,219824,1,8,0:0:0:0:
256,192,219906,1,8,0:0:0:0:
256,192,219987,1,8,0:0:0:0:
256,192,220069,1,8,0:0:0:0:
256,192,220150,1,0,0:0:0:0:
256,192,220313,1,8,0:0:0:0:
256,192,220477,1,0,0:0:0:0:
256,192,220558,1,0,0:0:0:0:
256,192,220640,1,8,0:0:0:0:
256,192,220721,1,0,0:0:0:0:
256,192,220803,1,8,0:0:0:0:
256,192,220884,1,8,0:0:0:0:
256,192,220966,1,0,0:0:0:0:
256,192,221047,1,0,0:0:0:0:
256,192,221129,1,8,0:0:0:0:
256,192,221292,1,0,0:0:0:0:
256,192,221373,1,0,0:0:0:0:
256,192,221455,1,8,0:0:0:0:
256,192,221618,1,8,0:0:0:0:
256,192,221781,1,0,0:0:0:0:
256,192,221862,1,0,0:0:0:0:
256,192,221944,1,0,0:0:0:0:
256,192,222025,1,0,0:0:0:0:
256,192,222107,1,8,0:0:0:0:
256,192,222270,1,8,0:0:0:0:
256,192,222352,1,8,0:0:0:0:
256,192,222433,1,8,0:0:0:0:
256,192,222596,1,8,0:0:0:0:
256,192,222678,1,0,0:0:0:0:
256,192,222759,1,8,0:0:0:0:
256,192,222841,1,8,0:0:0:0:
256,192,222922,1,8,0:0:0:0:
256,192,223004,1,8,0:0:0:0:
256,192,223085,1,0,0:0:0:0:
256,192,223248,1,0,0:0:0:0:
256,192,223411,1,8,0:0:0:0:
256,192,223493,1,8,0:0:0:0:
256,192,223574,1,0,0:0:0:0:
256,192,223656,1,0,0:0:0:0:
256,192,223737,1,0,0:0:0:0:
256,192,223900,1,8,0:0:0:0:
256,192,223982,1,8,0:0:0:0:
256,192,224063,1,8,0:0:0:0:
256,192,224227,1,0,0:0:0:0:
256,192,224390,1,8,0:0:0:0:
256,192,224471,1,0,0:0:0:0:
256,192,224553,1,0,0:0:0:0:
256,192,224634,1,0,0:0:0:0:
256,192,224716,1,8,0:0:0:0:
256,192,224879,1,8,0:0:0:0:
256,192,225042,1,0,0:0:0:0:
256,192,225123,1,0,0:0:0:0:
256,192,225205,1,0,0:0:0:0:
256,192,225368,1,8,0:0:0:0:
256,192,225531,1,0,0:0:0:0:
256,192,225612,1,0,0:0:0:0:
256,192,225694,1,8,0:0:0:0:
256,192,225857,1,8,0:0:0:0:
256,192,225938,1,8,0:0:0:0:
256,192,226020,1,0,0:0:0:0:
256,192,226183,1,8,0:0:0:0:
256,192,226265,1,8,0:0:0:0:
256,192,226346,1,0,0:0:0:0:
256,192,226428,1,8,0:0:0:0:
256,192,226509,1,0,0:0:0:0:
256,192,226591,1,0,0:0:0:0:
256,192,226672,1,8,0:0:0:0:
256,192,226835,1,8,0:0:0:0:
256,192,226917,1,0,0:0:0:0:
256,192,226998,1,8,0:0:0:0:
256,192,227161,1,0,0:0:0:0:
256,192,227243,1,8,0:0:0:0:
256,192,227324,1,0,0:0:0:0:
256,192,227406,1,0,0:0:0:0:
256,192,227487,1,8,0:0:0:0:
256,192,227569,1,0,0:0:0:0:
256,192,227650,1,8,0:0:0:0:
256,192,227732,1,8,0:0:0:0:
256,192,227813,1,8,0:0:0:0:
256,192,227977,1,0,0:0:0:0:
256,192,228140,1,0,0:0:0:0:
256,192,228221,1,0,0:0:0:0:
256,192,228303,1,8,0:0:0:0:
256,192,228384,1,0,0:0:0:0:
256,192,228466,1,0,0:0:0:0:
256,192,228547,1,0,0:0:0:0:
256,192,228629,1,0,0:0:0:0:
256,192,228710,1,0,0:0:0:0:
256,192,228792,1,8,0:0:0:0:
256,192,228873,1,0,0:0:0:0:
256,192,228955,1,0,0:0:0:0:
256,192,229036,1,0,0:0:0:0:
256,192,229118,1,0,0:0:0:0:
256,192,229199,1,0,0:0:0:0:
256,192,229281,1,8,0:0:0:0:
256,192,229444,1,0,0:0:0:0:
256,192,229525,1,0,0:0:0:0:
256,192,229607,1,0,0:0:0:0:
256,192,229770,1,8,0:0:0:0:
256,192,229933,1,0,0:0:0:0:
256,192,230015,1,8,0:0:0:0:
256,192,230096,1,0,0:0:0:0:
256,192,230178,1,0,0:0:0:0:
256,192,230259,1,8,0:0:0:0:
256,192,230341,1,0,0:0:0:0:
256,192,230422,1,8,0:0:0:0:
256,192,230504,1,0,0:0:0:0:
256,192,230585,1,8,0:0:0:0:
256,192,230667,1,8,0:0:0:0:
256,192,230748,1,0,0:0:0:0:
256,192,230830,1,0,0:0:0:0:
256,192,230911,1,8,0:0:0:0:
256,192,230993,1,0,0:0:0:0:
256,192,231074,1,0,0:0:0:0:
256,192,231156,1,0,0:0:0:0:
256,192,231237,1,0,0:0:0:0:
256,192,231319,1,0,0:0:0:0:
256,192,231400,1,8,0:0:0:0:
256,192,231482,1,0,0:0:0:0:
256,192,231563,1,0,0:0:0:0:
256,192,231645,1,0,0:0:0:0:
256,192,231727,1,0,0:0:0:0:
256,192,231808,1,0,0:0:0:0:
256,192,231890,1,8,0:0:0:0:
256,192,232053,1,0,0:0:0:0:
256,192,232134,1,0,0:0:0:0:
256,192,232216,1,0,0:0:0:0:
256,192,232297,1,0,0:0:0:0:
256,192,232379,1,8,0:0:0:0:
256,192,232542,1,0,0:0:0:0:
256,192,232623,1,0,0:0:0:0:
256,192,232705,1,8,0:0:0:0:
256,192,232786,1,0,0:0:0:0:
256,192,232868,1,8,0:0:0:0:
256,192,233031,1,8,0:0:0:0:
256,192,233112,1,8,0:0:0:0:
256,192,233194,1,8,0:0:0:0:
256,192,233275,1,8,0:0:0:0:
256,192,233357,1,0,0:0:0:0:
256,192,233438,1,0,0:0:0:0:
256,192,233520,1,8,0:0:0:0:
256,192,233602,1,0,0:0:0:0:
256,192,233683,1,0,0:0:0:0:
256,192,233765,1,0,0:0:0:0:
256,192,233846,1,8,0:0:0:0:
256,192,233928,1,8,0:0:0:0:
256,192,234009,1,0,0:0:0:0:
256,192,234091,1,0,0:0:0:0:
256,192,234172,1,8,0:0:0:0:
256,192,234254,1,0,0:0:0:0:
256,192,234335,1,0,0:0:0:0:
256,192,234417,1,0,0:0:0:0:
256,192,234498,1,8,0:0:0:0:
256,192,234580,1,8,0:0:0:0:
256,192,234661,1,0,0:0:0:0:
256,192,234743,1,0,0:0:0:0:
256,192,234824,1,8,0:0:0:0:
256,192,234987,1,4,0:0:0:0:
256,192,235150,1,4,0:0:0:0:
256,192,235313,1,4,0:0:0:0:
256,192,235477,1,4,0:0:0:0:
256,192,235640,1,4,0:0:0:0:
256,192,235803,1,4,0:0:0:0:
256,192,235966,1,4,0:0:0:0:
256,192,236129,1,12,0:0:0:0:
256,192,236292,8,8,238574,0:0:0:0:
256,192,238737,5,4,0:0:0:0:
256,192,239064,1,0,0:0:0:0:
256,192,239227,1,8,0:0:0:0:
256,192,239390,1,8,0:0:0:0:
256,192,239716,1,0,0:0:0:0:
256,192,239879,1,8,0:0:0:0:
256,192,240042,1,0,0:0:0:0:
256,192,240205,1,8,0:0:0:0:
256,192,240368,1,8,0:0:0:0:
256,192,240531,1,0,0:0:0:0:
256,192,240857,1,8,0:0:0:0:
256,192,241020,1,8,0:0:0:0:
256,192,241183,1,0,0:0:0:0:
256,192,241346,1,8,0:0:0:0:
256,192,241672,1,0,0:0:0:0:
256,192,241998,1,8,0:0:0:0:
256,192,242161,1,8,0:0:0:0:
256,192,242324,1,0,0:0:0:0:
256,192,242488,1,8,0:0:0:0:
256,192,242651,1,0,0:0:0:0:
256,192,242814,1,8,0:0:0:0:
256,192,242977,1,8,0:0:0:0:
256,192,243140,1,0,0:0:0:0:
256,192,243466,1,8,0:0:0:0:
256,192,243629,1,0,0:0:0:0:
256,192,243955,1,8,0:0:0:0:
256,192,244281,1,0,0:0:0:0:
256,192,244444,1,8,0:0:0:0:
256,192,244770,1,0,0:0:0:0:
256,192,244933,1,8,0:0:0:0:
256,192,245096,1,8,0:0:0:0:
256,192,245259,1,0,0:0:0:0:
256,192,245422,1,0,0:0:0:0:
256,192,245585,1,8,0:0:0:0:
256,192,245748,1,0,0:0:0:0:
256,192,245911,1,8,0:0:0:0:
256,192,246074,1,0,0:0:0:0:
256,192,246238,1,8,0:0:0:0:
256,192,246401,1,0,0:0:0:0:
256,192,246564,1,8,0:0:0:0:
256,192,246890,1,8,0:0:0:0:
256,192,247053,1,8,0:0:0:0:
256,192,247216,1,0,0:0:0:0:
256,192,247542,1,0,0:0:0:0:
256,192,247868,1,8,0:0:0:0:
256,192,248194,1,0,0:0:0:0:
256,192,248303,1,8,0:0:0:0:
256,192,248411,1,8,0:0:0:0:
256,192,248520,1,0,0:0:0:0:
256,192,248846,1,0,0:0:0:0:
256,192,249172,1,8,0:0:0:0:
256,192,249498,1,0,0:0:0:0:
256,192,249661,1,0,0:0:0:0:
256,192,249824,1,8,0:0:0:0:
256,192,250151,1,0,0:0:0:0:
256,192,250314,1,8,0:0:0:0:
256,192,250477,1,8,0:0:0:0:
256,192,250640,1,0,0:0:0:0:
256,192,250803,1,0,0:0:0:0:
256,192,250966,1,8,0:0:0:0:
256,192,251292,1,8,0:0:0:0:
256,192,251455,1,0,0:0:0:0:
256,192,251781,1,8,0:0:0:0:
256,192,251944,1,0,0:0:0:0:
256,192,252107,1,8,0:0:0:0:
256,192,252270,1,8,0:0:0:0:
256,192,252433,1,0,0:0:0:0:
256,192,252759,1,8,0:0:0:0:
256,192,252922,1,0,0:0:0:0:
256,192,253085,1,8,0:0:0:0:
256,192,253411,1,8,0:0:0:0:
256,192,253574,1,0,0:0:0:0:
256,192,253738,1,0,0:0:0:0:
256,192,253846,1,8,0:0:0:0:
256,192,253955,1,8,0:0:0:0:
256,192,254064,1,0,0:0:0:0:
256,192,254227,1,8,0:0:0:0:
256,192,254390,1,0,0:0:0:0:
256,192,254716,1,0,0:0:0:0:
256,192,254879,1,0,0:0:0:0:
256,192,255042,1,8,0:0:0:0:
256,192,255368,1,8,0:0:0:0:
256,192,255531,1,0,0:0:0:0:
256,192,255694,1,8,0:0:0:0:
256,192,255803,1,0,0:0:0:0:
256,192,255911,1,0,0:0:0:0:
256,192,256020,1,8,0:0:0:0:
256,192,256346,1,8,0:0:0:0:
256,192,256455,1,8,0:0:0:0:
256,192,256564,1,0,0:0:0:0:
256,192,256672,1,0,0:0:0:0:
256,192,256835,1,0,0:0:0:0:
256,192,256998,1,8,0:0:0:0:
256,192,257324,1,0,0:0:0:0:
256,192,257488,1,0,0:0:0:0:
256,192,257651,1,12,0:0:0:0:
256,192,257814,1,0,0:0:0:0:
256,192,257977,1,12,0:0:0:0:
256,192,258140,1,0,0:0:0:0:
256,192,258303,1,0,0:0:0:0:
256,192,258466,1,12,0:0:0:0:
256,192,258629,1,8,0:0:0:0:
256,192,258792,1,0,0:0:0:0:
256,192,258955,1,12,0:0:0:0:
256,192,259118,1,0,0:0:0:0:
256,192,259281,1,4,0:0:0:0:
256,192,259444,1,4,0:0:0:0:
256,192,259607,1,12,0:0:0:0:
256,192,259933,1,0,0:0:0:0:
256,192,260096,1,0,0:0:0:0:
256,192,260259,1,8,0:0:0:0:
256,192,260585,1,0,0:0:0:0:
256,192,260748,1,8,0:0:0:0:
256,192,260911,1,0,0:0:0:0:
256,192,261074,1,8,0:0:0:0:
256,192,261238,1,8,0:0:0:0:
256,192,261401,1,0,0:0:0:0:
256,192,261727,1,8,0:0:0:0:
256,192,261890,1,0,0:0:0:0:
256,192,262053,1,0,0:0:0:0:
256,192,262216,1,8,0:0:0:0:
256,192,262542,1,0,0:0:0:0:
256,192,262705,1,0,0:0:0:0:
256,192,262868,1,8,0:0:0:0:
256,192,263031,1,0,0:0:0:0:
256,192,263194,1,8,0:0:0:0:
256,192,263357,1,8,0:0:0:0:
256,192,263520,1,0,0:0:0:0:
256,192,263683,1,8,0:0:0:0:
256,192,263846,1,8,0:0:0:0:
256,192,264009,1,0,0:0:0:0:
256,192,264335,1,8,0:0:0:0:
256,192,264498,1,0,0:0:0:0:
256,192,264824,1,8,0:0:0:0:
256,192,265151,1,0,0:0:0:0:
256,192,265314,1,8,0:0:0:0:
256,192,265640,1,8,0:0:0:0:
256,192,265803,1,0,0:0:0:0:
256,192,265966,1,8,0:0:0:0:
256,192,266129,1,0,0:0:0:0:
256,192,266210,1,8,0:0:0:0:
256,192,266292,1,0,0:0:0:0:
256,192,266455,1,8,0:0:0:0:
256,192,266618,1,0,0:0:0:0:
256,192,266781,1,8,0:0:0:0:
256,192,266944,1,0,0:0:0:0:
256,192,267107,1,8,0:0:0:0:
256,192,267270,1,0,0:0:0:0:
256,192,267433,1,8,0:0:0:0:
256,192,267759,1,8,0:0:0:0:
256,192,267922,1,8,0:0:0:0:
256,192,268085,1,0,0:0:0:0:
256,192,268411,1,8,0:0:0:0:
256,192,268574,1,0,0:0:0:0:
256,192,268738,1,8,0:0:0:0:
256,192,269064,1,0,0:0:0:0:
256,192,269172,1,8,0:0:0:0:
256,192,269281,1,8,0:0:0:0:
256,192,269390,1,0,0:0:0:0:
256,192,269716,1,0,0:0:0:0:
256,192,269879,1,0,0:0:0:0:
256,192,270042,1,8,0:0:0:0:
256,192,270368,1,0,0:0:0:0:
256,192,270531,1,0,0:0:0:0:
256,192,270694,1,8,0:0:0:0:
256,192,270857,1,0,0:0:0:0:
256,192,271020,1,8,0:0:0:0:
256,192,271183,1,8,0:0:0:0:
256,192,271346,1,8,0:0:0:0:
256,192,271672,1,0,0:0:0:0:
256,192,271835,1,8,0:0:0:0:
256,192,271998,1,0,0:0:0:0:
256,192,272107,1,0,0:0:0:0:
256,192,272216,1,8,0:0:0:0:
256,192,272324,1,0,0:0:0:0:
256,192,272433,1,0,0:0:0:0:
256,192,272542,1,8,0:0:0:0:
256,192,272651,1,8,0:0:0:0:
256,192,272977,1,0,0:0:0:0:
256,192,273140,1,8,0:0:0:0:
256,192,273303,1,0,0:0:0:0:
256,192,273629,1,8,0:0:0:0:
256,192,273955,1,0,0:0:0:0:
256,192,274118,1,8,0:0:0:0:
256,192,274281,1,0,0:0:0:0:
256,192,274444,1,0,0:0:0:0:
256,192,274607,1,8,0:0:0:0:
256,192,274933,1,8,0:0:0:0:
256,192,275096,1,8,0:0:0:0:
256,192,275259,1,4,0:0:0:0:
256,192,275585,1,0,0:0:0:0:
256,192,275748,1,0,0:0:0:0:
256,192,275830,1,8,0:0:0:0:
256,192,275911,1,0,0:0:0:0:
256,192,275993,1,8,0:0:0:0:
256,192,276074,1,8,0:0:0:0:
256,192,276156,1,8,0:0:0:0:
256,192,276238,1,0,0:0:0:0:
256,192,276319,1,8,0:0:0:0:
256,192,276401,1,8,0:0:0:0:
256,192,276482,1,8,0:0:0:0:
256,192,276564,1,0,0:0:0:0:
256,192,276645,1,8,0:0:0:0:
256,192,276727,1,0,0:0:0:0:
256,192,276808,1,8,0:0:0:0:
256,192,276890,1,8,0:0:0:0:
256,192,276971,1,0,0:0:0:0:
256,192,277053,1,0,0:0:0:0:
256,192,277134,1,8,0:0:0:0:
256,192,277216,1,8,0:0:0:0:
256,192,277297,1,0,0:0:0:0:
256,192,277379,1,0,0:0:0:0:
256,192,277460,1,8,0:0:0:0:
256,192,277542,1,8,0:0:0:0:
256,192,277623,1,0,0:0:0:0:
256,192,277705,1,0,0:0:0:0:
256,192,277786,1,8,0:0:0:0:
256,192,277868,1,8,0:0:0:0:
256,192,278269,1,0,0:0:0:0:
256,192,278648,1,0,0:0:0:0:
256,192,279076,1,0,0:0:0:0:
256,192,279523,1,12,0:0:0:0:
256,192,280013,1,0,0:0:0:0:
256,192,280539,1,0,0:0:0:0:
256,192,281159,1,0,0:0:0:0:
256,192,281989,8,0,299271,0:0:0:0:
256,192,299557,5,0,0:0:0:0:
256,192,299642,1,0,0:0:0:0:
256,192,299728,1,0,0:0:0:0:
256,192,299814,8,0,301014,0:0:0:0:
256,192,301155,5,12,0:0:0:0:
256,192,301492,1,12,0:0:0:0:
256,192,301660,8,0,303346,0:0:0:0:
