osu file format v14

[General]
AudioFilename: 10 - Destiny cut.mp3
AudioLeadIn: 1500
PreviewTime: 75000
Countdown: 0
SampleSet: None
StackLeniency: 0.7
Mode: 3
LetterboxInBreaks: 0
SpecialStyle: 0
WidescreenStoryboard: 0

[Editor]
DistanceSpacing: 1.7
BeatDivisor: 4
GridSize: 16
TimelineZoom: 1

[Metadata]
Title:Destiny
TitleUnicode:Destiny
Artist:Galneryus
ArtistUnicode:Galneryus
Creator:[ Junko ]
Version:Cut
Source:
Tags:
BeatmapID:1211122
BeatmapSetID:571464

[Difficulty]
HPDrainRate:7
CircleSize:4
OverallDifficulty:7
ApproachRate:9
SliderMultiplier:1.4
SliderTickRate:1

[Events]
//Background and Video events
0,0,"bg.jpg",0,0
//Break Periods
//Storyboard Layer 0 (Background)
//Storyboard Layer 1 (Fail)
//Storyboard Layer 2 (Pass)
//Storyboard Layer 3 (Foreground)
//Storyboard Sound Samples

[TimingPoints]
118.98,326.078,4,1,0,15,1,0

[HitObjects]
64,0,119,128,0,934:0:0:0:0:
192,0,119,128,0,934:0:0:0:0:
320,0,119,128,0,934:0:0:0:0:
448,0,119,128,0,934:0:0:0:0:
192,0,1097,1,0,1:0:0:0:
320,0,1097,1,0,1:0:0:0:
320,0,1260,1,0,1:0:0:0:
448,0,1260,1,0,1:0:0:0:
64,0,1423,128,0,1586:0:0:0:0:
192,0,1423,128,0,1586:0:0:0:0:
320,0,1423,128,0,1586:0:0:0:0:
448,0,1423,128,0,1586:0:0:0:0:
192,0,1749,1,0,1:0:0:0:
448,0,1749,1,0,1:0:0:0:
64,0,1912,128,0,2075:0:0:0:0:
192,0,1912,128,0,2075:0:0:0:0:
320,0,1912,128,0,2075:0:0:0:0:
448,0,1912,128,0,2075:0:0:0:0:
64,0,2238,1,0,1:0:0:0:
192,0,2238,1,0,1:0:0:0:
64,0,2402,128,0,2565:0:0:0:0:
192,0,2402,128,0,2565:0:0:0:0:
320,0,2402,128,0,2565:0:0:0:0:
448,0,2402,128,0,2565:0:0:0:0:
64,0,2728,128,0,3543:0:0:0:0:
192,0,2728,128,0,3543:0:0:0:0:
320,0,2728,128,0,3543:0:0:0:0:
448,0,2728,128,0,3543:0:0:0:0:
192,0,3706,1,0,1:0:0:0:
320,0,3706,1,0,1:0:0:0:
192,0,3869,1,0,1:0:0:0:
448,0,3869,1,0,1:0:0:0:
64,0,4032,1,0,1:0:0:0:
192,0,4032,1,0,1:0:0:0:
320,0,4032,1,0,1:0:0:0:
448,0,4032,1,0,1:0:0:0:
64,0,4195,1,0,1:0:0:0:
320,0,4195,1,0,1:0:0:0:
64,0,4358,1,0,1:0:0:0:
320,0,4358,1,0,1:0:0:0:
64,0,4521,128,0,4847:0:0:0:0:
192,0,4521,128,0,4847:0:0:0:0:
320,0,4521,128,0,4847:0:0:0:0:
448,0,4521,128,0,4847:0:0:0:0:
64,0,5010,128,0,5173:0:0:0:0:
192,0,5010,128,0,5173:0:0:0:0:
320,0,5010,128,0,5173:0:0:0:0:
448,0,5010,128,0,5173:0:0:0:0:
64,0,5336,1,0,1:0:0:0:
192,0,5336,1,0,1:0:0:0:
320,0,5336,1,0,1:0:0:0:
448,0,5336,1,0,1:0:0:0:
320,0,5499,1,0,1:0:0:0:
448,0,5499,1,0,1:0:0:0:
320,0,5662,1,0,1:0:0:0:
448,0,5662,1,0,1:0:0:0:
320,0,5907,1,0,1:0:0:0:
448,0,5907,1,0,1:0:0:0:
64,0,5988,1,0,1:0:0:0:
192,0,5988,1,0,1:0:0:0:
192,0,6151,1,0,1:0:0:0:
320,0,6151,1,0,1:0:0:0:
64,0,6314,1,0,1:0:0:0:
448,0,6314,1,0,1:0:0:0:
192,0,6396,1,0,1:0:0:0:
320,0,6396,1,0,1:0:0:0:
64,0,6478,1,0,1:0:0:0:
448,0,6478,1,0,1:0:0:0:
192,0,6559,1,0,1:0:0:0:
320,0,6559,1,0,1:0:0:0:
64,0,6641,1,0,1:0:0:0:
448,0,6641,1,0,1:0:0:0:
320,0,6722,1,0,1:0:0:0:
192,0,6804,1,0,1:0:0:0:
64,0,6885,1,0,1:0:0:0:
192,0,6967,1,0,1:0:0:0:
320,0,6967,1,0,1:0:0:0:
448,0,7048,1,0,1:0:0:0:
64,0,7130,1,0,1:0:0:0:
320,0,7130,1,0,1:0:0:0:
192,0,7211,1,0,1:0:0:0:
448,0,7211,1,0,1:0:0:0:
64,0,7293,1,0,1:0:0:0:
320,0,7293,1,0,1:0:0:0:
192,0,7374,1,0,1:0:0:0:
320,0,7456,1,0,1:0:0:0:
448,0,7456,1,0,1:0:0:0:
64,0,7537,1,0,1:0:0:0:
192,0,7537,1,0,1:0:0:0:
320,0,7619,1,0,1:0:0:0:
448,0,7619,1,0,1:0:0:0:
64,0,7700,1,0,1:0:0:0:
192,0,7700,1,0,1:0:0:0:
320,0,7782,1,0,1:0:0:0:
448,0,7782,1,0,1:0:0:0:
64,0,7863,1,0,1:0:0:0:
192,0,7863,1,0,1:0:0:0:
320,0,7945,1,0,1:0:0:0:
448,0,7945,1,0,1:0:0:0:
64,0,8108,1,0,1:0:0:0:
192,0,8108,1,0,1:0:0:0:
320,0,8271,1,0,1:0:0:0:
64,0,8434,1,0,1:0:0:0:
192,0,8434,1,0,1:0:0:0:
448,0,8434,1,0,1:0:0:0:
320,0,8597,1,0,1:0:0:0:
448,0,8597,1,0,1:0:0:0:
192,0,8760,1,0,1:0:0:0:
64,0,8923,1,0,1:0:0:0:
320,0,8923,1,0,1:0:0:0:
320,0,9086,1,0,1:0:0:0:
192,0,9249,1,0,1:0:0:0:
320,0,9249,1,0,1:0:0:0:
448,0,9249,1,0,1:0:0:0:
192,0,9412,1,0,1:0:0:0:
64,0,9575,1,0,1:0:0:0:
192,0,9575,1,0,1:0:0:0:
320,0,9575,1,0,1:0:0:0:
64,0,9738,1,0,1:0:0:0:
320,0,9738,1,0,1:0:0:0:
192,0,9901,1,0,1:0:0:0:
320,0,9901,1,0,1:0:0:0:
448,0,9901,1,0,1:0:0:0:
320,0,10064,1,0,1:0:0:0:
448,0,10064,1,0,1:0:0:0:
320,0,10227,1,0,1:0:0:0:
448,0,10227,1,0,1:0:0:0:
64,0,10390,1,0,1:0:0:0:
320,0,10390,1,0,1:0:0:0:
448,0,10390,1,0,1:0:0:0:
192,0,10472,1,0,1:0:0:0:
320,0,10553,1,0,1:0:0:0:
448,0,10635,1,0,1:0:0:0:
64,0,10717,1,0,1:0:0:0:
192,0,10717,1,0,1:0:0:0:
320,0,10798,1,0,1:0:0:0:
64,0,10880,1,0,1:0:0:0:
192,0,10880,1,0,1:0:0:0:
448,0,10880,1,0,1:0:0:0:
320,0,10961,1,0,1:0:0:0:
64,0,11043,1,0,1:0:0:0:
192,0,11043,1,0,1:0:0:0:
448,0,11124,1,0,1:0:0:0:
64,0,11206,1,0,1:0:0:0:
192,0,11206,1,0,1:0:0:0:
320,0,11206,1,0,1:0:0:0:
448,0,11287,1,0,1:0:0:0:
64,0,11369,1,0,1:0:0:0:
192,0,11369,1,0,1:0:0:0:
320,0,11450,1,0,1:0:0:0:
64,0,11532,1,0,1:0:0:0:
192,0,11532,1,0,1:0:0:0:
448,0,11532,1,0,1:0:0:0:
320,0,11613,1,0,1:0:0:0:
64,0,11695,1,0,1:0:0:0:
192,0,11695,1,0,1:0:0:0:
448,0,11695,1,0,1:0:0:0:
320,0,11776,1,0,1:0:0:0:
192,0,11858,1,0,1:0:0:0:
64,0,11939,1,0,1:0:0:0:
448,0,12021,1,0,1:0:0:0:
320,0,12102,1,0,1:0:0:0:
64,0,12184,1,0,1:0:0:0:
192,0,12184,1,0,1:0:0:0:
448,0,12184,1,0,1:0:0:0:
320,0,12265,1,0,1:0:0:0:
64,0,12347,1,0,1:0:0:0:
192,0,12347,1,0,1:0:0:0:
448,0,12428,1,0,1:0:0:0:
64,0,12510,1,0,1:0:0:0:
192,0,12510,1,0,1:0:0:0:
320,0,12510,1,0,1:0:0:0:
448,0,12591,1,0,1:0:0:0:
64,0,12673,1,0,1:0:0:0:
192,0,12673,1,0,1:0:0:0:
320,0,12755,1,0,1:0:0:0:
64,0,12836,1,0,1:0:0:0:
192,0,12836,1,0,1:0:0:0:
448,0,12836,1,0,1:0:0:0:
320,0,12918,1,0,1:0:0:0:
64,0,12999,1,0,1:0:0:0:
192,0,12999,1,0,1:0:0:0:
448,0,12999,1,0,1:0:0:0:
320,0,13081,1,0,1:0:0:0:
64,0,13162,1,0,1:0:0:0:
192,0,13244,1,0,1:0:0:0:
320,0,13325,1,0,1:0:0:0:
448,0,13325,1,0,1:0:0:0:
64,0,13407,1,0,1:0:0:0:
192,0,13488,1,0,1:0:0:0:
320,0,13488,1,0,1:0:0:0:
448,0,13488,1,0,1:0:0:0:
64,0,13570,1,0,1:0:0:0:
320,0,13651,1,0,1:0:0:0:
448,0,13651,1,0,1:0:0:0:
192,0,13733,1,0,1:0:0:0:
64,0,13814,1,0,1:0:0:0:
320,0,13814,1,0,1:0:0:0:
448,0,13814,1,0,1:0:0:0:
192,0,13896,1,0,1:0:0:0:
320,0,13977,1,0,1:0:0:0:
448,0,13977,1,0,1:0:0:0:
192,0,14059,1,0,1:0:0:0:
64,0,14140,1,0,1:0:0:0:
320,0,14140,1,0,1:0:0:0:
448,0,14140,1,0,1:0:0:0:
192,0,14222,1,0,1:0:0:0:
64,0,14303,1,0,1:0:0:0:
320,0,14303,1,0,1:0:0:0:
448,0,14303,1,0,1:0:0:0:
192,0,14385,1,0,1:0:0:0:
64,0,14466,1,0,1:0:0:0:
448,0,14466,1,0,1:0:0:0:
320,0,14548,1,0,1:0:0:0:
64,0,14629,1,0,1:0:0:0:
192,0,14629,1,0,1:0:0:0:
448,0,14711,1,0,1:0:0:0:
64,0,14792,1,0,1:0:0:0:
192,0,14792,1,0,1:0:0:0:
320,0,14792,1,0,1:0:0:0:
448,0,14874,1,0,1:0:0:0:
64,0,14956,1,0,1:0:0:0:
192,0,14956,1,0,1:0:0:0:
320,0,15037,1,0,1:0:0:0:
64,0,15119,1,0,1:0:0:0:
192,0,15119,1,0,1:0:0:0:
448,0,15119,1,0,1:0:0:0:
320,0,15200,1,0,1:0:0:0:
64,0,15282,1,0,1:0:0:0:
192,0,15282,1,0,1:0:0:0:
448,0,15363,1,0,1:0:0:0:
64,0,15445,1,0,1:0:0:0:
192,0,15445,1,0,1:0:0:0:
320,0,15445,1,0,1:0:0:0:
448,0,15526,1,0,1:0:0:0:
64,0,15608,1,0,1:0:0:0:
192,0,15608,1,0,1:0:0:0:
320,0,15608,1,0,1:0:0:0:
448,0,15689,1,0,1:0:0:0:
64,0,15771,1,0,1:0:0:0:
320,0,15852,1,0,1:0:0:0:
192,0,15934,1,0,1:0:0:0:
320,0,16015,1,0,1:0:0:0:
64,0,16097,1,0,1:0:0:0:
192,0,16097,1,0,1:0:0:0:
448,0,16097,1,0,1:0:0:0:
320,0,16178,1,0,1:0:0:0:
64,0,16260,1,0,1:0:0:0:
192,0,16260,1,0,1:0:0:0:
448,0,16341,1,0,1:0:0:0:
64,0,16423,1,0,1:0:0:0:
192,0,16423,1,0,1:0:0:0:
320,0,16423,1,0,1:0:0:0:
448,0,16504,1,0,1:0:0:0:
64,0,16586,1,0,1:0:0:0:
192,0,16586,1,0,1:0:0:0:
320,0,16667,1,0,1:0:0:0:
64,0,16749,1,0,1:0:0:0:
192,0,16749,1,0,1:0:0:0:
448,0,16749,1,0,1:0:0:0:
320,0,16830,1,0,1:0:0:0:
64,0,16912,1,0,1:0:0:0:
192,0,16912,1,0,1:0:0:0:
448,0,16912,1,0,1:0:0:0:
320,0,16994,1,0,1:0:0:0:
448,0,17075,1,0,1:0:0:0:
64,0,17157,1,0,1:0:0:0:
320,0,17238,1,0,1:0:0:0:
448,0,17238,1,0,1:0:0:0:
192,0,17320,1,0,1:0:0:0:
64,0,17401,1,0,1:0:0:0:
320,0,17401,1,0,1:0:0:0:
448,0,17401,1,0,1:0:0:0:
192,0,17483,1,0,1:0:0:0:
320,0,17564,1,0,1:0:0:0:
448,0,17564,1,0,1:0:0:0:
64,0,17646,1,0,1:0:0:0:
192,0,17727,1,0,1:0:0:0:
320,0,17727,1,0,1:0:0:0:
448,0,17727,1,0,1:0:0:0:
64,0,17809,1,0,1:0:0:0:
320,0,17890,1,0,1:0:0:0:
448,0,17890,1,0,1:0:0:0:
192,0,17972,1,0,1:0:0:0:
64,0,18053,1,0,1:0:0:0:
320,0,18053,1,0,1:0:0:0:
448,0,18053,1,0,1:0:0:0:
192,0,18135,1,0,1:0:0:0:
64,0,18216,1,0,1:0:0:0:
320,0,18216,1,0,1:0:0:0:
448,0,18216,1,0,1:0:0:0:
192,0,18298,1,0,1:0:0:0:
448,0,18379,1,0,1:0:0:0:
320,0,18461,1,0,1:0:0:0:
64,0,18542,1,0,1:0:0:0:
192,0,18542,1,0,1:0:0:0:
320,0,18624,1,0,1:0:0:0:
64,0,18705,1,0,1:0:0:0:
192,0,18705,1,0,1:0:0:0:
448,0,18705,1,0,1:0:0:0:
320,0,18787,1,0,1:0:0:0:
64,0,18868,1,0,1:0:0:0:
192,0,18868,1,0,1:0:0:0:
448,0,18950,1,0,1:0:0:0:
64,0,19032,1,0,1:0:0:0:
192,0,19032,1,0,1:0:0:0:
320,0,19032,1,0,1:0:0:0:
448,0,19113,1,0,1:0:0:0:
64,0,19195,1,0,1:0:0:0:
192,0,19195,1,0,1:0:0:0:
320,0,19276,1,0,1:0:0:0:
64,0,19358,1,0,1:0:0:0:
192,0,19358,1,0,1:0:0:0:
448,0,19358,1,0,1:0:0:0:
320,0,19439,1,0,1:0:0:0:
64,0,19521,1,0,1:0:0:0:
192,0,19521,1,0,1:0:0:0:
448,0,19521,1,0,1:0:0:0:
320,0,19602,1,0,1:0:0:0:
64,0,19684,1,0,1:0:0:0:
448,0,19684,1,0,1:0:0:0:
192,0,19765,1,0,1:0:0:0:
320,0,19847,1,0,1:0:0:0:
448,0,19847,1,0,1:0:0:0:
64,0,19928,1,0,1:0:0:0:
192,0,20010,1,0,1:0:0:0:
320,0,20010,1,0,1:0:0:0:
448,0,20010,1,0,1:0:0:0:
64,0,20091,1,0,1:0:0:0:
320,0,20173,1,0,1:0:0:0:
448,0,20173,1,0,1:0:0:0:
192,0,20254,1,0,1:0:0:0:
64,0,20336,1,0,1:0:0:0:
320,0,20336,1,0,1:0:0:0:
448,0,20336,1,0,1:0:0:0:
192,0,20417,1,0,1:0:0:0:
320,0,20499,1,0,1:0:0:0:
448,0,20499,1,0,1:0:0:0:
64,0,20580,1,0,1:0:0:0:
192,0,20580,1,0,1:0:0:0:
320,0,20662,1,0,1:0:0:0:
448,0,20662,1,0,1:0:0:0:
64,0,20743,1,0,1:0:0:0:
192,0,20743,1,0,1:0:0:0:
320,0,20825,1,0,1:0:0:0:
448,0,20825,1,0,1:0:0:0:
192,0,21151,1,0,1:0:0:0:
64,0,21314,1,0,1:0:0:0:
320,0,21314,1,0,1:0:0:0:
448,0,21314,1,0,1:0:0:0:
192,0,21477,1,0,1:0:0:0:
192,0,21640,1,0,1:0:0:0:
320,0,21640,1,0,1:0:0:0:
448,0,21640,1,0,1:0:0:0:
320,0,21803,1,0,1:0:0:0:
64,0,21966,1,0,1:0:0:0:
192,0,21966,1,0,1:0:0:0:
320,0,21966,1,0,1:0:0:0:
64,0,22129,1,0,1:0:0:0:
192,0,22129,1,0,1:0:0:0:
320,0,22129,1,0,1:0:0:0:
192,0,22455,1,0,1:0:0:0:
320,0,22455,1,0,1:0:0:0:
64,0,22618,1,0,1:0:0:0:
320,0,22618,1,0,1:0:0:0:
448,0,22618,1,0,1:0:0:0:
64,0,22781,1,0,1:0:0:0:
192,0,22944,1,0,1:0:0:0:
320,0,22944,1,0,1:0:0:0:
448,0,22944,1,0,1:0:0:0:
64,0,23107,1,0,1:0:0:0:
448,0,23107,1,0,1:0:0:0:
192,0,23189,1,0,1:0:0:0:
320,0,23189,1,0,1:0:0:0:
64,0,23271,1,0,1:0:0:0:
448,0,23271,1,0,1:0:0:0:
192,0,23352,1,0,1:0:0:0:
320,0,23352,1,0,1:0:0:0:
64,0,23434,1,0,1:0:0:0:
448,0,23434,1,0,1:0:0:0:
192,0,23515,1,0,1:0:0:0:
320,0,23515,1,0,1:0:0:0:
64,0,23597,1,0,1:0:0:0:
448,0,23597,1,0,1:0:0:0:
192,0,23678,1,0,1:0:0:0:
64,0,23760,1,0,1:0:0:0:
320,0,23760,1,0,1:0:0:0:
448,0,23841,1,0,1:0:0:0:
64,0,23923,1,0,1:0:0:0:
192,0,23923,1,0,1:0:0:0:
320,0,23923,1,0,1:0:0:0:
448,0,24004,1,0,1:0:0:0:
64,0,24086,1,0,1:0:0:0:
192,0,24086,1,0,1:0:0:0:
320,0,24167,1,0,1:0:0:0:
64,0,24249,1,0,1:0:0:0:
192,0,24249,1,0,1:0:0:0:
448,0,24249,1,0,1:0:0:0:
320,0,24330,1,0,1:0:0:0:
64,0,24412,1,0,1:0:0:0:
192,0,24412,1,0,1:0:0:0:
448,0,24493,1,0,1:0:0:0:
64,0,24575,1,0,1:0:0:0:
192,0,24575,1,0,1:0:0:0:
320,0,24575,1,0,1:0:0:0:
448,0,24656,1,0,1:0:0:0:
192,0,24738,1,0,1:0:0:0:
320,0,24738,1,0,1:0:0:0:
64,0,24819,1,0,1:0:0:0:
192,0,24901,1,0,1:0:0:0:
320,0,24901,1,0,1:0:0:0:
448,0,24901,1,0,1:0:0:0:
64,0,24982,1,0,1:0:0:0:
320,0,25064,1,0,1:0:0:0:
448,0,25064,1,0,1:0:0:0:
192,0,25145,1,0,1:0:0:0:
64,0,25227,1,0,1:0:0:0:
320,0,25227,1,0,1:0:0:0:
448,0,25227,1,0,1:0:0:0:
192,0,25309,1,0,1:0:0:0:
320,0,25390,1,0,1:0:0:0:
448,0,25390,1,0,1:0:0:0:
192,0,25472,1,0,1:0:0:0:
64,0,25553,1,0,1:0:0:0:
320,0,25553,1,0,1:0:0:0:
448,0,25553,1,0,1:0:0:0:
192,0,25635,1,0,1:0:0:0:
64,0,25716,1,0,1:0:0:0:
448,0,25716,1,0,1:0:0:0:
192,0,25798,1,0,1:0:0:0:
320,0,25798,1,0,1:0:0:0:
64,0,25879,1,0,1:0:0:0:
448,0,25879,1,0,1:0:0:0:
192,0,25961,1,0,1:0:0:0:
320,0,25961,1,0,1:0:0:0:
64,0,26042,1,0,1:0:0:0:
448,0,26042,1,0,1:0:0:0:
192,0,26124,1,0,1:0:0:0:
320,0,26124,1,0,1:0:0:0:
64,0,26205,1,0,1:0:0:0:
448,0,26205,1,0,1:0:0:0:
320,0,26287,1,0,1:0:0:0:
64,0,26368,1,0,1:0:0:0:
192,0,26368,1,0,1:0:0:0:
320,0,26450,1,0,1:0:0:0:
64,0,26531,1,0,1:0:0:0:
192,0,26531,1,0,1:0:0:0:
448,0,26531,1,0,1:0:0:0:
320,0,26613,1,0,1:0:0:0:
64,0,26694,1,0,1:0:0:0:
192,0,26694,1,0,1:0:0:0:
320,0,26776,1,0,1:0:0:0:
64,0,26857,1,0,1:0:0:0:
192,0,26857,1,0,1:0:0:0:
448,0,26857,1,0,1:0:0:0:
320,0,26939,1,0,1:0:0:0:
64,0,27020,1,0,1:0:0:0:
448,0,27020,1,0,1:0:0:0:
192,0,27102,1,0,1:0:0:0:
64,0,27183,1,0,1:0:0:0:
320,0,27183,1,0,1:0:0:0:
448,0,27183,1,0,1:0:0:0:
192,0,27265,1,0,1:0:0:0:
320,0,27347,1,0,1:0:0:0:
448,0,27347,1,0,1:0:0:0:
64,0,27428,1,0,1:0:0:0:
192,0,27510,1,0,1:0:0:0:
320,0,27510,1,0,1:0:0:0:
448,0,27510,1,0,1:0:0:0:
64,0,27591,1,0,1:0:0:0:
320,0,27673,1,0,1:0:0:0:
448,0,27673,1,0,1:0:0:0:
192,0,27754,1,0,1:0:0:0:
64,0,27836,1,0,1:0:0:0:
320,0,27836,1,0,1:0:0:0:
448,0,27836,1,0,1:0:0:0:
192,0,27917,1,0,1:0:0:0:
64,0,27999,1,0,1:0:0:0:
448,0,27999,1,0,1:0:0:0:
320,0,28080,1,0,1:0:0:0:
64,0,28162,1,0,1:0:0:0:
192,0,28162,1,0,1:0:0:0:
448,0,28162,1,0,1:0:0:0:
320,0,28243,1,0,1:0:0:0:
64,0,28325,1,0,1:0:0:0:
192,0,28325,1,0,1:0:0:0:
448,0,28406,1,0,1:0:0:0:
64,0,28488,1,0,1:0:0:0:
192,0,28488,1,0,1:0:0:0:
320,0,28488,1,0,1:0:0:0:
448,0,28569,1,0,1:0:0:0:
64,0,28651,1,0,1:0:0:0:
192,0,28651,1,0,1:0:0:0:
320,0,28732,1,0,1:0:0:0:
64,0,28814,1,0,1:0:0:0:
192,0,28814,1,0,1:0:0:0:
448,0,28814,1,0,1:0:0:0:
320,0,28895,1,0,1:0:0:0:
64,0,28977,1,0,1:0:0:0:
448,0,28977,1,0,1:0:0:0:
192,0,29058,1,0,1:0:0:0:
64,0,29140,1,0,1:0:0:0:
320,0,29140,1,0,1:0:0:0:
448,0,29140,1,0,1:0:0:0:
192,0,29221,1,0,1:0:0:0:
320,0,29303,1,0,1:0:0:0:
448,0,29303,1,0,1:0:0:0:
64,0,29384,1,0,1:0:0:0:
192,0,29466,1,0,1:0:0:0:
320,0,29466,1,0,1:0:0:0:
448,0,29466,1,0,1:0:0:0:
64,0,29548,1,0,1:0:0:0:
320,0,29629,1,0,1:0:0:0:
448,0,29629,1,0,1:0:0:0:
192,0,29711,1,0,1:0:0:0:
64,0,29792,1,0,1:0:0:0:
320,0,29792,1,0,1:0:0:0:
448,0,29792,1,0,1:0:0:0:
192,0,29874,1,0,1:0:0:0:
64,0,29955,1,0,1:0:0:0:
448,0,29955,1,0,1:0:0:0:
320,0,30037,1,0,1:0:0:0:
64,0,30118,1,0,1:0:0:0:
192,0,30118,1,0,1:0:0:0:
448,0,30118,1,0,1:0:0:0:
320,0,30200,1,0,1:0:0:0:
64,0,30281,1,0,1:0:0:0:
192,0,30281,1,0,1:0:0:0:
320,0,30363,1,0,1:0:0:0:
64,0,30444,1,0,1:0:0:0:
192,0,30444,1,0,1:0:0:0:
448,0,30444,1,0,1:0:0:0:
320,0,30526,1,0,1:0:0:0:
64,0,30607,1,0,1:0:0:0:
448,0,30607,1,0,1:0:0:0:
192,0,30689,1,0,1:0:0:0:
64,0,30770,1,0,1:0:0:0:
320,0,30770,1,0,1:0:0:0:
448,0,30770,1,0,1:0:0:0:
192,0,30852,1,0,1:0:0:0:
320,0,30933,1,0,1:0:0:0:
448,0,30933,1,0,1:0:0:0:
64,0,31015,1,0,1:0:0:0:
192,0,31015,1,0,1:0:0:0:
320,0,31096,1,0,1:0:0:0:
448,0,31096,1,0,1:0:0:0:
64,0,31178,1,0,1:0:0:0:
192,0,31259,1,0,1:0:0:0:
320,0,31259,1,0,1:0:0:0:
448,0,31259,1,0,1:0:0:0:
64,0,31586,1,0,1:0:0:0:
192,0,31586,1,0,1:0:0:0:
448,0,31586,1,0,1:0:0:0:
64,0,31749,1,0,1:0:0:0:
192,0,31749,1,0,1:0:0:0:
320,0,31749,1,0,1:0:0:0:
448,0,31749,1,0,1:0:0:0:
192,0,31912,1,0,1:0:0:0:
448,0,31912,1,0,1:0:0:0:
64,0,32075,1,0,1:0:0:0:
320,0,32075,1,0,1:0:0:0:
448,0,32075,1,0,1:0:0:0:
64,0,32238,1,0,1:0:0:0:
192,0,32238,1,0,1:0:0:0:
64,0,32401,1,0,1:0:0:0:
192,0,32401,1,0,1:0:0:0:
320,0,32401,1,0,1:0:0:0:
448,0,32401,1,0,1:0:0:0:
192,0,32564,1,0,1:0:0:0:
320,0,32564,1,0,1:0:0:0:
448,0,32564,1,0,1:0:0:0:
64,0,32727,1,0,1:0:0:0:
448,0,32727,1,0,1:0:0:0:
64,0,32890,1,0,1:0:0:0:
192,0,32890,1,0,1:0:0:0:
64,0,33053,1,0,1:0:0:0:
192,0,33053,1,0,1:0:0:0:
320,0,33053,1,0,1:0:0:0:
448,0,33053,1,0,1:0:0:0:
64,0,33379,1,0,1:0:0:0:
192,0,33379,1,0,1:0:0:0:
320,0,33379,1,0,1:0:0:0:
192,0,33542,1,0,1:0:0:0:
320,0,33542,1,0,1:0:0:0:
448,0,33542,1,0,1:0:0:0:
64,0,33705,1,0,1:0:0:0:
192,0,33705,1,0,1:0:0:0:
320,0,33705,1,0,1:0:0:0:
64,0,33868,1,0,1:0:0:0:
192,0,33868,1,0,1:0:0:0:
320,0,33868,1,0,1:0:0:0:
448,0,33868,1,0,1:0:0:0:
64,0,34194,128,0,34276:0:0:0:0:
192,0,34194,1,0,1:0:0:0:
192,0,34357,1,0,1:0:0:0:
320,0,34357,128,0,34439:0:0:0:0:
448,0,34357,1,0,1:0:0:0:
64,0,34520,1,0,1:0:0:0:
192,0,34520,128,0,34602:0:0:0:0:
320,0,34683,1,0,1:0:0:0:
448,0,34683,128,0,34765:0:0:0:0:
64,0,34846,1,0,1:0:0:0:
192,0,34846,128,0,34928:0:0:0:0:
64,0,35009,128,0,35091:0:0:0:0:
320,0,35009,1,0,1:0:0:0:
448,0,35009,1,0,1:0:0:0:
64,0,35172,1,0,1:0:0:0:
192,0,35172,1,0,1:0:0:0:
320,0,35172,1,0,1:0:0:0:
448,0,35172,1,0,1:0:0:0:
64,0,35498,1,0,1:0:0:0:
192,0,35498,128,0,35580:0:0:0:0:
64,0,35661,1,0,1:0:0:0:
320,0,35661,128,0,35743:0:0:0:0:
448,0,35661,1,0,1:0:0:0:
64,0,35825,128,0,35906:0:0:0:0:
192,0,35825,1,0,1:0:0:0:
320,0,35988,1,0,1:0:0:0:
448,0,35988,128,0,36069:0:0:0:0:
192,0,36151,128,0,36232:0:0:0:0:
320,0,36151,1,0,1:0:0:0:
64,0,36314,1,0,1:0:0:0:
320,0,36314,128,0,36395:0:0:0:0:
448,0,36314,1,0,1:0:0:0:
64,0,36477,1,0,1:0:0:0:
192,0,36477,1,0,1:0:0:0:
320,0,36477,1,0,1:0:0:0:
448,0,36477,1,0,1:0:0:0:
64,0,36803,1,0,1:0:0:0:
192,0,36803,1,0,1:0:0:0:
320,0,36803,1,0,1:0:0:0:
64,0,36966,1,0,1:0:0:0:
192,0,36966,1,0,1:0:0:0:
320,0,36966,1,0,1:0:0:0:
448,0,36966,1,0,1:0:0:0:
64,0,37292,1,0,1:0:0:0:
192,0,37292,1,0,1:0:0:0:
320,0,37292,1,0,1:0:0:0:
192,0,37455,1,0,1:0:0:0:
448,0,37455,1,0,1:0:0:0:
64,0,37618,1,0,1:0:0:0:
192,0,37618,1,0,1:0:0:0:
320,0,37618,1,0,1:0:0:0:
448,0,37618,1,0,1:0:0:0:
64,0,37781,1,0,1:0:0:0:
192,0,37781,1,0,1:0:0:0:
192,0,37944,1,0,1:0:0:0:
320,0,37944,1,0,1:0:0:0:
448,0,37944,1,0,1:0:0:0:
64,0,38107,1,0,1:0:0:0:
320,0,38107,1,0,1:0:0:0:
64,0,38270,1,0,1:0:0:0:
192,0,38270,1,0,1:0:0:0:
320,0,38270,1,0,1:0:0:0:
448,0,38270,1,0,1:0:0:0:
64,0,38433,1,0,1:0:0:0:
192,0,38433,1,0,1:0:0:0:
320,0,38433,1,0,1:0:0:0:
192,0,38596,1,0,1:0:0:0:
320,0,38596,1,0,1:0:0:0:
448,0,38596,1,0,1:0:0:0:
64,0,38759,1,0,1:0:0:0:
192,0,38759,1,0,1:0:0:0:
448,0,38759,1,0,1:0:0:0:
64,0,38922,1,0,1:0:0:0:
192,0,38922,1,0,1:0:0:0:
320,0,38922,1,0,1:0:0:0:
64,0,39085,1,0,1:0:0:0:
192,0,39085,1,0,1:0:0:0:
320,0,39085,1,0,1:0:0:0:
448,0,39085,1,0,1:0:0:0:
64,0,39411,128,0,39493:0:0:0:0:
320,0,39411,1,0,1:0:0:0:
192,0,39574,128,0,39656:0:0:0:0:
320,0,39574,1,0,1:0:0:0:
448,0,39574,1,0,1:0:0:0:
64,0,39737,1,0,1:0:0:0:
320,0,39737,128,0,39819:0:0:0:0:
192,0,39901,1,0,1:0:0:0:
448,0,39901,128,0,39982:0:0:0:0:
64,0,40064,128,0,40145:0:0:0:0:
320,0,40064,1,0,1:0:0:0:
192,0,40227,1,0,1:0:0:0:
320,0,40227,128,0,40308:0:0:0:0:
448,0,40227,1,0,1:0:0:0:
64,0,40390,1,0,1:0:0:0:
192,0,40390,1,0,1:0:0:0:
320,0,40390,1,0,1:0:0:0:
448,0,40390,1,0,1:0:0:0:
448,0,40716,1,0,1:0:0:0:
192,0,40797,1,0,1:0:0:0:
64,0,40879,1,0,1:0:0:0:
320,0,40879,1,0,1:0:0:0:
448,0,40879,1,0,1:0:0:0:
64,0,41042,1,0,1:0:0:0:
192,0,41042,1,0,1:0:0:0:
320,0,41123,1,0,1:0:0:0:
448,0,41123,1,0,1:0:0:0:
64,0,41205,1,0,1:0:0:0:
192,0,41205,1,0,1:0:0:0:
64,0,41368,1,0,1:0:0:0:
448,0,41368,1,0,1:0:0:0:
192,0,41449,1,0,1:0:0:0:
320,0,41449,1,0,1:0:0:0:
64,0,41531,1,0,1:0:0:0:
448,0,41531,1,0,1:0:0:0:
64,0,41694,1,0,1:0:0:0:
192,0,41694,1,0,1:0:0:0:
320,0,41694,1,0,1:0:0:0:
448,0,41694,1,0,1:0:0:0:
64,0,42020,1,0,1:0:0:0:
192,0,42020,1,0,1:0:0:0:
320,0,42020,1,0,1:0:0:0:
64,0,42183,1,0,1:0:0:0:
192,0,42183,1,0,1:0:0:0:
320,0,42183,1,0,1:0:0:0:
448,0,42183,1,0,1:0:0:0:
192,0,42509,1,0,1:0:0:0:
320,0,42509,1,0,1:0:0:0:
448,0,42509,1,0,1:0:0:0:
64,0,42672,1,0,1:0:0:0:
192,0,42672,1,0,1:0:0:0:
448,0,42672,1,0,1:0:0:0:
64,0,42835,1,0,1:0:0:0:
192,0,42835,1,0,1:0:0:0:
320,0,42835,1,0,1:0:0:0:
64,0,42998,1,0,1:0:0:0:
192,0,42998,1,0,1:0:0:0:
320,0,42998,1,0,1:0:0:0:
448,0,42998,1,0,1:0:0:0:
64,0,43324,1,0,1:0:0:0:
192,0,43324,1,0,1:0:0:0:
192,0,43487,1,0,1:0:0:0:
320,0,43487,1,0,1:0:0:0:
448,0,43487,1,0,1:0:0:0:
192,0,43650,1,0,1:0:0:0:
448,0,43650,1,0,1:0:0:0:
64,0,43813,1,0,1:0:0:0:
192,0,43813,1,0,1:0:0:0:
320,0,43813,1,0,1:0:0:0:
192,0,43976,1,0,1:0:0:0:
320,0,43976,1,0,1:0:0:0:
448,0,43976,1,0,1:0:0:0:
64,0,44140,1,0,1:0:0:0:
192,0,44140,1,0,1:0:0:0:
320,0,44140,1,0,1:0:0:0:
64,0,44303,1,0,1:0:0:0:
192,0,44303,1,0,1:0:0:0:
320,0,44303,1,0,1:0:0:0:
448,0,44303,1,0,1:0:0:0:
320,0,44629,1,0,1:0:0:0:
448,0,44629,1,0,1:0:0:0:
64,0,44792,1,0,1:0:0:0:
192,0,44792,1,0,1:0:0:0:
448,0,44792,1,0,1:0:0:0:
192,0,44955,1,0,1:0:0:0:
320,0,44955,1,0,1:0:0:0:
64,0,45118,1,0,1:0:0:0:
320,0,45118,1,0,1:0:0:0:
448,0,45118,1,0,1:0:0:0:
64,0,45281,1,0,1:0:0:0:
192,0,45281,1,0,1:0:0:0:
448,0,45281,1,0,1:0:0:0:
64,0,45444,1,0,1:0:0:0:
320,0,45444,1,0,1:0:0:0:
448,0,45444,1,0,1:0:0:0:
64,0,45607,1,0,1:0:0:0:
192,0,45607,1,0,1:0:0:0:
320,0,45607,1,0,1:0:0:0:
448,0,45607,1,0,1:0:0:0:
320,0,45933,1,0,1:0:0:0:
192,0,46014,1,0,1:0:0:0:
64,0,46096,1,0,1:0:0:0:
320,0,46096,1,0,1:0:0:0:
448,0,46096,1,0,1:0:0:0:
192,0,46259,1,0,1:0:0:0:
320,0,46341,1,0,1:0:0:0:
64,0,46422,1,0,1:0:0:0:
448,0,46422,1,0,1:0:0:0:
64,0,46585,1,0,1:0:0:0:
192,0,46585,1,0,1:0:0:0:
320,0,46639,1,0,1:0:0:0:
448,0,46694,1,0,1:0:0:0:
64,0,46748,1,0,1:0:0:0:
64,0,46911,1,0,1:0:0:0:
192,0,46911,1,0,1:0:0:0:
320,0,46911,1,0,1:0:0:0:
448,0,46911,1,0,1:0:0:0:
320,0,47237,1,0,1:0:0:0:
448,0,47237,1,0,1:0:0:0:
64,0,47400,1,0,1:0:0:0:
192,0,47400,1,0,1:0:0:0:
320,0,47400,1,0,1:0:0:0:
64,0,47563,1,0,1:0:0:0:
448,0,47563,1,0,1:0:0:0:
192,0,47726,1,0,1:0:0:0:
320,0,47726,1,0,1:0:0:0:
448,0,47726,1,0,1:0:0:0:
64,0,47889,1,0,1:0:0:0:
192,0,47889,1,0,1:0:0:0:
448,0,47889,1,0,1:0:0:0:
64,0,48052,1,0,1:0:0:0:
192,0,48052,1,0,1:0:0:0:
320,0,48052,1,0,1:0:0:0:
64,0,48215,1,0,1:0:0:0:
192,0,48215,1,0,1:0:0:0:
320,0,48215,1,0,1:0:0:0:
448,0,48215,1,0,1:0:0:0:
64,0,48542,1,0,1:0:0:0:
192,0,48542,1,0,1:0:0:0:
192,0,48705,1,0,1:0:0:0:
320,0,48705,1,0,1:0:0:0:
448,0,48705,1,0,1:0:0:0:
192,0,48868,1,0,1:0:0:0:
320,0,48868,1,0,1:0:0:0:
64,0,49031,1,0,1:0:0:0:
192,0,49031,1,0,1:0:0:0:
448,0,49031,1,0,1:0:0:0:
64,0,49194,1,0,1:0:0:0:
192,0,49194,1,0,1:0:0:0:
320,0,49194,1,0,1:0:0:0:
64,0,49357,1,0,1:0:0:0:
320,0,49357,1,0,1:0:0:0:
448,0,49357,1,0,1:0:0:0:
64,0,49520,1,0,1:0:0:0:
192,0,49520,1,0,1:0:0:0:
320,0,49520,1,0,1:0:0:0:
448,0,49520,1,0,1:0:0:0:
192,0,49846,1,0,1:0:0:0:
320,0,49846,1,0,1:0:0:0:
64,0,50009,1,0,1:0:0:0:
192,0,50009,1,0,1:0:0:0:
448,0,50009,1,0,1:0:0:0:
192,0,50172,1,0,1:0:0:0:
320,0,50172,1,0,1:0:0:0:
448,0,50172,1,0,1:0:0:0:
64,0,50335,1,0,1:0:0:0:
192,0,50335,1,0,1:0:0:0:
320,0,50335,1,0,1:0:0:0:
320,0,50498,1,0,1:0:0:0:
448,0,50498,1,0,1:0:0:0:
64,0,50661,1,0,1:0:0:0:
192,0,50661,1,0,1:0:0:0:
448,0,50661,1,0,1:0:0:0:
64,0,50824,1,0,1:0:0:0:
192,0,50824,1,0,1:0:0:0:
64,0,50987,1,0,1:0:0:0:
192,0,50987,1,0,1:0:0:0:
320,0,50987,1,0,1:0:0:0:
192,0,51150,1,0,1:0:0:0:
320,0,51150,1,0,1:0:0:0:
64,0,51313,1,0,1:0:0:0:
192,0,51313,1,0,1:0:0:0:
320,0,51313,1,0,1:0:0:0:
448,0,51313,1,0,1:0:0:0:
64,0,51476,1,0,1:0:0:0:
320,0,51476,1,0,1:0:0:0:
448,0,51476,1,0,1:0:0:0:
64,0,51639,1,0,1:0:0:0:
192,0,51639,1,0,1:0:0:0:
320,0,51639,1,0,1:0:0:0:
64,0,51802,1,0,1:0:0:0:
320,0,51802,1,0,1:0:0:0:
448,0,51802,1,0,1:0:0:0:
64,0,51965,1,0,1:0:0:0:
320,0,51965,1,0,1:0:0:0:
448,0,51965,1,0,1:0:0:0:
192,0,52047,1,0,1:0:0:0:
320,0,52128,1,0,1:0:0:0:
64,0,52210,1,0,1:0:0:0:
192,0,52291,1,0,1:0:0:0:
320,0,52291,1,0,1:0:0:0:
448,0,52291,1,0,1:0:0:0:
64,0,52618,1,0,1:0:0:0:
448,0,52699,1,0,1:0:0:0:
320,0,52781,1,0,1:0:0:0:
192,0,52862,1,0,1:0:0:0:
64,0,52944,1,0,1:0:0:0:
320,0,52944,1,0,1:0:0:0:
448,0,52944,1,0,1:0:0:0:
192,0,53025,1,0,1:0:0:0:
320,0,53107,1,0,1:0:0:0:
64,0,53188,1,0,1:0:0:0:
320,0,53270,1,0,1:0:0:0:
448,0,53270,1,0,1:0:0:0:
192,0,53351,1,0,1:0:0:0:
64,0,53433,1,0,1:0:0:0:
320,0,53514,1,0,1:0:0:0:
64,0,53596,1,0,1:0:0:0:
448,0,53596,1,0,1:0:0:0:
192,0,53677,1,0,1:0:0:0:
320,0,53759,1,0,1:0:0:0:
448,0,53840,1,0,1:0:0:0:
64,0,53922,1,0,1:0:0:0:
192,0,53922,1,0,1:0:0:0:
320,0,54003,1,0,1:0:0:0:
64,0,54085,1,0,1:0:0:0:
448,0,54085,1,0,1:0:0:0:
320,0,54166,1,0,1:0:0:0:
64,0,54248,1,0,1:0:0:0:
192,0,54248,1,0,1:0:0:0:
448,0,54248,1,0,1:0:0:0:
320,0,54329,1,0,1:0:0:0:
64,0,54411,1,0,1:0:0:0:
192,0,54411,1,0,1:0:0:0:
320,0,54493,1,0,1:0:0:0:
64,0,54574,1,0,1:0:0:0:
448,0,54574,1,0,1:0:0:0:
192,0,54656,1,0,1:0:0:0:
320,0,54737,1,0,1:0:0:0:
448,0,54737,1,0,1:0:0:0:
64,0,54819,1,0,1:0:0:0:
192,0,54900,1,0,1:0:0:0:
320,0,54900,1,0,1:0:0:0:
448,0,54982,1,0,1:0:0:0:
64,0,55063,1,0,1:0:0:0:
192,0,55063,1,0,1:0:0:0:
448,0,55145,1,0,1:0:0:0:
192,0,55226,1,0,1:0:0:0:
320,0,55226,1,0,1:0:0:0:
64,0,55308,1,0,1:0:0:0:
320,0,55389,1,0,1:0:0:0:
448,0,55389,1,0,1:0:0:0:
64,0,55471,1,0,1:0:0:0:
192,0,55552,1,0,1:0:0:0:
320,0,55552,1,0,1:0:0:0:
448,0,55552,1,0,1:0:0:0:
64,0,55634,1,0,1:0:0:0:
320,0,55715,1,0,1:0:0:0:
448,0,55715,1,0,1:0:0:0:
64,0,55797,1,0,1:0:0:0:
192,0,55878,1,0,1:0:0:0:
320,0,55878,1,0,1:0:0:0:
448,0,55960,1,0,1:0:0:0:
64,0,56041,1,0,1:0:0:0:
192,0,56041,1,0,1:0:0:0:
320,0,56123,1,0,1:0:0:0:
64,0,56204,1,0,1:0:0:0:
192,0,56204,1,0,1:0:0:0:
448,0,56204,1,0,1:0:0:0:
320,0,56286,1,0,1:0:0:0:
192,0,56367,1,0,1:0:0:0:
64,0,56449,1,0,1:0:0:0:
320,0,56530,1,0,1:0:0:0:
448,0,56530,1,0,1:0:0:0:
192,0,56612,1,0,1:0:0:0:
320,0,56694,1,0,1:0:0:0:
192,0,56775,1,0,1:0:0:0:
64,0,56857,1,0,1:0:0:0:
448,0,56857,1,0,1:0:0:0:
192,0,56938,1,0,1:0:0:0:
320,0,57020,1,0,1:0:0:0:
448,0,57101,1,0,1:0:0:0:
64,0,57183,1,0,1:0:0:0:
192,0,57183,1,0,1:0:0:0:
320,0,57264,1,0,1:0:0:0:
192,0,57346,1,0,1:0:0:0:
320,0,57427,1,0,1:0:0:0:
64,0,57509,1,0,1:0:0:0:
192,0,57509,1,0,1:0:0:0:
448,0,57509,1,0,1:0:0:0:
320,0,57590,1,0,1:0:0:0:
192,0,57672,1,0,1:0:0:0:
64,0,57753,1,0,1:0:0:0:
320,0,57835,1,0,1:0:0:0:
448,0,57835,1,0,1:0:0:0:
64,0,57916,1,0,1:0:0:0:
192,0,57998,1,0,1:0:0:0:
320,0,58079,1,0,1:0:0:0:
64,0,58161,1,0,1:0:0:0:
192,0,58161,1,0,1:0:0:0:
448,0,58161,1,0,1:0:0:0:
320,0,58242,1,0,1:0:0:0:
192,0,58324,1,0,1:0:0:0:
320,0,58405,1,0,1:0:0:0:
64,0,58487,1,0,1:0:0:0:
448,0,58487,1,0,1:0:0:0:
192,0,58568,1,0,1:0:0:0:
320,0,58650,1,0,1:0:0:0:
448,0,58650,1,0,1:0:0:0:
64,0,58732,1,0,1:0:0:0:
192,0,58813,1,0,1:0:0:0:
320,0,58813,1,0,1:0:0:0:
448,0,58895,1,0,1:0:0:0:
192,0,58976,1,0,1:0:0:0:
320,0,59058,1,0,1:0:0:0:
64,0,59139,1,0,1:0:0:0:
192,0,59139,1,0,1:0:0:0:
448,0,59221,1,0,1:0:0:0:
64,0,59302,1,0,1:0:0:0:
320,0,59302,1,0,1:0:0:0:
192,0,59384,1,0,1:0:0:0:
320,0,59465,1,0,1:0:0:0:
448,0,59465,1,0,1:0:0:0:
64,0,59547,1,0,1:0:0:0:
192,0,59628,1,0,1:0:0:0:
320,0,59710,1,0,1:0:0:0:
64,0,59791,1,0,1:0:0:0:
448,0,59791,1,0,1:0:0:0:
192,0,59873,1,0,1:0:0:0:
320,0,59954,1,0,1:0:0:0:
448,0,59954,1,0,1:0:0:0:
192,0,60036,1,0,1:0:0:0:
64,0,60117,1,0,1:0:0:0:
448,0,60117,1,0,1:0:0:0:
320,0,60199,1,0,1:0:0:0:
192,0,60280,1,0,1:0:0:0:
64,0,60362,1,0,1:0:0:0:
320,0,60443,1,0,1:0:0:0:
448,0,60443,1,0,1:0:0:0:
192,0,60525,1,0,1:0:0:0:
64,0,60606,1,0,1:0:0:0:
448,0,60606,1,0,1:0:0:0:
320,0,60688,1,0,1:0:0:0:
64,0,60770,1,0,1:0:0:0:
192,0,60770,1,0,1:0:0:0:
448,0,60770,1,0,1:0:0:0:
320,0,60851,1,0,1:0:0:0:
64,0,60933,1,0,1:0:0:0:
192,0,60933,1,0,1:0:0:0:
448,0,61014,1,0,1:0:0:0:
64,0,61096,1,0,1:0:0:0:
192,0,61096,1,0,1:0:0:0:
320,0,61177,1,0,1:0:0:0:
64,0,61259,1,0,1:0:0:0:
448,0,61259,1,0,1:0:0:0:
192,0,61340,1,0,1:0:0:0:
64,0,61422,1,0,1:0:0:0:
320,0,61422,1,0,1:0:0:0:
448,0,61422,1,0,1:0:0:0:
192,0,61503,1,0,1:0:0:0:
320,0,61585,1,0,1:0:0:0:
448,0,61585,1,0,1:0:0:0:
64,0,61666,1,0,1:0:0:0:
320,0,61748,1,0,1:0:0:0:
448,0,61748,1,0,1:0:0:0:
64,0,61829,1,0,1:0:0:0:
192,0,61911,1,0,1:0:0:0:
320,0,61911,1,0,1:0:0:0:
448,0,61911,1,0,1:0:0:0:
64,0,61992,1,0,1:0:0:0:
320,0,62074,1,0,1:0:0:0:
448,0,62074,1,0,1:0:0:0:
192,0,62155,1,0,1:0:0:0:
320,0,62237,1,0,1:0:0:0:
448,0,62237,1,0,1:0:0:0:
192,0,62318,1,0,1:0:0:0:
64,0,62400,1,0,1:0:0:0:
320,0,62400,128,0,62563:0:0:0:0:
448,0,62400,1,0,1:0:0:0:
192,0,62726,1,0,1:0:0:0:
320,0,62726,1,0,1:0:0:0:
448,0,62726,128,0,62889:0:0:0:0:
64,0,63052,1,0,1:0:0:0:
192,0,63052,1,0,1:0:0:0:
448,0,63134,1,0,1:0:0:0:
192,0,63215,1,0,1:0:0:0:
320,0,63215,1,0,1:0:0:0:
64,0,63297,1,0,1:0:0:0:
320,0,63378,1,0,1:0:0:0:
448,0,63378,1,0,1:0:0:0:
192,0,63460,1,0,1:0:0:0:
64,0,63541,1,0,1:0:0:0:
448,0,63541,1,0,1:0:0:0:
320,0,63623,1,0,1:0:0:0:
64,0,63704,1,0,1:0:0:0:
192,0,63704,1,0,1:0:0:0:
320,0,63786,1,0,1:0:0:0:
448,0,63867,1,0,1:0:0:0:
64,0,63949,1,0,1:0:0:0:
192,0,64030,1,0,1:0:0:0:
320,0,64030,1,0,1:0:0:0:
448,0,64112,1,0,1:0:0:0:
192,0,64193,1,0,1:0:0:0:
320,0,64275,1,0,1:0:0:0:
64,0,64356,1,0,1:0:0:0:
448,0,64356,1,0,1:0:0:0:
192,0,64438,1,0,1:0:0:0:
64,0,64519,1,0,1:0:0:0:
448,0,64519,1,0,1:0:0:0:
192,0,64601,1,0,1:0:0:0:
320,0,64682,1,0,1:0:0:0:
448,0,64682,1,0,1:0:0:0:
64,0,64764,1,0,1:0:0:0:
192,0,64845,1,0,1:0:0:0:
320,0,64845,1,0,1:0:0:0:
448,0,64927,1,0,1:0:0:0:
64,0,65009,1,0,1:0:0:0:
192,0,65009,1,0,1:0:0:0:
320,0,65009,1,0,1:0:0:0:
448,0,65090,1,0,1:0:0:0:
192,0,65172,1,0,1:0:0:0:
320,0,65253,1,0,1:0:0:0:
64,0,65335,1,0,1:0:0:0:
192,0,65335,1,0,1:0:0:0:
448,0,65416,1,0,1:0:0:0:
192,0,65498,1,0,1:0:0:0:
320,0,65498,1,0,1:0:0:0:
64,0,65579,1,0,1:0:0:0:
192,0,65661,1,0,1:0:0:0:
320,0,65661,1,0,1:0:0:0:
448,0,65661,1,0,1:0:0:0:
64,0,65742,1,0,1:0:0:0:
320,0,65824,1,0,1:0:0:0:
448,0,65824,1,0,1:0:0:0:
192,0,65905,1,0,1:0:0:0:
64,0,65987,1,0,1:0:0:0:
448,0,65987,1,0,1:0:0:0:
320,0,66068,1,0,1:0:0:0:
64,0,66150,1,0,1:0:0:0:
192,0,66150,1,0,1:0:0:0:
320,0,66231,1,0,1:0:0:0:
64,0,66313,1,0,1:0:0:0:
448,0,66313,1,0,1:0:0:0:
192,0,66394,1,0,1:0:0:0:
320,0,66476,1,0,1:0:0:0:
448,0,66476,1,0,1:0:0:0:
192,0,66557,1,0,1:0:0:0:
64,0,66639,1,0,1:0:0:0:
448,0,66639,1,0,1:0:0:0:
320,0,66720,1,0,1:0:0:0:
192,0,66802,1,0,1:0:0:0:
64,0,66883,1,0,1:0:0:0:
320,0,66965,1,0,1:0:0:0:
448,0,66965,1,0,1:0:0:0:
192,0,67047,1,0,1:0:0:0:
64,0,67128,1,0,1:0:0:0:
448,0,67128,1,0,1:0:0:0:
320,0,67210,1,0,1:0:0:0:
64,0,67291,1,0,1:0:0:0:
192,0,67291,1,0,1:0:0:0:
320,0,67373,1,0,1:0:0:0:
64,0,67454,1,0,1:0:0:0:
192,0,67454,1,0,1:0:0:0:
448,0,67536,1,0,1:0:0:0:
64,0,67617,1,0,1:0:0:0:
192,0,67617,1,0,1:0:0:0:
320,0,67617,1,0,1:0:0:0:
448,0,67699,1,0,1:0:0:0:
192,0,67780,1,0,1:0:0:0:
320,0,67862,1,0,1:0:0:0:
64,0,67943,1,0,1:0:0:0:
192,0,67943,1,0,1:0:0:0:
448,0,67943,1,0,1:0:0:0:
320,0,68025,1,0,1:0:0:0:
192,0,68106,1,0,1:0:0:0:
64,0,68188,1,0,1:0:0:0:
320,0,68269,1,0,1:0:0:0:
448,0,68269,1,0,1:0:0:0:
192,0,68351,1,0,1:0:0:0:
64,0,68432,1,0,1:0:0:0:
448,0,68432,1,0,1:0:0:0:
320,0,68514,1,0,1:0:0:0:
64,0,68595,1,0,1:0:0:0:
192,0,68595,1,0,1:0:0:0:
448,0,68677,1,0,1:0:0:0:
64,0,68758,1,0,1:0:0:0:
192,0,68758,1,0,1:0:0:0:
320,0,68840,1,0,1:0:0:0:
64,0,68921,1,0,1:0:0:0:
448,0,68921,1,0,1:0:0:0:
192,0,69003,1,0,1:0:0:0:
320,0,69084,1,0,1:0:0:0:
448,0,69084,1,0,1:0:0:0:
192,0,69166,1,0,1:0:0:0:
64,0,69248,1,0,1:0:0:0:
448,0,69248,1,0,1:0:0:0:
320,0,69329,1,0,1:0:0:0:
64,0,69411,1,0,1:0:0:0:
192,0,69411,1,0,1:0:0:0:
448,0,69492,1,0,1:0:0:0:
64,0,69574,1,0,1:0:0:0:
320,0,69574,1,0,1:0:0:0:
192,0,69655,1,0,1:0:0:0:
320,0,69737,1,0,1:0:0:0:
448,0,69737,1,0,1:0:0:0:
192,0,69818,1,0,1:0:0:0:
64,0,69900,1,0,1:0:0:0:
448,0,69900,1,0,1:0:0:0:
320,0,69981,1,0,1:0:0:0:
64,0,70063,1,0,1:0:0:0:
192,0,70063,1,0,1:0:0:0:
448,0,70063,1,0,1:0:0:0:
320,0,70144,1,0,1:0:0:0:
64,0,70226,1,0,1:0:0:0:
192,0,70226,1,0,1:0:0:0:
448,0,70307,1,0,1:0:0:0:
64,0,70389,1,0,1:0:0:0:
192,0,70389,1,0,1:0:0:0:
320,0,70389,1,0,1:0:0:0:
448,0,70470,1,0,1:0:0:0:
192,0,70552,1,0,1:0:0:0:
320,0,70633,1,0,1:0:0:0:
64,0,70715,1,0,1:0:0:0:
448,0,70715,1,0,1:0:0:0:
192,0,70796,1,0,1:0:0:0:
64,0,70878,1,0,1:0:0:0:
320,0,70878,1,0,1:0:0:0:
448,0,70878,1,0,1:0:0:0:
192,0,70959,1,0,1:0:0:0:
320,0,71041,1,0,1:0:0:0:
448,0,71041,1,0,1:0:0:0:
64,0,71122,1,0,1:0:0:0:
192,0,71204,1,0,1:0:0:0:
320,0,71204,1,0,1:0:0:0:
448,0,71286,1,0,1:0:0:0:
64,0,71367,1,0,1:0:0:0:
192,0,71367,1,0,1:0:0:0:
320,0,71449,1,0,1:0:0:0:
64,0,71530,1,0,1:0:0:0:
192,0,71530,1,0,1:0:0:0:
448,0,71530,1,0,1:0:0:0:
320,0,71612,1,0,1:0:0:0:
64,0,71693,1,0,1:0:0:0:
192,0,71693,1,0,1:0:0:0:
448,0,71775,1,0,1:0:0:0:
192,0,71856,1,0,1:0:0:0:
320,0,71856,1,0,1:0:0:0:
64,0,71938,1,0,1:0:0:0:
320,0,72019,1,0,1:0:0:0:
448,0,72019,1,0,1:0:0:0:
192,0,72101,1,0,1:0:0:0:
64,0,72182,1,0,1:0:0:0:
320,0,72182,1,0,1:0:0:0:
448,0,72182,1,0,1:0:0:0:
192,0,72264,1,0,1:0:0:0:
64,0,72345,1,0,1:0:0:0:
448,0,72345,1,0,1:0:0:0:
192,0,72427,1,0,1:0:0:0:
320,0,72508,1,0,1:0:0:0:
448,0,72508,1,0,1:0:0:0:
64,0,72590,1,0,1:0:0:0:
192,0,72671,1,0,1:0:0:0:
320,0,72671,1,0,1:0:0:0:
448,0,72753,1,0,1:0:0:0:
64,0,72834,1,0,1:0:0:0:
192,0,72834,1,0,1:0:0:0:
320,0,72916,1,0,1:0:0:0:
64,0,72997,1,0,1:0:0:0:
448,0,72997,1,0,1:0:0:0:
320,0,73079,1,0,1:0:0:0:
64,0,73160,1,0,1:0:0:0:
448,0,73160,1,0,1:0:0:0:
192,0,73215,1,0,1:0:0:0:
320,0,73269,1,0,1:0:0:0:
448,0,73324,1,0,1:0:0:0:
64,0,73378,1,0,1:0:0:0:
192,0,73432,1,0,1:0:0:0:
320,0,73487,1,0,1:0:0:0:
448,0,73541,1,0,1:0:0:0:
192,0,73595,1,0,1:0:0:0:
64,0,73650,1,0,1:0:0:0:
448,0,73650,1,0,1:0:0:0:
320,0,73704,1,0,1:0:0:0:
192,0,73758,1,0,1:0:0:0:
64,0,73813,1,0,1:0:0:0:
448,0,73867,1,0,1:0:0:0:
320,0,73921,1,0,1:0:0:0:
64,0,73976,1,0,1:0:0:0:
192,0,73976,1,0,1:0:0:0:
320,0,74030,1,0,1:0:0:0:
448,0,74084,1,0,1:0:0:0:
64,0,74139,1,0,1:0:0:0:
192,0,74193,1,0,1:0:0:0:
320,0,74247,1,0,1:0:0:0:
64,0,74302,1,0,1:0:0:0:
448,0,74302,1,0,1:0:0:0:
320,0,74356,1,0,1:0:0:0:
192,0,74410,1,0,1:0:0:0:
64,0,74465,1,0,1:0:0:0:
192,0,74519,1,0,1:0:0:0:
320,0,74573,1,0,1:0:0:0:
448,0,74628,1,0,1:0:0:0:
64,0,74682,1,0,1:0:0:0:
192,0,74737,1,0,1:0:0:0:
320,0,74791,1,0,1:0:0:0:
448,0,74791,1,0,1:0:0:0:
64,0,74872,1,0,1:0:0:0:
320,0,74954,1,0,1:0:0:0:
64,0,75035,1,0,1:0:0:0:
192,0,75035,1,0,1:0:0:0:
320,0,75117,1,0,1:0:0:0:
448,0,75117,1,0,1:0:0:0:
192,0,75198,1,0,1:0:0:0:
64,0,75280,1,0,1:0:0:0:
448,0,75280,1,0,1:0:0:0:
192,0,75362,1,0,1:0:0:0:
64,0,75443,1,0,1:0:0:0:
448,0,75443,1,0,1:0:0:0:
192,0,75525,1,0,1:0:0:0:
320,0,75525,1,0,1:0:0:0:
64,0,75606,1,0,1:0:0:0:
448,0,75606,1,0,1:0:0:0:
192,0,75688,1,0,1:0:0:0:
320,0,75688,1,0,1:0:0:0:
64,0,75769,1,0,1:0:0:0:
320,0,75769,1,0,1:0:0:0:
448,0,75769,1,0,1:0:0:0:
192,0,75851,1,0,1:0:0:0:
64,0,75932,1,0,1:0:0:0:
320,0,75932,1,0,1:0:0:0:
448,0,75932,1,0,1:0:0:0:
192,0,76014,1,0,1:0:0:0:
64,0,76095,1,0,1:0:0:0:
448,0,76095,1,0,1:0:0:0:
320,0,76177,1,0,1:0:0:0:
64,0,76258,1,0,1:0:0:0:
192,0,76258,1,0,1:0:0:0:
448,0,76258,1,0,1:0:0:0:
320,0,76340,1,0,1:0:0:0:
64,0,76421,1,0,1:0:0:0:
192,0,76421,1,0,1:0:0:0:
448,0,76503,1,0,1:0:0:0:
64,0,76584,1,0,1:0:0:0:
192,0,76584,1,0,1:0:0:0:
320,0,76584,1,0,1:0:0:0:
448,0,76666,1,0,1:0:0:0:
64,0,76747,1,0,1:0:0:0:
192,0,76747,1,0,1:0:0:0:
320,0,76747,1,0,1:0:0:0:
448,0,76829,1,0,1:0:0:0:
64,0,76910,1,0,1:0:0:0:
192,0,76910,1,0,1:0:0:0:
320,0,76910,1,0,1:0:0:0:
448,0,76992,1,0,1:0:0:0:
64,0,77073,1,0,1:0:0:0:
192,0,77073,1,0,1:0:0:0:
320,0,77073,1,0,1:0:0:0:
448,0,77155,1,0,1:0:0:0:
64,0,77236,1,0,1:0:0:0:
192,0,77236,1,0,1:0:0:0:
320,0,77318,1,0,1:0:0:0:
64,0,77399,1,0,1:0:0:0:
448,0,77399,1,0,1:0:0:0:
192,0,77481,1,0,1:0:0:0:
64,0,77563,1,0,1:0:0:0:
320,0,77563,1,0,1:0:0:0:
448,0,77563,1,0,1:0:0:0:
192,0,77644,1,0,1:0:0:0:
320,0,77726,1,0,1:0:0:0:
448,0,77726,1,0,1:0:0:0:
192,0,77807,1,0,1:0:0:0:
320,0,77889,1,0,1:0:0:0:
448,0,77889,1,0,1:0:0:0:
192,0,77970,1,0,1:0:0:0:
64,0,78052,1,0,1:0:0:0:
320,0,78052,1,0,1:0:0:0:
448,0,78052,1,0,1:0:0:0:
192,0,78133,1,0,1:0:0:0:
64,0,78215,1,0,1:0:0:0:
320,0,78215,1,0,1:0:0:0:
448,0,78215,1,0,1:0:0:0:
192,0,78296,1,0,1:0:0:0:
64,0,78378,1,0,1:0:0:0:
320,0,78378,1,0,1:0:0:0:
448,0,78378,1,0,1:0:0:0:
192,0,78459,1,0,1:0:0:0:
64,0,78541,1,0,1:0:0:0:
320,0,78541,1,0,1:0:0:0:
448,0,78541,1,0,1:0:0:0:
192,0,78622,1,0,1:0:0:0:
320,0,78704,1,0,1:0:0:0:
448,0,78704,1,0,1:0:0:0:
64,0,78785,1,0,1:0:0:0:
192,0,78867,1,0,1:0:0:0:
320,0,78867,1,0,1:0:0:0:
448,0,78867,1,0,1:0:0:0:
64,0,78948,1,0,1:0:0:0:
192,0,79030,1,0,1:0:0:0:
320,0,79030,1,0,1:0:0:0:
448,0,79111,1,0,1:0:0:0:
64,0,79193,1,0,1:0:0:0:
192,0,79193,1,0,1:0:0:0:
448,0,79274,1,0,1:0:0:0:
64,0,79356,1,0,1:0:0:0:
192,0,79356,1,0,1:0:0:0:
320,0,79356,1,0,1:0:0:0:
448,0,79437,1,0,1:0:0:0:
64,0,79519,1,0,1:0:0:0:
192,0,79519,1,0,1:0:0:0:
320,0,79519,1,0,1:0:0:0:
448,0,79601,1,0,1:0:0:0:
64,0,79682,1,0,1:0:0:0:
192,0,79682,1,0,1:0:0:0:
320,0,79682,1,0,1:0:0:0:
448,0,79764,1,0,1:0:0:0:
64,0,79845,1,0,1:0:0:0:
192,0,79845,1,0,1:0:0:0:
448,0,79927,1,0,1:0:0:0:
64,0,80008,1,0,1:0:0:0:
192,0,80008,1,0,1:0:0:0:
320,0,80008,1,0,1:0:0:0:
448,0,80090,1,0,1:0:0:0:
64,0,80171,1,0,1:0:0:0:
192,0,80171,1,0,1:0:0:0:
320,0,80171,1,0,1:0:0:0:
448,0,80253,1,0,1:0:0:0:
64,0,80334,1,0,1:0:0:0:
192,0,80334,1,0,1:0:0:0:
320,0,80416,1,0,1:0:0:0:
64,0,80497,1,0,1:0:0:0:
192,0,80497,1,0,1:0:0:0:
320,0,80579,1,0,1:0:0:0:
64,0,80660,1,0,1:0:0:0:
192,0,80660,1,0,1:0:0:0:
448,0,80660,1,0,1:0:0:0:
320,0,80742,1,0,1:0:0:0:
64,0,80823,1,0,1:0:0:0:
192,0,80823,1,0,1:0:0:0:
320,0,80905,1,0,1:0:0:0:
64,0,80986,1,0,1:0:0:0:
192,0,80986,1,0,1:0:0:0:
448,0,80986,1,0,1:0:0:0:
320,0,81068,1,0,1:0:0:0:
64,0,81149,1,0,1:0:0:0:
192,0,81149,1,0,1:0:0:0:
448,0,81149,1,0,1:0:0:0:
320,0,81231,1,0,1:0:0:0:
64,0,81312,1,0,1:0:0:0:
448,0,81312,1,0,1:0:0:0:
192,0,81394,1,0,1:0:0:0:
64,0,81475,1,0,1:0:0:0:
320,0,81475,1,0,1:0:0:0:
448,0,81475,1,0,1:0:0:0:
192,0,81557,1,0,1:0:0:0:
320,0,81639,1,0,1:0:0:0:
448,0,81639,1,0,1:0:0:0:
64,0,81720,1,0,1:0:0:0:
192,0,81802,1,0,1:0:0:0:
320,0,81802,1,0,1:0:0:0:
448,0,81802,1,0,1:0:0:0:
64,0,81883,1,0,1:0:0:0:
192,0,81965,1,0,1:0:0:0:
320,0,81965,1,0,1:0:0:0:
448,0,81965,1,0,1:0:0:0:
64,0,82046,1,0,1:0:0:0:
192,0,82128,1,0,1:0:0:0:
320,0,82128,1,0,1:0:0:0:
448,0,82128,1,0,1:0:0:0:
64,0,82209,1,0,1:0:0:0:
192,0,82291,1,0,1:0:0:0:
320,0,82291,1,0,1:0:0:0:
448,0,82291,1,0,1:0:0:0:
64,0,82372,1,0,1:0:0:0:
320,0,82454,1,0,1:0:0:0:
448,0,82454,1,0,1:0:0:0:
192,0,82535,1,0,1:0:0:0:
64,0,82617,1,0,1:0:0:0:
320,0,82617,1,0,1:0:0:0:
448,0,82617,1,0,1:0:0:0:
192,0,82698,1,0,1:0:0:0:
64,0,82780,1,0,1:0:0:0:
448,0,82780,1,0,1:0:0:0:
320,0,82861,1,0,1:0:0:0:
64,0,82943,1,0,1:0:0:0:
192,0,82943,1,0,1:0:0:0:
448,0,82943,1,0,1:0:0:0:
320,0,83024,1,0,1:0:0:0:
64,0,83106,1,0,1:0:0:0:
192,0,83106,1,0,1:0:0:0:
448,0,83187,1,0,1:0:0:0:
64,0,83269,1,0,1:0:0:0:
192,0,83269,1,0,1:0:0:0:
320,0,83269,1,0,1:0:0:0:
448,0,83350,1,0,1:0:0:0:
64,0,83432,1,0,1:0:0:0:
192,0,83432,1,0,1:0:0:0:
320,0,83513,1,0,1:0:0:0:
64,0,83595,1,0,1:0:0:0:
192,0,83595,1,0,1:0:0:0:
448,0,83595,1,0,1:0:0:0:
320,0,83676,1,0,1:0:0:0:
64,0,83758,1,0,1:0:0:0:
192,0,83758,1,0,1:0:0:0:
448,0,83758,1,0,1:0:0:0:
320,0,83840,1,0,1:0:0:0:
64,0,83921,1,0,1:0:0:0:
192,0,83921,1,0,1:0:0:0:
448,0,83921,1,0,1:0:0:0:
320,0,84003,1,0,1:0:0:0:
64,0,84084,1,0,1:0:0:0:
192,0,84084,1,0,1:0:0:0:
448,0,84166,1,0,1:0:0:0:
64,0,84247,1,0,1:0:0:0:
192,0,84247,1,0,1:0:0:0:
320,0,84247,1,0,1:0:0:0:
448,0,84329,1,0,1:0:0:0:
64,0,84410,1,0,1:0:0:0:
192,0,84410,1,0,1:0:0:0:
320,0,84492,1,0,1:0:0:0:
64,0,84573,1,0,1:0:0:0:
192,0,84573,1,0,1:0:0:0:
448,0,84573,1,0,1:0:0:0:
320,0,84655,1,0,1:0:0:0:
64,0,84736,1,0,1:0:0:0:
192,0,84736,1,0,1:0:0:0:
320,0,84818,1,0,1:0:0:0:
64,0,84899,1,0,1:0:0:0:
448,0,84899,1,0,1:0:0:0:
192,0,84981,1,0,1:0:0:0:
64,0,85062,1,0,1:0:0:0:
448,0,85062,1,0,1:0:0:0:
320,0,85144,1,0,1:0:0:0:
64,0,85225,1,0,1:0:0:0:
448,0,85225,1,0,1:0:0:0:
192,0,85307,1,0,1:0:0:0:
64,0,85388,1,0,1:0:0:0:
448,0,85388,1,0,1:0:0:0:
320,0,85470,1,0,1:0:0:0:
64,0,85551,1,0,1:0:0:0:
192,0,85551,1,0,1:0:0:0:
320,0,85633,1,0,1:0:0:0:
448,0,85633,1,0,1:0:0:0:
64,0,85714,1,0,1:0:0:0:
192,0,85714,1,0,1:0:0:0:
320,0,85796,1,0,1:0:0:0:
448,0,85796,1,0,1:0:0:0:
64,0,85878,1,0,1:0:0:0:
192,0,85878,1,0,1:0:0:0:
320,0,85959,1,0,1:0:0:0:
448,0,85959,1,0,1:0:0:0:
64,0,86041,1,0,1:0:0:0:
192,0,86041,1,0,1:0:0:0:
320,0,86122,1,0,1:0:0:0:
448,0,86122,1,0,1:0:0:0:
64,0,86204,1,0,1:0:0:0:
192,0,86204,1,0,1:0:0:0:
448,0,86285,1,0,1:0:0:0:
64,0,86367,1,0,1:0:0:0:
320,0,86367,1,0,1:0:0:0:
192,0,86448,1,0,1:0:0:0:
64,0,86530,1,0,1:0:0:0:
320,0,86530,1,0,1:0:0:0:
448,0,86530,1,0,1:0:0:0:
192,0,86611,1,0,1:0:0:0:
320,0,86693,1,0,1:0:0:0:
448,0,86693,1,0,1:0:0:0:
64,0,86774,1,0,1:0:0:0:
192,0,86856,1,0,1:0:0:0:
320,0,86856,1,0,1:0:0:0:
448,0,86856,1,0,1:0:0:0:
64,0,86937,1,0,1:0:0:0:
320,0,87019,1,0,1:0:0:0:
448,0,87019,1,0,1:0:0:0:
192,0,87100,1,0,1:0:0:0:
64,0,87182,1,0,1:0:0:0:
320,0,87182,1,0,1:0:0:0:
448,0,87182,1,0,1:0:0:0:
192,0,87263,1,0,1:0:0:0:
64,0,87345,1,0,1:0:0:0:
320,0,87345,1,0,1:0:0:0:
448,0,87345,1,0,1:0:0:0:
192,0,87426,1,0,1:0:0:0:
64,0,87508,1,0,1:0:0:0:
320,0,87508,1,0,1:0:0:0:
448,0,87508,1,0,1:0:0:0:
192,0,87589,1,0,1:0:0:0:
64,0,87671,1,0,1:0:0:0:
448,0,87671,1,0,1:0:0:0:
320,0,87752,1,0,1:0:0:0:
64,0,87834,1,0,1:0:0:0:
192,0,87834,1,0,1:0:0:0:
448,0,87834,1,0,1:0:0:0:
320,0,87916,1,0,1:0:0:0:
64,0,87997,1,0,1:0:0:0:
192,0,87997,1,0,1:0:0:0:
448,0,87997,1,0,1:0:0:0:
320,0,88079,1,0,1:0:0:0:
64,0,88160,1,0,1:0:0:0:
192,0,88160,1,0,1:0:0:0:
448,0,88160,1,0,1:0:0:0:
320,0,88242,1,0,1:0:0:0:
64,0,88323,1,0,1:0:0:0:
192,0,88323,1,0,1:0:0:0:
320,0,88405,1,0,1:0:0:0:
64,0,88486,1,0,1:0:0:0:
192,0,88486,1,0,1:0:0:0:
448,0,88486,1,0,1:0:0:0:
320,0,88568,1,0,1:0:0:0:
64,0,88649,1,0,1:0:0:0:
192,0,88649,1,0,1:0:0:0:
448,0,88731,1,0,1:0:0:0:
64,0,88812,1,0,1:0:0:0:
192,0,88812,1,0,1:0:0:0:
320,0,88812,1,0,1:0:0:0:
448,0,88894,1,0,1:0:0:0:
192,0,88975,1,0,1:0:0:0:
320,0,88975,1,0,1:0:0:0:
64,0,89057,1,0,1:0:0:0:
192,0,89138,1,0,1:0:0:0:
320,0,89138,1,0,1:0:0:0:
448,0,89138,1,0,1:0:0:0:
64,0,89220,1,0,1:0:0:0:
320,0,89301,1,0,1:0:0:0:
448,0,89301,1,0,1:0:0:0:
192,0,89383,1,0,1:0:0:0:
64,0,89464,1,0,1:0:0:0:
320,0,89464,1,0,1:0:0:0:
448,0,89464,1,0,1:0:0:0:
192,0,89546,1,0,1:0:0:0:
64,0,89627,1,0,1:0:0:0:
448,0,89627,1,0,1:0:0:0:
320,0,89709,1,0,1:0:0:0:
64,0,89790,1,0,1:0:0:0:
192,0,89790,1,0,1:0:0:0:
448,0,89790,1,0,1:0:0:0:
320,0,89872,1,0,1:0:0:0:
64,0,89953,1,0,1:0:0:0:
192,0,89953,1,0,1:0:0:0:
448,0,89953,1,0,1:0:0:0:
320,0,90035,1,0,1:0:0:0:
64,0,90117,1,0,1:0:0:0:
192,0,90117,1,0,1:0:0:0:
448,0,90117,1,0,1:0:0:0:
320,0,90198,1,0,1:0:0:0:
64,0,90280,1,0,1:0:0:0:
192,0,90280,1,0,1:0:0:0:
448,0,90361,1,0,1:0:0:0:
64,0,90443,1,0,1:0:0:0:
192,0,90443,1,0,1:0:0:0:
320,0,90443,1,0,1:0:0:0:
448,0,90524,1,0,1:0:0:0:
64,0,90606,1,0,1:0:0:0:
192,0,90606,1,0,1:0:0:0:
320,0,90687,1,0,1:0:0:0:
64,0,90769,1,0,1:0:0:0:
192,0,90769,1,0,1:0:0:0:
448,0,90769,1,0,1:0:0:0:
320,0,90850,1,0,1:0:0:0:
64,0,90932,1,0,1:0:0:0:
192,0,90932,1,0,1:0:0:0:
448,0,91013,1,0,1:0:0:0:
64,0,91095,1,0,1:0:0:0:
192,0,91095,1,0,1:0:0:0:
320,0,91095,1,0,1:0:0:0:
448,0,91176,1,0,1:0:0:0:
192,0,91258,1,0,1:0:0:0:
320,0,91258,1,0,1:0:0:0:
64,0,91339,1,0,1:0:0:0:
192,0,91421,1,0,1:0:0:0:
320,0,91421,1,0,1:0:0:0:
448,0,91421,1,0,1:0:0:0:
64,0,91502,1,0,1:0:0:0:
320,0,91584,1,0,1:0:0:0:
448,0,91584,1,0,1:0:0:0:
192,0,91665,1,0,1:0:0:0:
64,0,91747,1,0,1:0:0:0:
320,0,91747,1,0,1:0:0:0:
448,0,91747,1,0,1:0:0:0:
192,0,91828,1,0,1:0:0:0:
64,0,91910,1,0,1:0:0:0:
320,0,91910,1,0,1:0:0:0:
448,0,91910,1,0,1:0:0:0:
192,0,91991,1,0,1:0:0:0:
64,0,92073,1,0,1:0:0:0:
320,0,92073,1,0,1:0:0:0:
448,0,92073,1,0,1:0:0:0:
192,0,92155,1,0,1:0:0:0:
64,0,92236,1,0,1:0:0:0:
320,0,92236,1,0,1:0:0:0:
448,0,92236,1,0,1:0:0:0:
192,0,92318,1,0,1:0:0:0:
64,0,92399,1,0,1:0:0:0:
320,0,92399,1,0,1:0:0:0:
448,0,92399,1,0,1:0:0:0:
192,0,92481,1,0,1:0:0:0:
320,0,92562,1,0,1:0:0:0:
448,0,92562,1,0,1:0:0:0:
64,0,92644,1,0,1:0:0:0:
192,0,92725,1,0,1:0:0:0:
320,0,92725,1,0,1:0:0:0:
448,0,92725,1,0,1:0:0:0:
64,0,92807,1,0,1:0:0:0:
320,0,92888,1,0,1:0:0:0:
448,0,92888,1,0,1:0:0:0:
192,0,92970,1,0,1:0:0:0:
64,0,93051,1,0,1:0:0:0:
320,0,93051,1,0,1:0:0:0:
448,0,93051,1,0,1:0:0:0:
192,0,93133,1,0,1:0:0:0:
320,0,93214,1,0,1:0:0:0:
448,0,93214,1,0,1:0:0:0:
64,0,93296,1,0,1:0:0:0:
192,0,93377,1,0,1:0:0:0:
320,0,93377,1,0,1:0:0:0:
448,0,93377,1,0,1:0:0:0:
64,0,93459,1,0,1:0:0:0:
192,0,93540,1,0,1:0:0:0:
320,0,93622,1,0,1:0:0:0:
448,0,93622,1,0,1:0:0:0:
64,0,93703,1,0,1:0:0:0:
192,0,93703,1,0,1:0:0:0:
320,0,93785,1,0,1:0:0:0:
64,0,93866,1,0,1:0:0:0:
192,0,93866,1,0,1:0:0:0:
448,0,93866,1,0,1:0:0:0:
320,0,93948,1,0,1:0:0:0:
64,0,94029,1,0,1:0:0:0:
192,0,94029,1,0,1:0:0:0:
448,0,94029,1,0,1:0:0:0:
320,0,94111,1,0,1:0:0:0:
64,0,94193,1,0,1:0:0:0:
192,0,94193,1,0,1:0:0:0:
448,0,94274,1,0,1:0:0:0:
64,0,94356,1,0,1:0:0:0:
192,0,94356,1,0,1:0:0:0:
320,0,94356,1,0,1:0:0:0:
448,0,94437,1,0,1:0:0:0:
64,0,94519,1,0,1:0:0:0:
192,0,94519,1,0,1:0:0:0:
320,0,94600,1,0,1:0:0:0:
64,0,94682,1,0,1:0:0:0:
192,0,94682,1,0,1:0:0:0:
448,0,94682,1,0,1:0:0:0:
320,0,94763,1,0,1:0:0:0:
64,0,94845,1,0,1:0:0:0:
192,0,94845,1,0,1:0:0:0:
448,0,94926,1,0,1:0:0:0:
64,0,95008,1,0,1:0:0:0:
192,0,95008,1,0,1:0:0:0:
320,0,95008,1,0,1:0:0:0:
448,0,95089,1,0,1:0:0:0:
64,0,95171,1,0,1:0:0:0:
192,0,95171,1,0,1:0:0:0:
320,0,95252,1,0,1:0:0:0:
64,0,95334,1,0,1:0:0:0:
192,0,95334,1,0,1:0:0:0:
448,0,95334,1,0,1:0:0:0:
320,0,95415,1,0,1:0:0:0:
64,0,95497,1,0,1:0:0:0:
448,0,95497,1,0,1:0:0:0:
192,0,95578,1,0,1:0:0:0:
320,0,95578,1,0,1:0:0:0:
64,0,95660,1,0,1:0:0:0:
448,0,95660,1,0,1:0:0:0:
192,0,95741,1,0,1:0:0:0:
320,0,95741,1,0,1:0:0:0:
64,0,95823,1,0,1:0:0:0:
448,0,95823,1,0,1:0:0:0:
192,0,95904,1,0,1:0:0:0:
320,0,95904,1,0,1:0:0:0:
64,0,95986,1,0,1:0:0:0:
448,0,95986,1,0,1:0:0:0:
192,0,96067,1,0,1:0:0:0:
320,0,96067,1,0,1:0:0:0:
64,0,96149,1,0,1:0:0:0:
448,0,96149,1,0,1:0:0:0:
192,0,96230,1,0,1:0:0:0:
320,0,96230,1,0,1:0:0:0:
64,0,96312,1,0,1:0:0:0:
448,0,96312,1,0,1:0:0:0:
192,0,96394,1,0,1:0:0:0:
64,0,96475,1,0,1:0:0:0:
320,0,96475,1,0,1:0:0:0:
448,0,96475,1,0,1:0:0:0:
192,0,96557,1,0,1:0:0:0:
320,0,96638,1,0,1:0:0:0:
448,0,96638,1,0,1:0:0:0:
64,0,96720,1,0,1:0:0:0:
320,0,96801,1,0,1:0:0:0:
448,0,96801,1,0,1:0:0:0:
192,0,96883,1,0,1:0:0:0:
64,0,96964,1,0,1:0:0:0:
320,0,96964,1,0,1:0:0:0:
448,0,96964,1,0,1:0:0:0:
192,0,97046,1,0,1:0:0:0:
64,0,97127,1,0,1:0:0:0:
320,0,97127,1,0,1:0:0:0:
448,0,97209,1,0,1:0:0:0:
64,0,97290,1,0,1:0:0:0:
192,0,97290,1,0,1:0:0:0:
320,0,97290,1,0,1:0:0:0:
448,0,97372,1,0,1:0:0:0:
64,0,97453,1,0,1:0:0:0:
192,0,97453,1,0,1:0:0:0:
320,0,97535,1,0,1:0:0:0:
64,0,97616,1,0,1:0:0:0:
192,0,97616,1,0,1:0:0:0:
448,0,97616,1,0,1:0:0:0:
320,0,97698,1,0,1:0:0:0:
64,0,97779,1,0,1:0:0:0:
192,0,97779,1,0,1:0:0:0:
448,0,97779,1,0,1:0:0:0:
320,0,97861,1,0,1:0:0:0:
64,0,97942,1,0,1:0:0:0:
192,0,97942,1,0,1:0:0:0:
320,0,98024,1,0,1:0:0:0:
64,0,98105,1,0,1:0:0:0:
448,0,98105,1,0,1:0:0:0:
320,0,98187,1,0,1:0:0:0:
64,0,98268,1,0,1:0:0:0:
192,0,98268,1,0,1:0:0:0:
448,0,98268,1,0,1:0:0:0:
320,0,98350,1,0,1:0:0:0:
64,0,98432,1,0,1:0:0:0:
192,0,98432,1,0,1:0:0:0:
448,0,98513,1,0,1:0:0:0:
64,0,98595,1,0,1:0:0:0:
192,0,98595,1,0,1:0:0:0:
320,0,98595,1,0,1:0:0:0:
448,0,98676,1,0,1:0:0:0:
64,0,98758,1,0,1:0:0:0:
192,0,98758,1,0,1:0:0:0:
320,0,98839,1,0,1:0:0:0:
64,0,98921,1,0,1:0:0:0:
192,0,98921,1,0,1:0:0:0:
448,0,98921,1,0,1:0:0:0:
320,0,99002,1,0,1:0:0:0:
64,0,99084,1,0,1:0:0:0:
192,0,99084,1,0,1:0:0:0:
448,0,99084,1,0,1:0:0:0:
320,0,99165,1,0,1:0:0:0:
64,0,99247,1,0,1:0:0:0:
448,0,99247,1,0,1:0:0:0:
192,0,99328,1,0,1:0:0:0:
320,0,99410,1,0,1:0:0:0:
448,0,99410,1,0,1:0:0:0:
64,0,99491,1,0,1:0:0:0:
192,0,99573,1,0,1:0:0:0:
320,0,99573,1,0,1:0:0:0:
448,0,99573,1,0,1:0:0:0:
64,0,99654,1,0,1:0:0:0:
320,0,99736,1,0,1:0:0:0:
448,0,99736,1,0,1:0:0:0:
192,0,99817,1,0,1:0:0:0:
64,0,99899,1,0,1:0:0:0:
320,0,99899,1,0,1:0:0:0:
448,0,99899,1,0,1:0:0:0:
192,0,99980,1,0,1:0:0:0:
320,0,100062,1,0,1:0:0:0:
448,0,100062,1,0,1:0:0:0:
192,0,100143,1,0,1:0:0:0:
64,0,100225,1,0,1:0:0:0:
320,0,100225,1,0,1:0:0:0:
448,0,100225,1,0,1:0:0:0:
192,0,100306,1,0,1:0:0:0:
64,0,100388,1,0,1:0:0:0:
320,0,100388,1,0,1:0:0:0:
448,0,100388,1,0,1:0:0:0:
192,0,100470,1,0,1:0:0:0:
64,0,100551,1,0,1:0:0:0:
448,0,100551,1,0,1:0:0:0:
320,0,100633,1,0,1:0:0:0:
64,0,100714,1,0,1:0:0:0:
192,0,100714,1,0,1:0:0:0:
448,0,100796,1,0,1:0:0:0:
64,0,100877,1,0,1:0:0:0:
192,0,100877,1,0,1:0:0:0:
320,0,100877,1,0,1:0:0:0:
448,0,100959,1,0,1:0:0:0:
64,0,101040,1,0,1:0:0:0:
192,0,101040,1,0,1:0:0:0:
320,0,101122,1,0,1:0:0:0:
64,0,101203,1,0,1:0:0:0:
448,0,101203,1,0,1:0:0:0:
192,0,101285,1,0,1:0:0:0:
320,0,101285,1,0,1:0:0:0:
64,0,101366,1,0,1:0:0:0:
448,0,101366,1,0,1:0:0:0:
192,0,101448,1,0,1:0:0:0:
320,0,101448,1,0,1:0:0:0:
64,0,101529,1,0,1:0:0:0:
448,0,101529,1,0,1:0:0:0:
192,0,101611,1,0,1:0:0:0:
64,0,101692,1,0,1:0:0:0:
320,0,101692,1,0,1:0:0:0:
448,0,101692,1,0,1:0:0:0:
192,0,101774,1,0,1:0:0:0:
64,0,101855,1,0,1:0:0:0:
448,0,101855,1,0,1:0:0:0:
320,0,101937,1,0,1:0:0:0:
64,0,102018,1,0,1:0:0:0:
192,0,102018,1,0,1:0:0:0:
320,0,102100,1,0,1:0:0:0:
64,0,102181,1,0,1:0:0:0:
192,0,102181,1,0,1:0:0:0:
448,0,102181,1,0,1:0:0:0:
320,0,102263,1,0,1:0:0:0:
64,0,102344,1,0,1:0:0:0:
192,0,102344,1,0,1:0:0:0:
448,0,102426,1,0,1:0:0:0:
64,0,102508,1,0,1:0:0:0:
192,0,102508,1,0,1:0:0:0:
320,0,102508,1,0,1:0:0:0:
448,0,102589,1,0,1:0:0:0:
64,0,102671,1,0,1:0:0:0:
192,0,102671,1,0,1:0:0:0:
320,0,102752,1,0,1:0:0:0:
64,0,102834,1,0,1:0:0:0:
192,0,102834,1,0,1:0:0:0:
448,0,102834,1,0,1:0:0:0:
320,0,102915,1,0,1:0:0:0:
64,0,102997,1,0,1:0:0:0:
192,0,102997,1,0,1:0:0:0:
448,0,102997,1,0,1:0:0:0:
320,0,103078,1,0,1:0:0:0:
192,0,103160,1,0,1:0:0:0:
448,0,103160,1,0,1:0:0:0:
64,0,103241,1,0,1:0:0:0:
320,0,103323,1,0,1:0:0:0:
448,0,103323,1,0,1:0:0:0:
192,0,103404,1,0,1:0:0:0:
64,0,103486,1,0,1:0:0:0:
320,0,103486,1,0,1:0:0:0:
448,0,103486,1,0,1:0:0:0:
192,0,103567,1,0,1:0:0:0:
320,0,103649,1,0,1:0:0:0:
448,0,103649,1,0,1:0:0:0:
64,0,103730,1,0,1:0:0:0:
192,0,103812,1,0,1:0:0:0:
320,0,103812,1,0,1:0:0:0:
448,0,103812,1,0,1:0:0:0:
64,0,103893,1,0,1:0:0:0:
320,0,103975,1,0,1:0:0:0:
448,0,103975,1,0,1:0:0:0:
192,0,104056,1,0,1:0:0:0:
64,0,104138,1,0,1:0:0:0:
320,0,104138,1,0,1:0:0:0:
448,0,104138,1,0,1:0:0:0:
192,0,104219,1,0,1:0:0:0:
64,0,104301,1,0,1:0:0:0:
320,0,104301,1,0,1:0:0:0:
448,0,104301,1,0,1:0:0:0:
192,0,104382,1,0,1:0:0:0:
64,0,104464,1,0,1:0:0:0:
448,0,104464,1,0,1:0:0:0:
320,0,104545,1,0,1:0:0:0:
64,0,104627,1,0,1:0:0:0:
192,0,104627,1,0,1:0:0:0:
320,0,104709,1,0,1:0:0:0:
64,0,104790,1,0,1:0:0:0:
192,0,104790,1,0,1:0:0:0:
448,0,104790,1,0,1:0:0:0:
320,0,104872,1,0,1:0:0:0:
64,0,104953,1,0,1:0:0:0:
192,0,104953,1,0,1:0:0:0:
448,0,105035,1,0,1:0:0:0:
64,0,105116,1,0,1:0:0:0:
192,0,105116,1,0,1:0:0:0:
320,0,105116,1,0,1:0:0:0:
448,0,105198,1,0,1:0:0:0:
64,0,105279,1,0,1:0:0:0:
192,0,105279,1,0,1:0:0:0:
320,0,105361,1,0,1:0:0:0:
64,0,105442,1,0,1:0:0:0:
192,0,105442,1,0,1:0:0:0:
448,0,105442,1,0,1:0:0:0:
320,0,105524,1,0,1:0:0:0:
64,0,105605,1,0,1:0:0:0:
192,0,105605,1,0,1:0:0:0:
448,0,105605,1,0,1:0:0:0:
192,0,105850,1,0,1:0:0:0:
320,0,105931,1,0,1:0:0:0:
448,0,105931,1,0,1:0:0:0:
64,0,106013,1,0,1:0:0:0:
192,0,106094,1,0,1:0:0:0:
320,0,106094,1,0,1:0:0:0:
64,0,106176,1,0,1:0:0:0:
320,0,106257,1,0,1:0:0:0:
448,0,106257,1,0,1:0:0:0:
192,0,106339,1,0,1:0:0:0:
64,0,106420,1,0,1:0:0:0:
320,0,106420,1,0,1:0:0:0:
448,0,106420,1,0,1:0:0:0:
64,0,106747,1,0,1:0:0:0:
192,0,106747,1,0,1:0:0:0:
320,0,106747,1,0,1:0:0:0:
192,0,106910,1,0,1:0:0:0:
320,0,106910,1,0,1:0:0:0:
448,0,106910,1,0,1:0:0:0:
192,0,107236,1,0,1:0:0:0:
320,0,107236,1,0,1:0:0:0:
64,0,107399,1,0,1:0:0:0:
192,0,107399,1,0,1:0:0:0:
320,0,107399,1,0,1:0:0:0:
448,0,107399,1,0,1:0:0:0:
64,0,107725,1,0,1:0:0:0:
192,0,107725,1,0,1:0:0:0:
192,0,107888,1,0,1:0:0:0:
320,0,107888,1,0,1:0:0:0:
448,0,107888,1,0,1:0:0:0:
320,0,108051,1,0,1:0:0:0:
448,0,108051,1,0,1:0:0:0:
64,0,108214,1,0,1:0:0:0:
192,0,108214,1,0,1:0:0:0:
320,0,108214,1,0,1:0:0:0:
192,0,108540,1,0,1:0:0:0:
320,0,108540,1,0,1:0:0:0:
448,0,108540,1,0,1:0:0:0:
64,0,108703,1,0,1:0:0:0:
448,0,108703,1,0,1:0:0:0:
64,0,108866,1,0,1:0:0:0:
192,0,108866,1,0,1:0:0:0:
320,0,108866,1,0,1:0:0:0:
320,0,109029,1,0,1:0:0:0:
448,0,109029,1,0,1:0:0:0:
64,0,109192,1,0,1:0:0:0:
192,0,109192,1,0,1:0:0:0:
448,0,109192,1,0,1:0:0:0:
192,0,109355,1,0,1:0:0:0:
320,0,109355,1,0,1:0:0:0:
448,0,109355,1,0,1:0:0:0:
64,0,109518,1,0,1:0:0:0:
192,0,109518,1,0,1:0:0:0:
320,0,109518,1,0,1:0:0:0:
448,0,109518,1,0,1:0:0:0:
64,0,109844,1,0,1:0:0:0:
192,0,109844,1,0,1:0:0:0:
320,0,109844,1,0,1:0:0:0:
64,0,110007,1,0,1:0:0:0:
320,0,110007,1,0,1:0:0:0:
448,0,110007,1,0,1:0:0:0:
64,0,110170,1,0,1:0:0:0:
192,0,110170,1,0,1:0:0:0:
448,0,110170,1,0,1:0:0:0:
192,0,110333,1,0,1:0:0:0:
320,0,110333,1,0,1:0:0:0:
448,0,110333,1,0,1:0:0:0:
64,0,110496,1,0,1:0:0:0:
320,0,110496,1,0,1:0:0:0:
448,0,110496,1,0,1:0:0:0:
64,0,110659,1,0,1:0:0:0:
192,0,110659,1,0,1:0:0:0:
320,0,110659,1,0,1:0:0:0:
64,0,110822,1,0,1:0:0:0:
192,0,110822,1,0,1:0:0:0:
320,0,110822,1,0,1:0:0:0:
448,0,110822,1,0,1:0:0:0:
64,0,111149,1,0,1:0:0:0:
192,0,111149,1,0,1:0:0:0:
320,0,111149,1,0,1:0:0:0:
192,0,111312,1,0,1:0:0:0:
320,0,111312,1,0,1:0:0:0:
448,0,111312,1,0,1:0:0:0:
64,0,111475,1,0,1:0:0:0:
192,0,111475,1,0,1:0:0:0:
320,0,111475,1,0,1:0:0:0:
192,0,111638,1,0,1:0:0:0:
320,0,111638,1,0,1:0:0:0:
448,0,111638,1,0,1:0:0:0:
64,0,111801,1,0,1:0:0:0:
320,0,111801,1,0,1:0:0:0:
448,0,111801,1,0,1:0:0:0:
64,0,111964,1,0,1:0:0:0:
192,0,111964,1,0,1:0:0:0:
448,0,111964,1,0,1:0:0:0:
64,0,112127,1,0,1:0:0:0:
192,0,112127,1,0,1:0:0:0:
320,0,112127,1,0,1:0:0:0:
448,0,112127,1,0,1:0:0:0:
192,0,112453,1,0,1:0:0:0:
320,0,112453,1,0,1:0:0:0:
448,0,112453,1,0,1:0:0:0:
64,0,112616,1,0,1:0:0:0:
192,0,112616,1,0,1:0:0:0:
448,0,112616,1,0,1:0:0:0:
320,0,112942,1,0,1:0:0:0:
448,0,112942,1,0,1:0:0:0:
64,0,113105,1,0,1:0:0:0:
192,0,113105,1,0,1:0:0:0:
448,0,113105,1,0,1:0:0:0:
192,0,113268,1,0,1:0:0:0:
320,0,113268,1,0,1:0:0:0:
64,0,113431,1,0,1:0:0:0:
192,0,113431,1,0,1:0:0:0:
320,0,113431,1,0,1:0:0:0:
64,0,113757,1,0,1:0:0:0:
192,0,113757,1,0,1:0:0:0:
320,0,113757,1,0,1:0:0:0:
320,0,113920,1,0,1:0:0:0:
448,0,113920,1,0,1:0:0:0:
64,0,114083,1,0,1:0:0:0:
192,0,114083,1,0,1:0:0:0:
448,0,114083,128,0,114572:0:0:0:0:
192,0,114246,1,0,1:0:0:0:
320,0,114246,1,0,1:0:0:0:
64,0,114409,1,0,1:0:0:0:
320,0,114409,1,0,1:0:0:0:
64,0,114572,1,0,1:0:0:0:
192,0,114572,1,0,1:0:0:0:
64,0,114735,1,0,1:0:0:0:
192,0,114735,1,0,1:0:0:0:
320,0,114735,1,0,1:0:0:0:
448,0,114735,1,0,1:0:0:0:
320,0,115062,1,0,1:0:0:0:
448,0,115062,1,0,1:0:0:0:
64,0,115225,1,0,1:0:0:0:
192,0,115225,1,0,1:0:0:0:
320,0,115225,1,0,1:0:0:0:
192,0,115388,1,0,1:0:0:0:
320,0,115388,1,0,1:0:0:0:
448,0,115388,1,0,1:0:0:0:
64,0,115551,1,0,1:0:0:0:
192,0,115551,1,0,1:0:0:0:
320,0,115551,1,0,1:0:0:0:
192,0,115714,1,0,1:0:0:0:
320,0,115714,1,0,1:0:0:0:
448,0,115714,1,0,1:0:0:0:
64,0,115877,1,0,1:0:0:0:
192,0,115877,1,0,1:0:0:0:
448,0,115877,1,0,1:0:0:0:
64,0,116040,1,0,1:0:0:0:
192,0,116040,1,0,1:0:0:0:
320,0,116040,1,0,1:0:0:0:
448,0,116040,1,0,1:0:0:0:
320,0,116366,1,0,1:0:0:0:
448,0,116366,1,0,1:0:0:0:
64,0,116447,1,0,1:0:0:0:
192,0,116529,1,0,1:0:0:0:
320,0,116529,1,0,1:0:0:0:
448,0,116529,1,0,1:0:0:0:
64,0,116692,1,0,1:0:0:0:
448,0,116692,1,0,1:0:0:0:
192,0,116773,1,0,1:0:0:0:
320,0,116773,1,0,1:0:0:0:
64,0,116855,1,0,1:0:0:0:
448,0,116855,1,0,1:0:0:0:
64,0,117018,1,0,1:0:0:0:
192,0,117018,1,0,1:0:0:0:
320,0,117018,1,0,1:0:0:0:
192,0,117181,1,0,1:0:0:0:
320,0,117181,1,0,1:0:0:0:
448,0,117181,1,0,1:0:0:0:
64,0,117344,1,0,1:0:0:0:
192,0,117344,1,0,1:0:0:0:
320,0,117344,1,0,1:0:0:0:
448,0,117344,1,0,1:0:0:0:
64,0,117670,1,0,1:0:0:0:
192,0,117670,1,0,1:0:0:0:
320,0,117670,1,0,1:0:0:0:
64,0,117833,1,0,1:0:0:0:
192,0,117833,1,0,1:0:0:0:
320,0,117833,1,0,1:0:0:0:
448,0,117833,1,0,1:0:0:0:
192,0,118159,1,0,1:0:0:0:
320,0,118159,1,0,1:0:0:0:
320,0,118322,1,0,1:0:0:0:
448,0,118322,1,0,1:0:0:0:
64,0,118485,1,0,1:0:0:0:
192,0,118485,1,0,1:0:0:0:
320,0,118485,1,0,1:0:0:0:
64,0,118648,1,0,1:0:0:0:
192,0,118648,1,0,1:0:0:0:
320,0,118648,1,0,1:0:0:0:
448,0,118648,1,0,1:0:0:0:
192,0,118974,1,0,1:0:0:0:
320,0,118974,1,0,1:0:0:0:
64,0,119137,1,0,1:0:0:0:
320,0,119137,1,0,1:0:0:0:
448,0,119137,1,0,1:0:0:0:
192,0,119301,1,0,1:0:0:0:
192,0,119464,1,0,1:0:0:0:
320,0,119464,1,0,1:0:0:0:
64,0,119627,1,0,1:0:0:0:
448,0,119627,1,0,1:0:0:0:
64,0,119790,1,0,1:0:0:0:
192,0,119790,1,0,1:0:0:0:
320,0,119790,1,0,1:0:0:0:
64,0,119953,1,0,1:0:0:0:
192,0,119953,1,0,1:0:0:0:
320,0,119953,1,0,1:0:0:0:
448,0,119953,1,0,1:0:0:0:
320,0,120279,1,0,1:0:0:0:
64,0,120442,1,0,1:0:0:0:
192,0,120442,1,0,1:0:0:0:
448,0,120442,1,0,1:0:0:0:
64,0,120605,1,0,1:0:0:0:
448,0,120605,1,0,1:0:0:0:
192,0,120768,1,0,1:0:0:0:
320,0,120768,1,0,1:0:0:0:
320,0,120931,1,0,1:0:0:0:
448,0,120931,1,0,1:0:0:0:
64,0,121094,1,0,1:0:0:0:
192,0,121094,1,0,1:0:0:0:
320,0,121094,1,0,1:0:0:0:
64,0,121257,1,0,1:0:0:0:
192,0,121257,1,0,1:0:0:0:
320,0,121257,1,0,1:0:0:0:
448,0,121257,1,0,1:0:0:0:
64,0,121583,1,0,1:0:0:0:
192,0,121583,1,0,1:0:0:0:
320,0,121665,1,0,1:0:0:0:
64,0,121746,1,0,1:0:0:0:
192,0,121746,1,0,1:0:0:0:
448,0,121746,1,0,1:0:0:0:
320,0,121909,1,0,1:0:0:0:
448,0,121909,1,0,1:0:0:0:
64,0,121991,1,0,1:0:0:0:
192,0,121991,1,0,1:0:0:0:
320,0,122072,1,0,1:0:0:0:
448,0,122072,1,0,1:0:0:0:
192,0,122235,1,0,1:0:0:0:
320,0,122235,1,0,1:0:0:0:
64,0,122398,1,0,1:0:0:0:
192,0,122398,1,0,1:0:0:0:
320,0,122398,1,0,1:0:0:0:
64,0,122561,1,0,1:0:0:0:
192,0,122561,1,0,1:0:0:0:
320,0,122561,1,0,1:0:0:0:
448,0,122561,1,0,1:0:0:0:
64,0,122887,1,0,1:0:0:0:
192,0,122887,1,0,1:0:0:0:
192,0,123050,1,0,1:0:0:0:
320,0,123050,1,0,1:0:0:0:
448,0,123050,1,0,1:0:0:0:
320,0,123213,1,0,1:0:0:0:
64,0,123377,1,0,1:0:0:0:
448,0,123377,1,0,1:0:0:0:
192,0,123540,1,0,1:0:0:0:
448,0,123540,1,0,1:0:0:0:
192,0,123703,1,0,1:0:0:0:
320,0,123703,1,0,1:0:0:0:
448,0,123703,1,0,1:0:0:0:
64,0,123866,1,0,1:0:0:0:
192,0,123866,1,0,1:0:0:0:
320,0,123866,1,0,1:0:0:0:
448,0,123866,1,0,1:0:0:0:
320,0,124192,1,0,1:0:0:0:
448,0,124192,1,0,1:0:0:0:
64,0,124355,1,0,1:0:0:0:
192,0,124355,1,0,1:0:0:0:
320,0,124355,1,0,1:0:0:0:
64,0,124518,1,0,1:0:0:0:
448,0,124518,1,0,1:0:0:0:
192,0,124681,1,0,1:0:0:0:
320,0,124681,1,0,1:0:0:0:
64,0,124844,1,0,1:0:0:0:
448,0,124844,1,0,1:0:0:0:
192,0,125007,1,0,1:0:0:0:
320,0,125007,1,0,1:0:0:0:
448,0,125007,1,0,1:0:0:0:
64,0,125170,1,0,1:0:0:0:
192,0,125170,1,0,1:0:0:0:
320,0,125170,1,0,1:0:0:0:
448,0,125170,1,0,1:0:0:0:
64,0,125496,1,0,1:0:0:0:
192,0,125496,1,0,1:0:0:0:
192,0,125659,1,0,1:0:0:0:
320,0,125659,1,0,1:0:0:0:
448,0,125659,1,0,1:0:0:0:
64,0,125822,1,0,1:0:0:0:
320,0,125822,1,0,1:0:0:0:
192,0,125985,1,0,1:0:0:0:
448,0,125985,128,0,127126:0:0:0:0:
192,0,126148,1,0,1:0:0:0:
64,0,126311,1,0,1:0:0:0:
192,0,126311,1,0,1:0:0:0:
320,0,126311,1,0,1:0:0:0:
320,0,126474,1,0,1:0:0:0:
64,0,126637,1,0,1:0:0:0:
320,0,126637,1,0,1:0:0:0:
64,0,126800,1,0,1:0:0:0:
64,0,126963,1,0,1:0:0:0:
192,0,126963,1,0,1:0:0:0:
320,0,126963,1,0,1:0:0:0:
192,0,127126,1,0,1:0:0:0:
320,0,127126,1,0,1:0:0:0:
64,0,127289,1,0,1:0:0:0:
192,0,127289,1,0,1:0:0:0:
320,0,127289,1,0,1:0:0:0:
448,0,127289,1,0,1:0:0:0:
320,0,127452,1,0,1:0:0:0:
448,0,127452,1,0,1:0:0:0:
64,0,127534,1,0,1:0:0:0:
192,0,127534,1,0,1:0:0:0:
320,0,127616,1,0,1:0:0:0:
448,0,127616,1,0,1:0:0:0:
64,0,127697,1,0,1:0:0:0:
192,0,127697,1,0,1:0:0:0:
320,0,127779,1,0,1:0:0:0:
448,0,127779,1,0,1:0:0:0:
64,0,127860,1,0,1:0:0:0:
192,0,127860,1,0,1:0:0:0:
192,0,127942,1,0,1:0:0:0:
320,0,127942,1,0,1:0:0:0:
448,0,127942,1,0,1:0:0:0:
64,0,128268,1,0,1:0:0:0:
192,0,128268,1,0,1:0:0:0:
320,0,128268,1,0,1:0:0:0:
448,0,128349,1,0,1:0:0:0:
64,0,128431,1,0,1:0:0:0:
192,0,128431,1,0,1:0:0:0:
320,0,128512,1,0,1:0:0:0:
64,0,128594,1,0,1:0:0:0:
448,0,128594,1,0,1:0:0:0:
192,0,128675,1,0,1:0:0:0:
320,0,128757,1,0,1:0:0:0:
448,0,128757,1,0,1:0:0:0:
192,0,128838,1,0,1:0:0:0:
64,0,128920,1,0,1:0:0:0:
320,0,128920,1,0,1:0:0:0:
448,0,128920,1,0,1:0:0:0:
192,0,129001,1,0,1:0:0:0:
64,0,129083,1,0,1:0:0:0:
448,0,129083,1,0,1:0:0:0:
320,0,129164,1,0,1:0:0:0:
64,0,129246,1,0,1:0:0:0:
192,0,129246,1,0,1:0:0:0:
448,0,129327,1,0,1:0:0:0:
192,0,129409,1,0,1:0:0:0:
320,0,129409,1,0,1:0:0:0:
64,0,129490,1,0,1:0:0:0:
192,0,129572,1,0,1:0:0:0:
320,0,129572,1,0,1:0:0:0:
448,0,129572,1,0,1:0:0:0:
64,0,129654,1,0,1:0:0:0:
320,0,129735,1,0,1:0:0:0:
448,0,129735,1,0,1:0:0:0:
192,0,129817,1,0,1:0:0:0:
64,0,129898,1,0,1:0:0:0:
448,0,129898,1,0,1:0:0:0:
320,0,129980,1,0,1:0:0:0:
64,0,130061,1,0,1:0:0:0:
192,0,130061,1,0,1:0:0:0:
320,0,130143,1,0,1:0:0:0:
64,0,130224,1,0,1:0:0:0:
192,0,130224,1,0,1:0:0:0:
448,0,130224,1,0,1:0:0:0:
320,0,130306,1,0,1:0:0:0:
64,0,130387,1,0,1:0:0:0:
448,0,130387,1,0,1:0:0:0:
192,0,130469,1,0,1:0:0:0:
320,0,130550,1,0,1:0:0:0:
448,0,130550,1,0,1:0:0:0:
192,0,130632,1,0,1:0:0:0:
64,0,130713,1,0,1:0:0:0:
448,0,130713,1,0,1:0:0:0:
192,0,130795,1,0,1:0:0:0:
64,0,130876,1,0,1:0:0:0:
320,0,130876,1,0,1:0:0:0:
448,0,130876,1,0,1:0:0:0:
192,0,130958,1,0,1:0:0:0:
320,0,131039,1,0,1:0:0:0:
448,0,131039,1,0,1:0:0:0:
64,0,131121,1,0,1:0:0:0:
192,0,131202,1,0,1:0:0:0:
320,0,131202,1,0,1:0:0:0:
448,0,131284,1,0,1:0:0:0:
64,0,131365,1,0,1:0:0:0:
192,0,131365,1,0,1:0:0:0:
320,0,131447,1,0,1:0:0:0:
64,0,131528,1,0,1:0:0:0:
192,0,131528,1,0,1:0:0:0:
448,0,131528,1,0,1:0:0:0:
320,0,131610,1,0,1:0:0:0:
64,0,131691,1,0,1:0:0:0:
192,0,131691,1,0,1:0:0:0:
448,0,131773,1,0,1:0:0:0:
192,0,131855,1,0,1:0:0:0:
320,0,131855,1,0,1:0:0:0:
64,0,131936,1,0,1:0:0:0:
320,0,132018,1,0,1:0:0:0:
448,0,132018,1,0,1:0:0:0:
192,0,132099,1,0,1:0:0:0:
64,0,132181,1,0,1:0:0:0:
320,0,132181,1,0,1:0:0:0:
448,0,132181,1,0,1:0:0:0:
192,0,132262,1,0,1:0:0:0:
320,0,132344,1,0,1:0:0:0:
448,0,132425,1,0,1:0:0:0:
64,0,132507,1,0,1:0:0:0:
192,0,132507,1,0,1:0:0:0:
320,0,132588,1,0,1:0:0:0:
64,0,132670,1,0,1:0:0:0:
448,0,132670,1,0,1:0:0:0:
192,0,132751,1,0,1:0:0:0:
64,0,132833,1,0,1:0:0:0:
320,0,132833,1,0,1:0:0:0:
448,0,132833,1,0,1:0:0:0:
192,0,132914,1,0,1:0:0:0:
320,0,132996,1,0,1:0:0:0:
448,0,132996,1,0,1:0:0:0:
192,0,133077,1,0,1:0:0:0:
64,0,133159,128,0,133322:0:0:0:0:
320,0,133159,128,0,133322:0:0:0:0:
448,0,133159,128,0,133322:0:0:0:0:
64,0,133485,1,0,1:0:0:0:
192,0,133485,1,0,1:0:0:0:
448,0,133485,1,0,1:0:0:0:
320,0,133566,1,0,1:0:0:0:
64,0,133648,1,0,1:0:0:0:
192,0,133648,1,0,1:0:0:0:
448,0,133729,1,0,1:0:0:0:
64,0,133811,1,0,1:0:0:0:
192,0,133811,1,0,1:0:0:0:
320,0,133811,1,0,1:0:0:0:
448,0,133893,1,0,1:0:0:0:
64,0,133974,1,0,1:0:0:0:
192,0,133974,1,0,1:0:0:0:
320,0,134056,1,0,1:0:0:0:
64,0,134137,1,0,1:0:0:0:
192,0,134137,1,0,1:0:0:0:
448,0,134137,1,0,1:0:0:0:
320,0,134219,1,0,1:0:0:0:
64,0,134300,1,0,1:0:0:0:
448,0,134300,1,0,1:0:0:0:
192,0,134382,1,0,1:0:0:0:
64,0,134463,1,0,1:0:0:0:
320,0,134463,1,0,1:0:0:0:
448,0,134463,1,0,1:0:0:0:
192,0,134545,1,0,1:0:0:0:
320,0,134626,1,0,1:0:0:0:
448,0,134626,1,0,1:0:0:0:
64,0,134708,1,0,1:0:0:0:
192,0,134789,1,0,1:0:0:0:
320,0,134789,1,0,1:0:0:0:
448,0,134789,1,0,1:0:0:0:
64,0,134871,1,0,1:0:0:0:
320,0,134952,1,0,1:0:0:0:
448,0,134952,1,0,1:0:0:0:
192,0,135034,1,0,1:0:0:0:
64,0,135115,1,0,1:0:0:0:
448,0,135115,1,0,1:0:0:0:
320,0,135197,1,0,1:0:0:0:
64,0,135278,1,0,1:0:0:0:
192,0,135278,1,0,1:0:0:0:
448,0,135360,1,0,1:0:0:0:
64,0,135441,1,0,1:0:0:0:
192,0,135441,1,0,1:0:0:0:
320,0,135441,1,0,1:0:0:0:
448,0,135523,1,0,1:0:0:0:
64,0,135604,1,0,1:0:0:0:
192,0,135604,1,0,1:0:0:0:
320,0,135686,1,0,1:0:0:0:
64,0,135767,1,0,1:0:0:0:
192,0,135767,1,0,1:0:0:0:
448,0,135767,1,0,1:0:0:0:
320,0,135849,1,0,1:0:0:0:
192,0,135931,1,0,1:0:0:0:
320,0,136012,1,0,1:0:0:0:
64,0,136094,1,0,1:0:0:0:
192,0,136094,1,0,1:0:0:0:
448,0,136094,1,0,1:0:0:0:
320,0,136175,1,0,1:0:0:0:
64,0,136257,1,0,1:0:0:0:
192,0,136257,1,0,1:0:0:0:
448,0,136338,1,0,1:0:0:0:
192,0,136420,1,0,1:0:0:0:
320,0,136420,1,0,1:0:0:0:
64,0,136501,1,0,1:0:0:0:
320,0,136583,1,0,1:0:0:0:
448,0,136583,1,0,1:0:0:0:
192,0,136664,1,0,1:0:0:0:
64,0,136746,1,0,1:0:0:0:
320,0,136746,1,0,1:0:0:0:
448,0,136746,1,0,1:0:0:0:
192,0,136827,1,0,1:0:0:0:
320,0,136909,1,0,1:0:0:0:
448,0,136909,1,0,1:0:0:0:
192,0,136990,1,0,1:0:0:0:
64,0,137072,1,0,1:0:0:0:
320,0,137072,1,0,1:0:0:0:
448,0,137072,1,0,1:0:0:0:
192,0,137153,1,0,1:0:0:0:
320,0,137235,1,0,1:0:0:0:
448,0,137235,1,0,1:0:0:0:
64,0,137316,1,0,1:0:0:0:
192,0,137398,1,0,1:0:0:0:
320,0,137398,1,0,1:0:0:0:
448,0,137479,1,0,1:0:0:0:
64,0,137561,1,0,1:0:0:0:
192,0,137561,1,0,1:0:0:0:
320,0,137561,1,0,1:0:0:0:
448,0,137642,1,0,1:0:0:0:
64,0,137724,1,0,1:0:0:0:
192,0,137724,1,0,1:0:0:0:
320,0,137805,1,0,1:0:0:0:
64,0,137887,1,0,1:0:0:0:
448,0,137887,1,0,1:0:0:0:
192,0,137968,1,0,1:0:0:0:
64,0,138050,1,0,1:0:0:0:
320,0,138050,1,0,1:0:0:0:
448,0,138050,1,0,1:0:0:0:
192,0,138132,1,0,1:0:0:0:
320,0,138213,1,0,1:0:0:0:
448,0,138295,1,0,1:0:0:0:
64,0,138376,1,0,1:0:0:0:
192,0,138376,1,0,1:0:0:0:
320,0,138376,1,0,1:0:0:0:
448,0,138458,1,0,1:0:0:0:
192,0,138539,1,0,1:0:0:0:
320,0,138621,1,0,1:0:0:0:
64,0,138702,1,0,1:0:0:0:
192,0,138702,1,0,1:0:0:0:
448,0,138702,1,0,1:0:0:0:
320,0,138784,1,0,1:0:0:0:
64,0,138865,1,0,1:0:0:0:
192,0,138865,1,0,1:0:0:0:
448,0,138947,1,0,1:0:0:0:
192,0,139028,1,0,1:0:0:0:
320,0,139028,1,0,1:0:0:0:
64,0,139110,1,0,1:0:0:0:
320,0,139191,1,0,1:0:0:0:
448,0,139191,1,0,1:0:0:0:
192,0,139273,1,0,1:0:0:0:
64,0,139354,1,0,1:0:0:0:
320,0,139354,1,0,1:0:0:0:
448,0,139354,1,0,1:0:0:0:
192,0,139436,1,0,1:0:0:0:
320,0,139517,1,0,1:0:0:0:
448,0,139599,1,0,1:0:0:0:
64,0,139680,1,0,1:0:0:0:
192,0,139680,1,0,1:0:0:0:
320,0,139680,1,0,1:0:0:0:
448,0,139762,1,0,1:0:0:0:
192,0,139843,1,0,1:0:0:0:
320,0,139925,1,0,1:0:0:0:
64,0,140006,1,0,1:0:0:0:
192,0,140006,1,0,1:0:0:0:
448,0,140006,1,0,1:0:0:0:
320,0,140088,1,0,1:0:0:0:
64,0,140170,1,0,1:0:0:0:
192,0,140170,1,0,1:0:0:0:
448,0,140251,1,0,1:0:0:0:
192,0,140333,1,0,1:0:0:0:
320,0,140333,1,0,1:0:0:0:
64,0,140414,1,0,1:0:0:0:
320,0,140496,1,0,1:0:0:0:
448,0,140496,1,0,1:0:0:0:
192,0,140577,1,0,1:0:0:0:
64,0,140659,1,0,1:0:0:0:
320,0,140659,1,0,1:0:0:0:
448,0,140659,1,0,1:0:0:0:
192,0,140740,1,0,1:0:0:0:
320,0,140822,1,0,1:0:0:0:
448,0,140903,1,0,1:0:0:0:
64,0,140985,1,0,1:0:0:0:
192,0,140985,1,0,1:0:0:0:
320,0,140985,1,0,1:0:0:0:
448,0,141066,1,0,1:0:0:0:
64,0,141148,1,0,1:0:0:0:
320,0,141148,1,0,1:0:0:0:
192,0,141229,1,0,1:0:0:0:
64,0,141311,1,0,1:0:0:0:
320,0,141311,1,0,1:0:0:0:
448,0,141311,1,0,1:0:0:0:
192,0,141392,1,0,1:0:0:0:
320,0,141474,1,0,1:0:0:0:
448,0,141474,1,0,1:0:0:0:
64,0,141555,1,0,1:0:0:0:
192,0,141637,1,0,1:0:0:0:
320,0,141637,1,0,1:0:0:0:
448,0,141718,1,0,1:0:0:0:
64,0,141800,1,0,1:0:0:0:
192,0,141800,1,0,1:0:0:0:
320,0,141881,1,0,1:0:0:0:
64,0,141963,1,0,1:0:0:0:
192,0,141963,1,0,1:0:0:0:
448,0,141963,1,0,1:0:0:0:
320,0,142044,1,0,1:0:0:0:
64,0,142126,1,0,1:0:0:0:
192,0,142126,1,0,1:0:0:0:
448,0,142208,1,0,1:0:0:0:
64,0,142289,1,0,1:0:0:0:
192,0,142289,1,0,1:0:0:0:
320,0,142289,1,0,1:0:0:0:
448,0,142371,1,0,1:0:0:0:
64,0,142452,1,0,1:0:0:0:
192,0,142534,1,0,1:0:0:0:
64,0,142615,1,0,1:0:0:0:
320,0,142615,1,0,1:0:0:0:
448,0,142615,1,0,1:0:0:0:
192,0,142697,1,0,1:0:0:0:
320,0,142778,1,0,1:0:0:0:
448,0,142778,1,0,1:0:0:0:
64,0,142860,1,0,1:0:0:0:
192,0,142941,1,0,1:0:0:0:
448,0,142941,1,0,1:0:0:0:
320,0,143023,1,0,1:0:0:0:
64,0,143104,1,0,1:0:0:0:
192,0,143104,1,0,1:0:0:0:
448,0,143186,1,0,1:0:0:0:
64,0,143267,1,0,1:0:0:0:
192,0,143267,1,0,1:0:0:0:
320,0,143267,1,0,1:0:0:0:
448,0,143349,1,0,1:0:0:0:
192,0,143430,1,0,1:0:0:0:
320,0,143512,1,0,1:0:0:0:
64,0,143593,1,0,1:0:0:0:
192,0,143593,1,0,1:0:0:0:
448,0,143593,1,0,1:0:0:0:
320,0,143675,1,0,1:0:0:0:
64,0,143756,1,0,1:0:0:0:
192,0,143756,1,0,1:0:0:0:
448,0,143838,1,0,1:0:0:0:
64,0,143919,1,0,1:0:0:0:
192,0,143919,1,0,1:0:0:0:
320,0,143919,1,0,1:0:0:0:
448,0,144001,1,0,1:0:0:0:
64,0,144082,1,0,1:0:0:0:
192,0,144082,1,0,1:0:0:0:
320,0,144164,1,0,1:0:0:0:
64,0,144245,1,0,1:0:0:0:
448,0,144245,1,0,1:0:0:0:
192,0,144327,1,0,1:0:0:0:
320,0,144409,1,0,1:0:0:0:
448,0,144409,1,0,1:0:0:0:
192,0,144490,1,0,1:0:0:0:
64,0,144572,1,0,1:0:0:0:
320,0,144572,1,0,1:0:0:0:
448,0,144572,1,0,1:0:0:0:
192,0,144653,1,0,1:0:0:0:
320,0,144735,1,0,1:0:0:0:
448,0,144735,1,0,1:0:0:0:
192,0,144816,1,0,1:0:0:0:
64,0,144898,1,0,1:0:0:0:
320,0,144898,1,0,1:0:0:0:
448,0,144898,1,0,1:0:0:0:
192,0,144979,1,0,1:0:0:0:
320,0,145061,1,0,1:0:0:0:
448,0,145061,1,0,1:0:0:0:
192,0,145142,1,0,1:0:0:0:
64,0,145224,1,0,1:0:0:0:
320,0,145224,1,0,1:0:0:0:
448,0,145224,1,0,1:0:0:0:
192,0,145305,1,0,1:0:0:0:
320,0,145387,1,0,1:0:0:0:
448,0,145387,1,0,1:0:0:0:
64,0,145468,1,0,1:0:0:0:
192,0,145550,1,0,1:0:0:0:
320,0,145550,1,0,1:0:0:0:
448,0,145631,1,0,1:0:0:0:
64,0,145713,1,0,1:0:0:0:
192,0,145713,1,0,1:0:0:0:
320,0,145713,1,0,1:0:0:0:
448,0,145794,1,0,1:0:0:0:
64,0,145876,1,0,1:0:0:0:
192,0,145876,1,0,1:0:0:0:
320,0,145957,1,0,1:0:0:0:
64,0,146039,1,0,1:0:0:0:
192,0,146039,1,0,1:0:0:0:
448,0,146039,1,0,1:0:0:0:
320,0,146120,1,0,1:0:0:0:
192,0,146202,1,0,1:0:0:0:
64,0,146283,1,0,1:0:0:0:
320,0,146365,1,0,1:0:0:0:
448,0,146365,1,0,1:0:0:0:
192,0,146447,1,0,1:0:0:0:
64,0,146528,1,0,1:0:0:0:
320,0,146528,1,0,1:0:0:0:
448,0,146528,1,0,1:0:0:0:
192,0,146610,1,0,1:0:0:0:
64,0,146691,1,0,1:0:0:0:
448,0,146691,1,0,1:0:0:0:
192,0,146773,1,0,1:0:0:0:
64,0,146854,1,0,1:0:0:0:
320,0,146854,1,0,1:0:0:0:
448,0,146854,1,0,1:0:0:0:
192,0,146936,1,0,1:0:0:0:
320,0,147017,1,0,1:0:0:0:
448,0,147017,1,0,1:0:0:0:
192,0,147099,1,0,1:0:0:0:
64,0,147180,1,0,1:0:0:0:
320,0,147180,1,0,1:0:0:0:
448,0,147180,1,0,1:0:0:0:
192,0,147262,1,0,1:0:0:0:
64,0,147343,1,0,1:0:0:0:
448,0,147343,1,0,1:0:0:0:
320,0,147425,1,0,1:0:0:0:
64,0,147506,1,0,1:0:0:0:
192,0,147506,1,0,1:0:0:0:
448,0,147588,1,0,1:0:0:0:
192,0,147669,1,0,1:0:0:0:
320,0,147669,1,0,1:0:0:0:
64,0,147751,1,0,1:0:0:0:
192,0,147832,1,0,1:0:0:0:
320,0,147832,1,0,1:0:0:0:
448,0,147832,1,0,1:0:0:0:
64,0,147914,1,0,1:0:0:0:
320,0,147995,1,0,1:0:0:0:
448,0,147995,1,0,1:0:0:0:
192,0,148077,1,0,1:0:0:0:
64,0,148158,1,0,1:0:0:0:
448,0,148158,1,0,1:0:0:0:
192,0,148240,1,0,1:0:0:0:
320,0,148321,1,0,1:0:0:0:
448,0,148321,1,0,1:0:0:0:
192,0,148403,1,0,1:0:0:0:
64,0,148485,1,0,1:0:0:0:
320,0,148485,1,0,1:0:0:0:
448,0,148485,1,0,1:0:0:0:
192,0,148566,1,0,1:0:0:0:
320,0,148648,1,0,1:0:0:0:
448,0,148729,1,0,1:0:0:0:
64,0,148811,1,0,1:0:0:0:
192,0,148811,1,0,1:0:0:0:
320,0,148865,1,0,1:0:0:0:
448,0,148919,1,0,1:0:0:0:
64,0,148974,1,0,1:0:0:0:
192,0,149028,1,0,1:0:0:0:
320,0,149082,1,0,1:0:0:0:
448,0,149137,1,0,1:0:0:0:
192,0,149191,1,0,1:0:0:0:
320,0,149245,1,0,1:0:0:0:
64,0,149300,1,0,1:0:0:0:
448,0,149300,1,0,1:0:0:0:
192,0,149354,1,0,1:0:0:0:
320,0,149408,1,0,1:0:0:0:
448,0,149463,1,0,1:0:0:0:
64,0,149517,1,0,1:0:0:0:
192,0,149571,1,0,1:0:0:0:
320,0,149626,1,0,1:0:0:0:
448,0,149626,1,0,1:0:0:0:
64,0,149680,1,0,1:0:0:0:
192,0,149734,1,0,1:0:0:0:
320,0,149789,1,0,1:0:0:0:
448,0,149843,1,0,1:0:0:0:
192,0,149898,1,0,1:0:0:0:
64,0,149952,1,0,1:0:0:0:
320,0,149952,1,0,1:0:0:0:
448,0,150006,1,0,1:0:0:0:
192,0,150061,1,0,1:0:0:0:
320,0,150115,1,0,1:0:0:0:
448,0,150169,1,0,1:0:0:0:
192,0,150224,1,0,1:0:0:0:
64,0,150278,1,0,1:0:0:0:
448,0,150278,1,0,1:0:0:0:
192,0,150359,1,0,1:0:0:0:
320,0,150441,1,0,1:0:0:0:
448,0,150441,1,0,1:0:0:0:
192,0,150523,1,0,1:0:0:0:
64,0,150604,1,0,1:0:0:0:
320,0,150686,1,0,1:0:0:0:
448,0,150686,1,0,1:0:0:0:
64,0,150767,1,0,1:0:0:0:
192,0,150767,1,0,1:0:0:0:
320,0,150849,1,0,1:0:0:0:
64,0,150930,1,0,1:0:0:0:
192,0,150930,1,0,1:0:0:0:
320,0,151012,1,0,1:0:0:0:
448,0,151012,1,0,1:0:0:0:
64,0,151093,1,0,1:0:0:0:
192,0,151093,1,0,1:0:0:0:
320,0,151175,1,0,1:0:0:0:
448,0,151175,1,0,1:0:0:0:
64,0,151256,1,0,1:0:0:0:
192,0,151256,1,0,1:0:0:0:
320,0,151338,1,0,1:0:0:0:
448,0,151338,1,0,1:0:0:0:
64,0,151419,1,0,1:0:0:0:
192,0,151419,1,0,1:0:0:0:
448,0,151419,1,0,1:0:0:0:
320,0,151501,1,0,1:0:0:0:
64,0,151582,1,0,1:0:0:0:
192,0,151582,1,0,1:0:0:0:
448,0,151582,1,0,1:0:0:0:
320,0,151664,1,0,1:0:0:0:
64,0,151745,1,0,1:0:0:0:
192,0,151745,1,0,1:0:0:0:
320,0,151827,1,0,1:0:0:0:
64,0,151908,1,0,1:0:0:0:
192,0,151908,1,0,1:0:0:0:
448,0,151908,1,0,1:0:0:0:
320,0,151990,1,0,1:0:0:0:
64,0,152071,1,0,1:0:0:0:
192,0,152071,1,0,1:0:0:0:
448,0,152153,1,0,1:0:0:0:
64,0,152234,1,0,1:0:0:0:
192,0,152234,1,0,1:0:0:0:
448,0,152316,1,0,1:0:0:0:
64,0,152397,1,0,1:0:0:0:
192,0,152397,1,0,1:0:0:0:
320,0,152397,1,0,1:0:0:0:
448,0,152479,1,0,1:0:0:0:
64,0,152560,1,0,1:0:0:0:
192,0,152560,1,0,1:0:0:0:
320,0,152560,1,0,1:0:0:0:
448,0,152642,1,0,1:0:0:0:
64,0,152724,1,0,1:0:0:0:
192,0,152724,1,0,1:0:0:0:
320,0,152724,1,0,1:0:0:0:
448,0,152805,1,0,1:0:0:0:
64,0,152887,1,0,1:0:0:0:
192,0,152887,1,0,1:0:0:0:
320,0,152968,1,0,1:0:0:0:
64,0,153050,1,0,1:0:0:0:
448,0,153050,1,0,1:0:0:0:
192,0,153131,1,0,1:0:0:0:
64,0,153213,1,0,1:0:0:0:
320,0,153213,1,0,1:0:0:0:
448,0,153213,1,0,1:0:0:0:
192,0,153294,1,0,1:0:0:0:
320,0,153376,1,0,1:0:0:0:
448,0,153376,1,0,1:0:0:0:
64,0,153457,1,0,1:0:0:0:
320,0,153539,1,0,1:0:0:0:
448,0,153539,1,0,1:0:0:0:
64,0,153620,1,0,1:0:0:0:
192,0,153702,1,0,1:0:0:0:
320,0,153702,1,0,1:0:0:0:
448,0,153702,1,0,1:0:0:0:
64,0,153783,1,0,1:0:0:0:
192,0,153865,1,0,1:0:0:0:
320,0,153865,1,0,1:0:0:0:
448,0,153865,1,0,1:0:0:0:
64,0,153946,1,0,1:0:0:0:
192,0,154028,1,0,1:0:0:0:
320,0,154028,1,0,1:0:0:0:
448,0,154028,1,0,1:0:0:0:
64,0,154109,1,0,1:0:0:0:
320,0,154191,1,0,1:0:0:0:
448,0,154191,1,0,1:0:0:0:
192,0,154272,1,0,1:0:0:0:
64,0,154354,1,0,1:0:0:0:
448,0,154354,1,0,1:0:0:0:
320,0,154435,1,0,1:0:0:0:
64,0,154517,1,0,1:0:0:0:
192,0,154517,1,0,1:0:0:0:
448,0,154517,1,0,1:0:0:0:
320,0,154598,1,0,1:0:0:0:
64,0,154680,1,0,1:0:0:0:
192,0,154680,1,0,1:0:0:0:
448,0,154762,1,0,1:0:0:0:
64,0,154843,1,0,1:0:0:0:
192,0,154843,1,0,1:0:0:0:
448,0,154925,1,0,1:0:0:0:
64,0,155006,1,0,1:0:0:0:
192,0,155006,1,0,1:0:0:0:
320,0,155006,1,0,1:0:0:0:
448,0,155088,1,0,1:0:0:0:
64,0,155169,1,0,1:0:0:0:
192,0,155169,1,0,1:0:0:0:
320,0,155169,1,0,1:0:0:0:
448,0,155251,1,0,1:0:0:0:
64,0,155332,1,0,1:0:0:0:
192,0,155332,1,0,1:0:0:0:
320,0,155332,1,0,1:0:0:0:
448,0,155414,1,0,1:0:0:0:
64,0,155495,1,0,1:0:0:0:
192,0,155495,1,0,1:0:0:0:
320,0,155577,1,0,1:0:0:0:
64,0,155658,1,0,1:0:0:0:
192,0,155658,1,0,1:0:0:0:
448,0,155658,1,0,1:0:0:0:
320,0,155740,1,0,1:0:0:0:
64,0,155821,1,0,1:0:0:0:
192,0,155821,1,0,1:0:0:0:
448,0,155821,1,0,1:0:0:0:
320,0,155903,1,0,1:0:0:0:
64,0,155984,1,0,1:0:0:0:
192,0,155984,1,0,1:0:0:0:
448,0,156066,1,0,1:0:0:0:
192,0,156147,1,0,1:0:0:0:
320,0,156147,1,0,1:0:0:0:
64,0,156229,1,0,1:0:0:0:
192,0,156310,1,0,1:0:0:0:
320,0,156310,1,0,1:0:0:0:
448,0,156310,1,0,1:0:0:0:
64,0,156392,1,0,1:0:0:0:
320,0,156473,1,0,1:0:0:0:
448,0,156473,1,0,1:0:0:0:
64,0,156555,1,0,1:0:0:0:
192,0,156636,1,0,1:0:0:0:
320,0,156636,1,0,1:0:0:0:
448,0,156636,1,0,1:0:0:0:
64,0,156718,1,0,1:0:0:0:
192,0,156800,1,0,1:0:0:0:
320,0,156800,1,0,1:0:0:0:
448,0,156800,1,0,1:0:0:0:
64,0,156881,1,0,1:0:0:0:
320,0,156963,1,0,1:0:0:0:
448,0,156963,1,0,1:0:0:0:
192,0,157044,1,0,1:0:0:0:
64,0,157126,1,0,1:0:0:0:
320,0,157126,1,0,1:0:0:0:
448,0,157126,1,0,1:0:0:0:
192,0,157207,1,0,1:0:0:0:
64,0,157289,1,0,1:0:0:0:
448,0,157289,1,0,1:0:0:0:
320,0,157370,1,0,1:0:0:0:
64,0,157452,1,0,1:0:0:0:
192,0,157452,1,0,1:0:0:0:
320,0,157533,1,0,1:0:0:0:
64,0,157615,1,0,1:0:0:0:
192,0,157615,1,0,1:0:0:0:
448,0,157615,1,0,1:0:0:0:
320,0,157696,1,0,1:0:0:0:
64,0,157778,1,0,1:0:0:0:
192,0,157778,1,0,1:0:0:0:
448,0,157778,1,0,1:0:0:0:
320,0,157859,1,0,1:0:0:0:
64,0,157941,1,0,1:0:0:0:
192,0,157941,1,0,1:0:0:0:
448,0,157941,1,0,1:0:0:0:
320,0,158022,1,0,1:0:0:0:
64,0,158104,1,0,1:0:0:0:
192,0,158104,1,0,1:0:0:0:
448,0,158185,1,0,1:0:0:0:
64,0,158267,1,0,1:0:0:0:
192,0,158267,1,0,1:0:0:0:
320,0,158267,1,0,1:0:0:0:
448,0,158348,1,0,1:0:0:0:
64,0,158430,1,0,1:0:0:0:
192,0,158430,1,0,1:0:0:0:
320,0,158511,1,0,1:0:0:0:
64,0,158593,1,0,1:0:0:0:
192,0,158593,1,0,1:0:0:0:
448,0,158593,1,0,1:0:0:0:
320,0,158674,1,0,1:0:0:0:
64,0,158756,1,0,1:0:0:0:
448,0,158756,1,0,1:0:0:0:
192,0,158837,1,0,1:0:0:0:
64,0,158919,1,0,1:0:0:0:
320,0,158919,1,0,1:0:0:0:
448,0,158919,1,0,1:0:0:0:
192,0,159001,1,0,1:0:0:0:
320,0,159082,1,0,1:0:0:0:
448,0,159082,1,0,1:0:0:0:
64,0,159164,1,0,1:0:0:0:
192,0,159245,1,0,1:0:0:0:
320,0,159245,1,0,1:0:0:0:
448,0,159245,1,0,1:0:0:0:
64,0,159327,1,0,1:0:0:0:
192,0,159408,1,0,1:0:0:0:
320,0,159408,1,0,1:0:0:0:
448,0,159408,1,0,1:0:0:0:
64,0,159490,1,0,1:0:0:0:
192,0,159571,1,0,1:0:0:0:
320,0,159571,1,0,1:0:0:0:
448,0,159571,1,0,1:0:0:0:
64,0,159653,1,0,1:0:0:0:
320,0,159734,1,0,1:0:0:0:
448,0,159734,1,0,1:0:0:0:
192,0,159816,1,0,1:0:0:0:
64,0,159897,1,0,1:0:0:0:
320,0,159897,1,0,1:0:0:0:
448,0,159897,1,0,1:0:0:0:
192,0,159979,1,0,1:0:0:0:
64,0,160060,1,0,1:0:0:0:
448,0,160060,1,0,1:0:0:0:
320,0,160142,1,0,1:0:0:0:
64,0,160223,1,0,1:0:0:0:
192,0,160223,1,0,1:0:0:0:
448,0,160223,1,0,1:0:0:0:
320,0,160305,1,0,1:0:0:0:
64,0,160386,1,0,1:0:0:0:
192,0,160386,1,0,1:0:0:0:
448,0,160468,1,0,1:0:0:0:
64,0,160549,1,0,1:0:0:0:
192,0,160549,1,0,1:0:0:0:
320,0,160549,1,0,1:0:0:0:
448,0,160631,1,0,1:0:0:0:
64,0,160712,1,0,1:0:0:0:
192,0,160712,1,0,1:0:0:0:
320,0,160794,1,0,1:0:0:0:
64,0,160875,1,0,1:0:0:0:
192,0,160875,1,0,1:0:0:0:
448,0,160875,1,0,1:0:0:0:
320,0,160957,1,0,1:0:0:0:
64,0,161039,1,0,1:0:0:0:
192,0,161039,1,0,1:0:0:0:
448,0,161120,1,0,1:0:0:0:
64,0,161202,1,0,1:0:0:0:
192,0,161202,1,0,1:0:0:0:
320,0,161283,1,0,1:0:0:0:
448,0,161283,1,0,1:0:0:0:
64,0,161365,1,0,1:0:0:0:
192,0,161365,1,0,1:0:0:0:
320,0,161446,1,0,1:0:0:0:
448,0,161446,1,0,1:0:0:0:
64,0,161528,1,0,1:0:0:0:
192,0,161528,1,0,1:0:0:0:
320,0,161609,1,0,1:0:0:0:
448,0,161609,1,0,1:0:0:0:
64,0,161691,1,0,1:0:0:0:
192,0,161691,1,0,1:0:0:0:
320,0,161772,1,0,1:0:0:0:
64,0,161854,1,0,1:0:0:0:
192,0,161854,1,0,1:0:0:0:
448,0,161854,1,0,1:0:0:0:
320,0,161935,1,0,1:0:0:0:
192,0,162017,1,0,1:0:0:0:
448,0,162017,1,0,1:0:0:0:
64,0,162098,1,0,1:0:0:0:
192,0,162180,1,0,1:0:0:0:
320,0,162180,1,0,1:0:0:0:
448,0,162180,1,0,1:0:0:0:
64,0,162261,1,0,1:0:0:0:
320,0,162343,1,0,1:0:0:0:
448,0,162343,1,0,1:0:0:0:
192,0,162424,1,0,1:0:0:0:
64,0,162506,1,0,1:0:0:0:
320,0,162506,1,0,1:0:0:0:
448,0,162506,1,0,1:0:0:0:
192,0,162587,1,0,1:0:0:0:
320,0,162669,1,0,1:0:0:0:
448,0,162669,1,0,1:0:0:0:
64,0,162750,1,0,1:0:0:0:
192,0,162832,1,0,1:0:0:0:
320,0,162832,1,0,1:0:0:0:
448,0,162832,1,0,1:0:0:0:
64,0,162913,1,0,1:0:0:0:
192,0,162995,1,0,1:0:0:0:
320,0,162995,1,0,1:0:0:0:
448,0,162995,1,0,1:0:0:0:
64,0,163077,1,0,1:0:0:0:
192,0,163158,1,0,1:0:0:0:
320,0,163158,1,0,1:0:0:0:
448,0,163158,1,0,1:0:0:0:
64,0,163240,1,0,1:0:0:0:
320,0,163321,1,0,1:0:0:0:
448,0,163321,1,0,1:0:0:0:
192,0,163403,1,0,1:0:0:0:
64,0,163484,1,0,1:0:0:0:
320,0,163484,1,0,1:0:0:0:
448,0,163484,1,0,1:0:0:0:
192,0,163566,1,0,1:0:0:0:
64,0,163647,1,0,1:0:0:0:
320,0,163647,1,0,1:0:0:0:
448,0,163647,1,0,1:0:0:0:
192,0,163729,1,0,1:0:0:0:
64,0,163810,1,0,1:0:0:0:
320,0,163810,1,0,1:0:0:0:
448,0,163810,1,0,1:0:0:0:
192,0,163892,1,0,1:0:0:0:
64,0,163973,1,0,1:0:0:0:
448,0,163973,1,0,1:0:0:0:
320,0,164055,1,0,1:0:0:0:
64,0,164136,1,0,1:0:0:0:
192,0,164136,1,0,1:0:0:0:
448,0,164136,1,0,1:0:0:0:
320,0,164218,1,0,1:0:0:0:
64,0,164299,1,0,1:0:0:0:
192,0,164299,1,0,1:0:0:0:
448,0,164381,1,0,1:0:0:0:
64,0,164462,1,0,1:0:0:0:
192,0,164462,1,0,1:0:0:0:
320,0,164462,1,0,1:0:0:0:
448,0,164544,1,0,1:0:0:0:
64,0,164625,1,0,1:0:0:0:
192,0,164625,1,0,1:0:0:0:
320,0,164707,1,0,1:0:0:0:
64,0,164788,1,0,1:0:0:0:
192,0,164788,1,0,1:0:0:0:
448,0,164788,1,0,1:0:0:0:
320,0,164870,1,0,1:0:0:0:
64,0,164951,1,0,1:0:0:0:
448,0,164951,1,0,1:0:0:0:
192,0,165033,1,0,1:0:0:0:
64,0,165114,1,0,1:0:0:0:
320,0,165114,1,0,1:0:0:0:
448,0,165114,1,0,1:0:0:0:
192,0,165196,1,0,1:0:0:0:
320,0,165278,1,0,1:0:0:0:
448,0,165278,1,0,1:0:0:0:
64,0,165359,1,0,1:0:0:0:
192,0,165441,1,0,1:0:0:0:
320,0,165441,1,0,1:0:0:0:
448,0,165441,1,0,1:0:0:0:
64,0,165522,1,0,1:0:0:0:
192,0,165604,1,0,1:0:0:0:
320,0,165604,1,0,1:0:0:0:
448,0,165604,1,0,1:0:0:0:
64,0,165685,1,0,1:0:0:0:
192,0,165767,1,0,1:0:0:0:
320,0,165767,1,0,1:0:0:0:
448,0,165767,1,0,1:0:0:0:
64,0,165848,1,0,1:0:0:0:
320,0,165930,1,0,1:0:0:0:
448,0,165930,1,0,1:0:0:0:
192,0,166011,1,0,1:0:0:0:
64,0,166093,1,0,1:0:0:0:
320,0,166093,1,0,1:0:0:0:
448,0,166093,1,0,1:0:0:0:
192,0,166174,1,0,1:0:0:0:
320,0,166256,1,0,1:0:0:0:
448,0,166256,1,0,1:0:0:0:
64,0,166337,1,0,1:0:0:0:
192,0,166419,1,0,1:0:0:0:
320,0,166419,1,0,1:0:0:0:
448,0,166419,1,0,1:0:0:0:
64,0,166500,1,0,1:0:0:0:
320,0,166582,1,0,1:0:0:0:
448,0,166582,1,0,1:0:0:0:
192,0,166663,1,0,1:0:0:0:
64,0,166745,1,0,1:0:0:0:
320,0,166745,1,0,1:0:0:0:
448,0,166745,1,0,1:0:0:0:
192,0,166826,1,0,1:0:0:0:
64,0,166908,1,0,1:0:0:0:
448,0,166908,1,0,1:0:0:0:
320,0,166989,1,0,1:0:0:0:
64,0,167071,1,0,1:0:0:0:
192,0,167071,1,0,1:0:0:0:
448,0,167071,1,0,1:0:0:0:
320,0,167152,1,0,1:0:0:0:
64,0,167234,1,0,1:0:0:0:
192,0,167234,1,0,1:0:0:0:
448,0,167316,1,0,1:0:0:0:
64,0,167397,1,0,1:0:0:0:
192,0,167397,1,0,1:0:0:0:
320,0,167397,1,0,1:0:0:0:
448,0,167479,1,0,1:0:0:0:
64,0,167560,1,0,1:0:0:0:
192,0,167560,1,0,1:0:0:0:
320,0,167560,1,0,1:0:0:0:
448,0,167642,1,0,1:0:0:0:
64,0,167723,1,0,1:0:0:0:
192,0,167723,1,0,1:0:0:0:
320,0,167723,1,0,1:0:0:0:
448,0,167805,1,0,1:0:0:0:
64,0,167886,1,0,1:0:0:0:
192,0,167886,1,0,1:0:0:0:
320,0,167886,1,0,1:0:0:0:
448,0,167968,1,0,1:0:0:0:
64,0,168049,1,0,1:0:0:0:
192,0,168049,1,0,1:0:0:0:
320,0,168049,1,0,1:0:0:0:
448,0,168131,1,0,1:0:0:0:
64,0,168212,1,0,1:0:0:0:
192,0,168212,1,0,1:0:0:0:
320,0,168294,1,0,1:0:0:0:
64,0,168375,1,0,1:0:0:0:
192,0,168375,1,0,1:0:0:0:
448,0,168375,1,0,1:0:0:0:
320,0,168457,1,0,1:0:0:0:
64,0,168538,1,0,1:0:0:0:
448,0,168538,1,0,1:0:0:0:
192,0,168620,1,0,1:0:0:0:
64,0,168701,1,0,1:0:0:0:
320,0,168701,1,0,1:0:0:0:
448,0,168701,1,0,1:0:0:0:
192,0,168783,1,0,1:0:0:0:
320,0,168864,1,0,1:0:0:0:
448,0,168864,1,0,1:0:0:0:
192,0,168946,1,0,1:0:0:0:
64,0,169027,1,0,1:0:0:0:
320,0,169027,1,0,1:0:0:0:
448,0,169027,1,0,1:0:0:0:
192,0,169109,1,0,1:0:0:0:
320,0,169190,1,0,1:0:0:0:
448,0,169190,1,0,1:0:0:0:
64,0,169272,1,0,1:0:0:0:
192,0,169272,1,0,1:0:0:0:
320,0,169354,1,0,1:0:0:0:
448,0,169354,1,0,1:0:0:0:
192,0,169435,1,0,1:0:0:0:
64,0,169517,1,0,1:0:0:0:
320,0,169517,1,0,1:0:0:0:
448,0,169517,1,0,1:0:0:0:
192,0,169598,1,0,1:0:0:0:
64,0,169680,1,0,1:0:0:0:
320,0,169680,1,0,1:0:0:0:
448,0,169680,1,0,1:0:0:0:
192,0,169761,1,0,1:0:0:0:
320,0,169843,1,0,1:0:0:0:
448,0,169843,1,0,1:0:0:0:
64,0,169924,1,0,1:0:0:0:
192,0,170006,1,0,1:0:0:0:
320,0,170006,1,0,1:0:0:0:
448,0,170006,1,0,1:0:0:0:
64,0,170087,1,0,1:0:0:0:
320,0,170169,1,0,1:0:0:0:
448,0,170169,1,0,1:0:0:0:
192,0,170250,1,0,1:0:0:0:
64,0,170332,1,0,1:0:0:0:
320,0,170332,1,0,1:0:0:0:
448,0,170332,1,0,1:0:0:0:
192,0,170413,1,0,1:0:0:0:
320,0,170495,1,0,1:0:0:0:
448,0,170495,1,0,1:0:0:0:
64,0,170576,1,0,1:0:0:0:
192,0,170658,1,0,1:0:0:0:
320,0,170658,1,0,1:0:0:0:
448,0,170658,1,0,1:0:0:0:
64,0,170739,1,0,1:0:0:0:
320,0,170821,1,0,1:0:0:0:
448,0,170821,1,0,1:0:0:0:
192,0,170902,1,0,1:0:0:0:
320,0,170984,1,0,1:0:0:0:
448,0,170984,1,0,1:0:0:0:
64,0,171065,1,0,1:0:0:0:
192,0,171065,1,0,1:0:0:0:
320,0,171147,1,0,1:0:0:0:
448,0,171147,1,0,1:0:0:0:
64,0,171228,1,0,1:0:0:0:
192,0,171228,1,0,1:0:0:0:
320,0,171310,1,0,1:0:0:0:
448,0,171310,1,0,1:0:0:0:
64,0,171391,1,0,1:0:0:0:
192,0,171391,1,0,1:0:0:0:
320,0,171473,1,0,1:0:0:0:
448,0,171473,1,0,1:0:0:0:
64,0,171555,1,0,1:0:0:0:
192,0,171555,1,0,1:0:0:0:
320,0,171636,1,0,1:0:0:0:
448,0,171636,1,0,1:0:0:0:
64,0,171718,1,0,1:0:0:0:
192,0,171718,1,0,1:0:0:0:
320,0,171799,1,0,1:0:0:0:
448,0,171799,1,0,1:0:0:0:
64,0,171881,1,0,1:0:0:0:
192,0,171881,1,0,1:0:0:0:
320,0,171962,1,0,1:0:0:0:
448,0,171962,1,0,1:0:0:0:
64,0,172044,1,0,1:0:0:0:
192,0,172044,1,0,1:0:0:0:
320,0,172125,1,0,1:0:0:0:
448,0,172125,1,0,1:0:0:0:
64,0,172207,1,0,1:0:0:0:
192,0,172207,1,0,1:0:0:0:
320,0,172288,128,0,172614:0:0:0:0:
448,0,172288,128,0,173593:0:0:0:0:
192,0,172777,128,0,173103:0:0:0:0:
320,0,173266,128,0,173593:0:0:0:0:
192,0,173756,128,0,174082:0:0:0:0:
64,0,174245,128,0,174571:0:0:0:0:
320,0,174571,128,0,174734:0:0:0:0:
64,0,174734,1,0,1:0:0:0:
192,0,174734,128,0,175060:0:0:0:0:
448,0,174734,128,0,175223:0:0:0:0:
320,0,175223,128,0,175549:0:0:0:0:
448,0,175712,128,0,176038:0:0:0:0:
64,0,176201,1,0,1:0:0:0:
320,0,176201,128,0,176364:0:0:0:0:
448,0,176201,128,0,176853:0:0:0:0:
192,0,176527,128,0,176690:0:0:0:0:
320,0,176527,1,0,1:0:0:0:
64,0,176853,128,0,177179:0:0:0:0:
192,0,176853,1,0,1:0:0:0:
320,0,176853,128,0,177505:0:0:0:0:
192,0,177342,128,0,177669:0:0:0:0:
320,0,177832,128,0,178158:0:0:0:0:
192,0,178321,128,0,178647:0:0:0:0:
64,0,178810,128,0,179136:0:0:0:0:
320,0,179136,128,0,179299:0:0:0:0:
64,0,179299,1,0,1:0:0:0:
192,0,179299,128,0,179625:0:0:0:0:
448,0,179299,128,0,179951:0:0:0:0:
320,0,179788,128,0,180114:0:0:0:0:
448,0,180277,128,0,180603:0:0:0:0:
64,0,180766,128,0,181092:0:0:0:0:
192,0,180766,1,0,1:0:0:0:
320,0,180766,128,0,180929:0:0:0:0:
192,0,181092,128,0,181255:0:0:0:0:
448,0,181092,128,0,181418:0:0:0:0:
64,0,181418,128,0,181581:0:0:0:0:
192,0,181418,1,0,1:0:0:0:
320,0,181418,1,0,1:0:0:0:
192,0,181744,1,0,1:0:0:0:
320,0,181908,1,0,1:0:0:0:
448,0,181908,1,0,1:0:0:0:
64,0,182071,1,0,1:0:0:0:
192,0,182071,1,0,1:0:0:0:
448,0,182071,1,0,1:0:0:0:
64,0,182397,1,0,1:0:0:0:
448,0,182397,1,0,1:0:0:0:
64,0,182560,1,0,1:0:0:0:
192,0,182723,1,0,1:0:0:0:
64,0,182886,1,0,1:0:0:0:
320,0,182886,1,0,1:0:0:0:
192,0,183049,1,0,1:0:0:0:
192,0,183212,1,0,1:0:0:0:
64,0,183375,1,0,1:0:0:0:
320,0,183375,1,0,1:0:0:0:
448,0,183375,1,0,1:0:0:0:
448,0,183538,1,0,1:0:0:0:
448,0,183701,1,0,1:0:0:0:
64,0,183864,1,0,1:0:0:0:
192,0,183864,1,0,1:0:0:0:
320,0,184027,1,0,1:0:0:0:
192,0,184353,1,0,1:0:0:0:
320,0,184353,1,0,1:0:0:0:
192,0,184516,1,0,1:0:0:0:
64,0,184679,1,0,1:0:0:0:
192,0,184679,1,0,1:0:0:0:
320,0,184679,1,0,1:0:0:0:
64,0,184842,1,0,1:0:0:0:
448,0,184842,1,0,1:0:0:0:
192,0,185005,1,0,1:0:0:0:
192,0,185168,1,0,1:0:0:0:
320,0,185331,1,0,1:0:0:0:
448,0,185331,1,0,1:0:0:0:
192,0,185657,1,0,1:0:0:0:
320,0,185657,1,0,1:0:0:0:
64,0,185983,1,0,1:0:0:0:
320,0,185983,1,0,1:0:0:0:
448,0,185983,1,0,1:0:0:0:
320,0,186310,1,0,1:0:0:0:
192,0,186473,1,0,1:0:0:0:
448,0,186473,1,0,1:0:0:0:
320,0,186636,1,0,1:0:0:0:
320,0,186799,1,0,1:0:0:0:
64,0,186962,1,0,1:0:0:0:
192,0,186962,1,0,1:0:0:0:
320,0,187125,1,0,1:0:0:0:
64,0,187288,1,0,1:0:0:0:
320,0,187288,1,0,1:0:0:0:
448,0,187288,1,0,1:0:0:0:
64,0,187451,1,0,1:0:0:0:
192,0,187451,1,0,1:0:0:0:
320,0,187614,1,0,1:0:0:0:
320,0,187777,1,0,1:0:0:0:
64,0,187940,1,0,1:0:0:0:
448,0,187940,1,0,1:0:0:0:
192,0,188103,1,0,1:0:0:0:
320,0,188266,1,0,1:0:0:0:
192,0,188429,1,0,1:0:0:0:
448,0,188429,1,0,1:0:0:0:
64,0,188592,1,0,1:0:0:0:
320,0,188592,1,0,1:0:0:0:
448,0,188592,1,0,1:0:0:0:
320,0,188918,1,0,1:0:0:0:
448,0,188918,1,0,1:0:0:0:
192,0,189081,1,0,1:0:0:0:
192,0,189244,1,0,1:0:0:0:
64,0,189407,1,0,1:0:0:0:
448,0,189407,1,0,1:0:0:0:
320,0,189570,1,0,1:0:0:0:
320,0,189733,1,0,1:0:0:0:
64,0,189896,1,0,1:0:0:0:
320,0,189896,1,0,1:0:0:0:
448,0,189896,1,0,1:0:0:0:
64,0,190223,1,0,1:0:0:0:
192,0,190223,1,0,1:0:0:0:
320,0,190223,1,0,1:0:0:0:
192,0,190549,1,0,1:0:0:0:
320,0,190549,1,0,1:0:0:0:
448,0,190549,1,0,1:0:0:0:
64,0,190875,1,0,1:0:0:0:
192,0,190875,1,0,1:0:0:0:
320,0,190875,1,0,1:0:0:0:
192,0,191038,1,0,1:0:0:0:
448,0,191038,1,0,1:0:0:0:
64,0,191201,1,0,1:0:0:0:
320,0,191201,1,0,1:0:0:0:
192,0,191364,1,0,1:0:0:0:
64,0,191527,1,0,1:0:0:0:
320,0,191527,1,0,1:0:0:0:
448,0,191527,1,0,1:0:0:0:
192,0,191690,1,0,1:0:0:0:
64,0,191853,1,0,1:0:0:0:
448,0,191853,1,0,1:0:0:0:
192,0,192016,1,0,1:0:0:0:
320,0,192016,1,0,1:0:0:0:
64,0,192179,1,0,1:0:0:0:
192,0,192179,1,0,1:0:0:0:
448,0,192179,1,0,1:0:0:0:
320,0,192342,1,0,1:0:0:0:
64,0,192505,1,0,1:0:0:0:
192,0,192505,1,0,1:0:0:0:
320,0,192668,1,0,1:0:0:0:
64,0,192831,1,0,1:0:0:0:
192,0,192831,1,0,1:0:0:0:
320,0,192831,1,0,1:0:0:0:
64,0,192994,1,0,1:0:0:0:
448,0,192994,1,0,1:0:0:0:
192,0,193157,1,0,1:0:0:0:
320,0,193157,1,0,1:0:0:0:
192,0,193320,1,0,1:0:0:0:
64,0,193483,1,0,1:0:0:0:
320,0,193483,1,0,1:0:0:0:
448,0,193483,1,0,1:0:0:0:
192,0,193646,1,0,1:0:0:0:
320,0,193809,1,0,1:0:0:0:
448,0,193809,1,0,1:0:0:0:
192,0,193972,1,0,1:0:0:0:
64,0,194135,1,0,1:0:0:0:
320,0,194135,1,0,1:0:0:0:
448,0,194135,1,0,1:0:0:0:
192,0,194298,1,0,1:0:0:0:
64,0,194462,1,0,1:0:0:0:
448,0,194462,1,0,1:0:0:0:
192,0,194625,1,0,1:0:0:0:
192,0,194788,1,0,1:0:0:0:
320,0,194788,1,0,1:0:0:0:
448,0,194788,1,0,1:0:0:0:
64,0,194951,1,0,1:0:0:0:
192,0,194951,1,0,1:0:0:0:
448,0,194951,1,0,1:0:0:0:
320,0,195114,1,0,1:0:0:0:
448,0,195114,1,0,1:0:0:0:
192,0,195277,1,0,1:0:0:0:
64,0,195440,1,0,1:0:0:0:
192,0,195440,1,0,1:0:0:0:
320,0,195440,1,0,1:0:0:0:
320,0,195603,1,0,1:0:0:0:
448,0,195603,1,0,1:0:0:0:
64,0,195766,1,0,1:0:0:0:
192,0,195766,1,0,1:0:0:0:
320,0,195929,1,0,1:0:0:0:
64,0,196092,1,0,1:0:0:0:
320,0,196092,1,0,1:0:0:0:
448,0,196092,1,0,1:0:0:0:
192,0,196255,1,0,1:0:0:0:
64,0,196418,1,0,1:0:0:0:
448,0,196418,1,0,1:0:0:0:
192,0,196581,1,0,1:0:0:0:
320,0,196581,1,0,1:0:0:0:
64,0,196744,1,0,1:0:0:0:
320,0,196744,1,0,1:0:0:0:
448,0,196744,1,0,1:0:0:0:
192,0,196907,1,0,1:0:0:0:
64,0,197070,1,0,1:0:0:0:
448,0,197070,1,0,1:0:0:0:
192,0,197233,1,0,1:0:0:0:
64,0,197396,1,0,1:0:0:0:
320,0,197396,1,0,1:0:0:0:
448,0,197396,1,0,1:0:0:0:
192,0,197559,1,0,1:0:0:0:
448,0,197559,1,0,1:0:0:0:
320,0,197722,1,0,1:0:0:0:
448,0,197722,1,0,1:0:0:0:
192,0,197885,1,0,1:0:0:0:
64,0,198048,1,0,1:0:0:0:
320,0,198048,1,0,1:0:0:0:
448,0,198048,1,0,1:0:0:0:
192,0,198211,1,0,1:0:0:0:
64,0,198374,1,0,1:0:0:0:
320,0,198374,1,0,1:0:0:0:
192,0,198538,1,0,1:0:0:0:
448,0,198538,1,0,1:0:0:0:
64,0,198701,1,0,1:0:0:0:
192,0,198701,1,0,1:0:0:0:
320,0,198701,1,0,1:0:0:0:
448,0,198864,1,0,1:0:0:0:
192,0,199027,1,0,1:0:0:0:
320,0,199027,1,0,1:0:0:0:
64,0,199190,1,0,1:0:0:0:
192,0,199271,1,0,1:0:0:0:
64,0,199353,1,0,1:0:0:0:
320,0,199353,1,0,1:0:0:0:
448,0,199353,1,0,1:0:0:0:
64,0,199516,1,0,1:0:0:0:
192,0,199516,1,0,1:0:0:0:
320,0,199597,1,0,1:0:0:0:
448,0,199597,1,0,1:0:0:0:
64,0,199679,1,0,1:0:0:0:
192,0,199679,1,0,1:0:0:0:
192,0,199842,1,0,1:0:0:0:
64,0,200005,1,0,1:0:0:0:
320,0,200005,1,0,1:0:0:0:
448,0,200005,1,0,1:0:0:0:
192,0,200168,1,0,1:0:0:0:
320,0,200168,1,0,1:0:0:0:
64,0,200331,1,0,1:0:0:0:
320,0,200331,1,0,1:0:0:0:
448,0,200331,1,0,1:0:0:0:
192,0,200494,1,0,1:0:0:0:
64,0,200657,1,0,1:0:0:0:
320,0,200657,1,0,1:0:0:0:
448,0,200657,1,0,1:0:0:0:
192,0,200820,1,0,1:0:0:0:
64,0,200983,1,0,1:0:0:0:
320,0,200983,1,0,1:0:0:0:
448,0,200983,1,0,1:0:0:0:
320,0,201146,1,0,1:0:0:0:
448,0,201146,1,0,1:0:0:0:
192,0,201228,1,0,1:0:0:0:
64,0,201309,1,0,1:0:0:0:
320,0,201309,1,0,1:0:0:0:
448,0,201309,1,0,1:0:0:0:
192,0,201472,1,0,1:0:0:0:
64,0,201635,1,0,1:0:0:0:
192,0,201635,1,0,1:0:0:0:
320,0,201635,1,0,1:0:0:0:
320,0,201798,1,0,1:0:0:0:
64,0,201961,1,0,1:0:0:0:
320,0,201961,1,0,1:0:0:0:
448,0,201961,1,0,1:0:0:0:
64,0,202124,1,0,1:0:0:0:
192,0,202124,1,0,1:0:0:0:
64,0,202287,1,0,1:0:0:0:
192,0,202287,1,0,1:0:0:0:
320,0,202287,1,0,1:0:0:0:
192,0,202450,1,0,1:0:0:0:
448,0,202532,1,0,1:0:0:0:
64,0,202613,1,0,1:0:0:0:
192,0,202613,1,0,1:0:0:0:
320,0,202613,1,0,1:0:0:0:
320,0,202777,1,0,1:0:0:0:
64,0,202940,1,0,1:0:0:0:
192,0,202940,1,0,1:0:0:0:
320,0,202940,1,0,1:0:0:0:
64,0,203103,1,0,1:0:0:0:
448,0,203103,1,0,1:0:0:0:
64,0,203266,1,0,1:0:0:0:
192,0,203266,1,0,1:0:0:0:
320,0,203266,1,0,1:0:0:0:
192,0,203429,1,0,1:0:0:0:
64,0,203592,1,0,1:0:0:0:
320,0,203592,1,0,1:0:0:0:
448,0,203592,1,0,1:0:0:0:
320,0,203755,1,0,1:0:0:0:
192,0,203918,1,0,1:0:0:0:
320,0,203918,1,0,1:0:0:0:
448,0,203918,1,0,1:0:0:0:
192,0,204081,1,0,1:0:0:0:
64,0,204244,1,0,1:0:0:0:
192,0,204244,1,0,1:0:0:0:
448,0,204244,1,0,1:0:0:0:
320,0,204325,1,0,1:0:0:0:
64,0,204407,1,0,1:0:0:0:
192,0,204407,1,0,1:0:0:0:
320,0,204488,1,0,1:0:0:0:
64,0,204570,1,0,1:0:0:0:
192,0,204570,1,0,1:0:0:0:
448,0,204570,1,0,1:0:0:0:
320,0,204651,1,0,1:0:0:0:
64,0,204733,1,0,1:0:0:0:
192,0,204733,1,0,1:0:0:0:
448,0,204733,1,0,1:0:0:0:
320,0,204815,1,0,1:0:0:0:
64,0,204896,1,0,1:0:0:0:
192,0,204896,1,0,1:0:0:0:
448,0,204896,1,0,1:0:0:0:
320,0,204978,1,0,1:0:0:0:
64,0,205059,1,0,1:0:0:0:
448,0,205059,1,0,1:0:0:0:
192,0,205141,1,0,1:0:0:0:
64,0,205222,1,0,1:0:0:0:
320,0,205222,1,0,1:0:0:0:
448,0,205222,1,0,1:0:0:0:
192,0,205304,1,0,1:0:0:0:
320,0,205385,1,0,1:0:0:0:
448,0,205385,1,0,1:0:0:0:
64,0,205467,1,0,1:0:0:0:
192,0,205548,1,0,1:0:0:0:
320,0,205548,1,0,1:0:0:0:
448,0,205548,1,0,1:0:0:0:
64,0,205630,1,0,1:0:0:0:
192,0,205711,1,0,1:0:0:0:
320,0,205711,1,0,1:0:0:0:
448,0,205711,1,0,1:0:0:0:
64,0,205793,1,0,1:0:0:0:
192,0,205874,1,0,1:0:0:0:
320,0,205874,1,0,1:0:0:0:
448,0,205874,1,0,1:0:0:0:
64,0,205956,1,0,1:0:0:0:
320,0,206037,1,0,1:0:0:0:
448,0,206037,1,0,1:0:0:0:
192,0,206119,1,0,1:0:0:0:
64,0,206200,1,0,1:0:0:0:
320,0,206200,1,0,1:0:0:0:
448,0,206200,1,0,1:0:0:0:
192,0,206282,1,0,1:0:0:0:
64,0,206363,1,0,1:0:0:0:
448,0,206363,1,0,1:0:0:0:
320,0,206445,1,0,1:0:0:0:
64,0,206526,1,0,1:0:0:0:
192,0,206526,1,0,1:0:0:0:
448,0,206526,1,0,1:0:0:0:
320,0,206608,1,0,1:0:0:0:
64,0,206689,1,0,1:0:0:0:
192,0,206689,1,0,1:0:0:0:
448,0,206689,1,0,1:0:0:0:
320,0,206771,1,0,1:0:0:0:
64,0,206852,1,0,1:0:0:0:
192,0,206852,1,0,1:0:0:0:
448,0,206852,1,0,1:0:0:0:
320,0,206934,1,0,1:0:0:0:
64,0,207016,1,0,1:0:0:0:
192,0,207016,1,0,1:0:0:0:
448,0,207097,1,0,1:0:0:0:
64,0,207179,1,0,1:0:0:0:
192,0,207179,1,0,1:0:0:0:
320,0,207179,1,0,1:0:0:0:
448,0,207260,1,0,1:0:0:0:
192,0,207342,1,0,1:0:0:0:
320,0,207342,1,0,1:0:0:0:
64,0,207423,1,0,1:0:0:0:
192,0,207505,1,0,1:0:0:0:
320,0,207505,1,0,1:0:0:0:
448,0,207505,1,0,1:0:0:0:
64,0,207586,1,0,1:0:0:0:
192,0,207668,1,0,1:0:0:0:
320,0,207668,1,0,1:0:0:0:
448,0,207668,1,0,1:0:0:0:
64,0,207749,1,0,1:0:0:0:
448,0,207831,1,0,1:0:0:0:
320,0,207885,1,0,1:0:0:0:
192,0,207939,1,0,1:0:0:0:
64,0,207994,1,0,1:0:0:0:
448,0,208048,1,0,1:0:0:0:
320,0,208102,1,0,1:0:0:0:
192,0,208157,1,0,1:0:0:0:
64,0,208211,1,0,1:0:0:0:
448,0,208265,1,0,1:0:0:0:
320,0,208320,1,0,1:0:0:0:
192,0,208374,1,0,1:0:0:0:
64,0,208429,1,0,1:0:0:0:
448,0,208483,1,0,1:0:0:0:
320,0,208524,1,0,1:0:0:0:
192,0,208564,1,0,1:0:0:0:
64,0,208605,1,0,1:0:0:0:
448,0,208646,1,0,1:0:0:0:
320,0,208687,1,0,1:0:0:0:
192,0,208727,1,0,1:0:0:0:
64,0,208768,1,0,1:0:0:0:
320,0,208809,1,0,1:0:0:0:
448,0,208809,1,0,1:0:0:0:
64,0,208972,1,0,1:0:0:0:
192,0,208972,1,0,1:0:0:0:
320,0,208972,1,0,1:0:0:0:
192,0,209135,1,0,1:0:0:0:
320,0,209135,1,0,1:0:0:0:
448,0,209135,1,0,1:0:0:0:
64,0,209298,1,0,1:0:0:0:
320,0,209298,1,0,1:0:0:0:
448,0,209298,1,0,1:0:0:0:
64,0,209461,1,0,1:0:0:0:
192,0,209461,1,0,1:0:0:0:
320,0,209461,1,0,1:0:0:0:
448,0,209461,1,0,1:0:0:0:
192,0,209624,1,0,1:0:0:0:
320,0,209624,1,0,1:0:0:0:
448,0,209624,1,0,1:0:0:0:
64,0,209787,1,0,1:0:0:0:
192,0,209787,1,0,1:0:0:0:
320,0,209787,1,0,1:0:0:0:
192,0,209950,1,0,1:0:0:0:
320,0,209950,1,0,1:0:0:0:
448,0,209950,1,0,1:0:0:0:
64,0,210113,1,0,1:0:0:0:
192,0,210113,1,0,1:0:0:0:
448,0,210113,1,0,1:0:0:0:
192,0,210276,1,0,1:0:0:0:
320,0,210276,1,0,1:0:0:0:
448,0,210276,1,0,1:0:0:0:
64,0,210439,1,0,1:0:0:0:
192,0,210439,1,0,1:0:0:0:
320,0,210439,1,0,1:0:0:0:
64,0,210602,1,0,1:0:0:0:
192,0,210602,1,0,1:0:0:0:
448,0,210602,1,0,1:0:0:0:
64,0,210765,1,0,1:0:0:0:
192,0,210765,1,0,1:0:0:0:
320,0,210765,1,0,1:0:0:0:
448,0,210765,1,0,1:0:0:0:
192,0,210928,1,0,1:0:0:0:
320,0,210928,1,0,1:0:0:0:
448,0,210928,1,0,1:0:0:0:
64,0,211092,1,0,1:0:0:0:
192,0,211092,1,0,1:0:0:0:
448,0,211092,1,0,1:0:0:0:
64,0,211255,1,0,1:0:0:0:
320,0,211255,1,0,1:0:0:0:
448,0,211255,1,0,1:0:0:0:
64,0,211418,1,0,1:0:0:0:
192,0,211418,1,0,1:0:0:0:
320,0,211418,1,0,1:0:0:0:
192,0,211581,1,0,1:0:0:0:
320,0,211581,1,0,1:0:0:0:
448,0,211581,1,0,1:0:0:0:
64,0,211744,1,0,1:0:0:0:
192,0,211744,1,0,1:0:0:0:
320,0,211744,1,0,1:0:0:0:
192,0,211907,1,0,1:0:0:0:
320,0,211907,1,0,1:0:0:0:
448,0,211907,1,0,1:0:0:0:
64,0,212070,1,0,1:0:0:0:
192,0,212070,1,0,1:0:0:0:
320,0,212070,1,0,1:0:0:0:
448,0,212070,1,0,1:0:0:0:
64,0,212233,1,0,1:0:0:0:
320,0,212233,1,0,1:0:0:0:
448,0,212233,1,0,1:0:0:0:
192,0,212396,1,0,1:0:0:0:
320,0,212396,1,0,1:0:0:0:
448,0,212396,1,0,1:0:0:0:
64,0,212559,1,0,1:0:0:0:
192,0,212559,1,0,1:0:0:0:
320,0,212559,1,0,1:0:0:0:
192,0,212722,1,0,1:0:0:0:
320,0,212722,1,0,1:0:0:0:
448,0,212722,1,0,1:0:0:0:
64,0,212885,1,0,1:0:0:0:
192,0,212885,1,0,1:0:0:0:
448,0,212885,1,0,1:0:0:0:
192,0,213048,1,0,1:0:0:0:
320,0,213048,1,0,1:0:0:0:
448,0,213048,1,0,1:0:0:0:
64,0,213211,1,0,1:0:0:0:
192,0,213211,1,0,1:0:0:0:
320,0,213211,1,0,1:0:0:0:
64,0,213374,1,0,1:0:0:0:
192,0,213374,1,0,1:0:0:0:
320,0,213374,1,0,1:0:0:0:
448,0,213374,1,0,1:0:0:0:
64,0,213537,1,0,1:0:0:0:
320,0,213537,1,0,1:0:0:0:
448,0,213537,1,0,1:0:0:0:
192,0,213700,1,0,1:0:0:0:
320,0,213700,1,0,1:0:0:0:
448,0,213700,1,0,1:0:0:0:
64,0,213863,1,0,1:0:0:0:
192,0,213863,1,0,1:0:0:0:
448,0,213863,1,0,1:0:0:0:
64,0,214026,1,0,1:0:0:0:
192,0,214026,1,0,1:0:0:0:
448,0,214026,1,0,1:0:0:0:
320,0,214108,1,0,1:0:0:0:
64,0,214189,1,0,1:0:0:0:
192,0,214189,1,0,1:0:0:0:
448,0,214189,1,0,1:0:0:0:
320,0,214271,1,0,1:0:0:0:
64,0,214352,128,0,214678:0:0:0:0:
192,0,214352,128,0,214678:0:0:0:0:
448,0,214352,128,0,214678:0:0:0:0:
64,0,214841,1,0,1:0:0:0:
320,0,214841,1,0,1:0:0:0:
448,0,214841,1,0,1:0:0:0:
192,0,214923,1,0,1:0:0:0:
64,0,215004,1,0,1:0:0:0:
320,0,215004,1,0,1:0:0:0:
448,0,215004,1,0,1:0:0:0:
192,0,215086,1,0,1:0:0:0:
64,0,215167,1,0,1:0:0:0:
320,0,215167,1,0,1:0:0:0:
448,0,215167,1,0,1:0:0:0:
320,0,215331,1,0,1:0:0:0:
448,0,215331,1,0,1:0:0:0:
64,0,215412,1,0,1:0:0:0:
192,0,215494,1,0,1:0:0:0:
320,0,215494,1,0,1:0:0:0:
448,0,215494,1,0,1:0:0:0:
64,0,215575,1,0,1:0:0:0:
320,0,215657,1,0,1:0:0:0:
448,0,215657,1,0,1:0:0:0:
192,0,215738,1,0,1:0:0:0:
320,0,215820,1,0,1:0:0:0:
448,0,215820,1,0,1:0:0:0:
192,0,215901,1,0,1:0:0:0:
64,0,215983,1,0,1:0:0:0:
448,0,215983,1,0,1:0:0:0:
192,0,216064,1,0,1:0:0:0:
320,0,216064,1,0,1:0:0:0:
64,0,216146,1,0,1:0:0:0:
448,0,216146,1,0,1:0:0:0:
192,0,216227,1,0,1:0:0:0:
320,0,216227,1,0,1:0:0:0:
64,0,216309,1,0,1:0:0:0:
448,0,216309,1,0,1:0:0:0:
192,0,216390,1,0,1:0:0:0:
320,0,216390,1,0,1:0:0:0:
64,0,216472,1,0,1:0:0:0:
448,0,216472,1,0,1:0:0:0:
64,0,216635,1,0,1:0:0:0:
192,0,216635,1,0,1:0:0:0:
448,0,216716,1,0,1:0:0:0:
64,0,216798,1,0,1:0:0:0:
192,0,216798,1,0,1:0:0:0:
320,0,216879,1,0,1:0:0:0:
64,0,216961,128,0,217124:0:0:0:0:
192,0,216961,128,0,217124:0:0:0:0:
448,0,216961,128,0,217124:0:0:0:0:
64,0,217287,1,0,1:0:0:0:
192,0,217287,1,0,1:0:0:0:
320,0,217287,1,0,1:0:0:0:
448,0,217287,1,0,1:0:0:0:
320,0,217450,1,0,1:0:0:0:
448,0,217450,1,0,1:0:0:0:
192,0,217532,1,0,1:0:0:0:
64,0,217613,1,0,1:0:0:0:
320,0,217613,1,0,1:0:0:0:
448,0,217613,1,0,1:0:0:0:
192,0,217695,1,0,1:0:0:0:
320,0,217776,1,0,1:0:0:0:
448,0,217776,1,0,1:0:0:0:
64,0,217939,1,0,1:0:0:0:
192,0,217939,1,0,1:0:0:0:
320,0,218021,1,0,1:0:0:0:
448,0,218021,1,0,1:0:0:0:
64,0,218184,1,0,1:0:0:0:
192,0,218184,1,0,1:0:0:0:
448,0,218184,1,0,1:0:0:0:
64,0,218347,1,0,1:0:0:0:
320,0,218347,1,0,1:0:0:0:
448,0,218347,1,0,1:0:0:0:
192,0,218510,1,0,1:0:0:0:
320,0,218510,1,0,1:0:0:0:
448,0,218510,1,0,1:0:0:0:
64,0,218673,1,0,1:0:0:0:
192,0,218673,1,0,1:0:0:0:
448,0,218673,1,0,1:0:0:0:
320,0,218836,1,0,1:0:0:0:
448,0,218836,1,0,1:0:0:0:
64,0,218917,1,0,1:0:0:0:
192,0,218917,1,0,1:0:0:0:
320,0,218999,1,0,1:0:0:0:
448,0,218999,1,0,1:0:0:0:
64,0,219080,1,0,1:0:0:0:
192,0,219080,1,0,1:0:0:0:
320,0,219162,1,0,1:0:0:0:
448,0,219162,1,0,1:0:0:0:
64,0,219243,1,0,1:0:0:0:
192,0,219243,1,0,1:0:0:0:
64,0,219406,1,0,1:0:0:0:
192,0,219406,1,0,1:0:0:0:
320,0,219406,1,0,1:0:0:0:
448,0,219406,1,0,1:0:0:0:
320,0,219570,1,0,1:0:0:0:
448,0,219570,1,0,1:0:0:0:
64,0,219651,1,0,1:0:0:0:
192,0,219651,1,0,1:0:0:0:
320,0,219733,1,0,1:0:0:0:
320,0,219814,1,0,1:0:0:0:
64,0,219896,1,0,1:0:0:0:
448,0,219896,1,0,1:0:0:0:
192,0,219977,1,0,1:0:0:0:
192,0,220059,1,0,1:0:0:0:
320,0,220140,1,0,1:0:0:0:
64,0,220222,1,0,1:0:0:0:
448,0,220222,1,0,1:0:0:0:
192,0,220303,1,0,1:0:0:0:
320,0,220303,1,0,1:0:0:0:
64,0,220385,1,0,1:0:0:0:
448,0,220385,1,0,1:0:0:0:
192,0,220466,1,0,1:0:0:0:
320,0,220466,1,0,1:0:0:0:
448,0,220548,1,0,1:0:0:0:
64,0,220629,1,0,1:0:0:0:
192,0,220629,1,0,1:0:0:0:
320,0,220629,1,0,1:0:0:0:
64,0,220792,1,0,1:0:0:0:
192,0,220792,1,0,1:0:0:0:
320,0,220874,1,0,1:0:0:0:
64,0,220955,1,0,1:0:0:0:
448,0,220955,1,0,1:0:0:0:
192,0,221037,1,0,1:0:0:0:
320,0,221118,1,0,1:0:0:0:
448,0,221118,1,0,1:0:0:0:
64,0,221200,1,0,1:0:0:0:
192,0,221281,1,0,1:0:0:0:
320,0,221363,1,0,1:0:0:0:
448,0,221363,1,0,1:0:0:0:
64,0,221444,1,0,1:0:0:0:
192,0,221444,1,0,1:0:0:0:
320,0,221526,1,0,1:0:0:0:
64,0,221608,1,0,1:0:0:0:
448,0,221608,1,0,1:0:0:0:
192,0,221689,1,0,1:0:0:0:
64,0,221771,1,0,1:0:0:0:
320,0,221771,1,0,1:0:0:0:
448,0,221852,1,0,1:0:0:0:
64,0,221934,1,0,1:0:0:0:
192,0,221934,1,0,1:0:0:0:
320,0,221934,1,0,1:0:0:0:
320,0,222178,1,0,1:0:0:0:
192,0,222260,1,0,1:0:0:0:
320,0,222341,1,0,1:0:0:0:
448,0,222341,1,0,1:0:0:0:
64,0,222423,1,0,1:0:0:0:
192,0,222423,1,0,1:0:0:0:
320,0,222504,1,0,1:0:0:0:
64,0,222586,1,0,1:0:0:0:
448,0,222586,1,0,1:0:0:0:
320,0,222667,1,0,1:0:0:0:
64,0,222749,1,0,1:0:0:0:
192,0,222749,1,0,1:0:0:0:
320,0,222830,1,0,1:0:0:0:
448,0,222830,1,0,1:0:0:0:
64,0,222912,1,0,1:0:0:0:
192,0,222912,1,0,1:0:0:0:
320,0,222993,1,0,1:0:0:0:
448,0,222993,1,0,1:0:0:0:
192,0,223075,1,0,1:0:0:0:
64,0,223156,1,0,1:0:0:0:
448,0,223156,1,0,1:0:0:0:
192,0,223238,1,0,1:0:0:0:
320,0,223238,1,0,1:0:0:0:
64,0,223319,1,0,1:0:0:0:
448,0,223319,1,0,1:0:0:0:
192,0,223401,1,0,1:0:0:0:
320,0,223401,1,0,1:0:0:0:
64,0,223482,1,0,1:0:0:0:
448,0,223482,1,0,1:0:0:0:
320,0,223646,128,0,223809:0:0:0:0:
64,0,223809,1,0,1:0:0:0:
192,0,223809,1,0,1:0:0:0:
448,0,223809,1,0,1:0:0:0:
320,0,223890,1,0,1:0:0:0:
64,0,223972,1,0,1:0:0:0:
448,0,223972,1,0,1:0:0:0:
192,0,224053,1,0,1:0:0:0:
64,0,224135,1,0,1:0:0:0:
320,0,224135,1,0,1:0:0:0:
448,0,224135,1,0,1:0:0:0:
448,0,224298,128,0,224461:0:0:0:0:
64,0,224461,1,0,1:0:0:0:
192,0,224461,1,0,1:0:0:0:
320,0,224569,1,0,1:0:0:0:
192,0,224624,1,0,1:0:0:0:
64,0,224678,1,0,1:0:0:0:
448,0,224732,1,0,1:0:0:0:
64,0,224787,1,0,1:0:0:0:
192,0,224787,1,0,1:0:0:0:
320,0,224787,1,0,1:0:0:0:
320,0,224950,1,0,1:0:0:0:
448,0,224950,1,0,1:0:0:0:
64,0,225031,1,0,1:0:0:0:
192,0,225031,1,0,1:0:0:0:
320,0,225113,1,0,1:0:0:0:
448,0,225113,1,0,1:0:0:0:
192,0,225194,1,0,1:0:0:0:
64,0,225276,1,0,1:0:0:0:
448,0,225276,1,0,1:0:0:0:
320,0,225357,1,0,1:0:0:0:
64,0,225439,1,0,1:0:0:0:
448,0,225439,1,0,1:0:0:0:
192,0,225520,1,0,1:0:0:0:
320,0,225520,1,0,1:0:0:0:
64,0,225602,1,0,1:0:0:0:
448,0,225602,1,0,1:0:0:0:
192,0,225684,1,0,1:0:0:0:
64,0,225765,1,0,1:0:0:0:
320,0,225765,1,0,1:0:0:0:
192,0,225847,1,0,1:0:0:0:
448,0,225847,1,0,1:0:0:0:
64,0,225928,1,0,1:0:0:0:
320,0,225928,1,0,1:0:0:0:
448,0,226010,1,0,1:0:0:0:
64,0,226091,1,0,1:0:0:0:
192,0,226091,1,0,1:0:0:0:
320,0,226091,1,0,1:0:0:0:
64,0,226254,1,0,1:0:0:0:
320,0,226254,1,0,1:0:0:0:
448,0,226254,1,0,1:0:0:0:
192,0,226336,1,0,1:0:0:0:
64,0,226417,1,0,1:0:0:0:
320,0,226417,1,0,1:0:0:0:
448,0,226417,1,0,1:0:0:0:
192,0,226499,1,0,1:0:0:0:
64,0,226580,1,0,1:0:0:0:
320,0,226580,1,0,1:0:0:0:
448,0,226580,1,0,1:0:0:0:
64,0,226743,1,0,1:0:0:0:
192,0,226743,1,0,1:0:0:0:
320,0,226825,1,0,1:0:0:0:
448,0,226825,1,0,1:0:0:0:
64,0,226906,1,0,1:0:0:0:
320,0,226988,1,0,1:0:0:0:
64,0,227069,1,0,1:0:0:0:
448,0,227069,1,0,1:0:0:0:
192,0,227151,1,0,1:0:0:0:
320,0,227151,1,0,1:0:0:0:
64,0,227232,1,0,1:0:0:0:
448,0,227232,1,0,1:0:0:0:
320,0,227314,1,0,1:0:0:0:
64,0,227395,1,0,1:0:0:0:
192,0,227395,1,0,1:0:0:0:
320,0,227477,1,0,1:0:0:0:
448,0,227477,1,0,1:0:0:0:
64,0,227558,1,0,1:0:0:0:
192,0,227558,1,0,1:0:0:0:
320,0,227640,1,0,1:0:0:0:
448,0,227640,1,0,1:0:0:0:
64,0,227721,1,0,1:0:0:0:
192,0,227721,1,0,1:0:0:0:
64,0,227885,1,0,1:0:0:0:
192,0,227885,1,0,1:0:0:0:
448,0,227885,1,0,1:0:0:0:
320,0,227966,1,0,1:0:0:0:
64,0,228048,1,0,1:0:0:0:
192,0,228048,1,0,1:0:0:0:
448,0,228048,1,0,1:0:0:0:
320,0,228129,1,0,1:0:0:0:
64,0,228211,1,0,1:0:0:0:
192,0,228211,1,0,1:0:0:0:
448,0,228211,1,0,1:0:0:0:
64,0,228374,1,0,1:0:0:0:
192,0,228374,1,0,1:0:0:0:
320,0,228374,1,0,1:0:0:0:
448,0,228455,1,0,1:0:0:0:
64,0,228537,1,0,1:0:0:0:
192,0,228537,1,0,1:0:0:0:
320,0,228537,1,0,1:0:0:0:
448,0,228618,1,0,1:0:0:0:
64,0,228700,1,0,1:0:0:0:
192,0,228700,1,0,1:0:0:0:
320,0,228781,1,0,1:0:0:0:
448,0,228781,1,0,1:0:0:0:
64,0,228863,1,0,1:0:0:0:
192,0,228863,1,0,1:0:0:0:
320,0,228944,1,0,1:0:0:0:
448,0,228944,1,0,1:0:0:0:
64,0,229026,1,0,1:0:0:0:
192,0,229026,1,0,1:0:0:0:
448,0,229107,1,0,1:0:0:0:
320,0,229189,1,0,1:0:0:0:
192,0,229270,1,0,1:0:0:0:
64,0,229352,1,0,1:0:0:0:
320,0,229352,1,0,1:0:0:0:
448,0,229352,1,0,1:0:0:0:
64,0,229515,1,0,1:0:0:0:
320,0,229515,1,0,1:0:0:0:
448,0,229515,1,0,1:0:0:0:
192,0,229596,1,0,1:0:0:0:
64,0,229678,1,0,1:0:0:0:
320,0,229678,1,0,1:0:0:0:
448,0,229678,1,0,1:0:0:0:
192,0,229759,1,0,1:0:0:0:
64,0,229841,1,0,1:0:0:0:
320,0,229841,1,0,1:0:0:0:
448,0,229841,1,0,1:0:0:0:
64,0,230004,1,0,1:0:0:0:
192,0,230004,1,0,1:0:0:0:
320,0,230086,1,0,1:0:0:0:
448,0,230086,1,0,1:0:0:0:
192,0,230167,1,0,1:0:0:0:
320,0,230249,1,0,1:0:0:0:
64,0,230330,1,0,1:0:0:0:
448,0,230330,1,0,1:0:0:0:
192,0,230412,1,0,1:0:0:0:
320,0,230412,1,0,1:0:0:0:
64,0,230493,1,0,1:0:0:0:
448,0,230493,1,0,1:0:0:0:
192,0,230575,1,0,1:0:0:0:
64,0,230656,1,0,1:0:0:0:
320,0,230656,1,0,1:0:0:0:
448,0,230656,1,0,1:0:0:0:
192,0,230738,1,0,1:0:0:0:
64,0,230819,1,0,1:0:0:0:
320,0,230819,1,0,1:0:0:0:
448,0,230819,1,0,1:0:0:0:
192,0,230901,1,0,1:0:0:0:
64,0,230982,1,0,1:0:0:0:
320,0,230982,1,0,1:0:0:0:
448,0,230982,1,0,1:0:0:0:
64,0,231145,1,0,1:0:0:0:
192,0,231145,1,0,1:0:0:0:
320,0,231145,1,0,1:0:0:0:
448,0,231227,1,0,1:0:0:0:
64,0,231308,1,0,1:0:0:0:
192,0,231308,1,0,1:0:0:0:
320,0,231308,1,0,1:0:0:0:
448,0,231390,1,0,1:0:0:0:
64,0,231471,1,0,1:0:0:0:
192,0,231471,1,0,1:0:0:0:
320,0,231471,1,0,1:0:0:0:
192,0,231634,1,0,1:0:0:0:
320,0,231634,1,0,1:0:0:0:
448,0,231634,1,0,1:0:0:0:
64,0,231716,1,0,1:0:0:0:
192,0,231797,1,0,1:0:0:0:
320,0,231797,1,0,1:0:0:0:
448,0,231797,1,0,1:0:0:0:
64,0,231879,1,0,1:0:0:0:
192,0,231961,1,0,1:0:0:0:
320,0,231961,1,0,1:0:0:0:
448,0,231961,1,0,1:0:0:0:
64,0,232042,1,0,1:0:0:0:
192,0,232124,1,0,1:0:0:0:
320,0,232124,1,0,1:0:0:0:
448,0,232124,1,0,1:0:0:0:
64,0,232205,1,0,1:0:0:0:
192,0,232287,1,0,1:0:0:0:
320,0,232287,1,0,1:0:0:0:
448,0,232287,1,0,1:0:0:0:
64,0,232368,1,0,1:0:0:0:
192,0,232450,1,0,1:0:0:0:
320,0,232531,1,0,1:0:0:0:
64,0,232613,1,0,1:0:0:0:
192,0,232613,1,0,1:0:0:0:
448,0,232613,1,0,1:0:0:0:
320,0,232776,1,0,1:0:0:0:
448,0,232776,1,0,1:0:0:0:
192,0,232857,1,0,1:0:0:0:
64,0,232939,1,0,1:0:0:0:
320,0,232939,1,0,1:0:0:0:
448,0,232939,1,0,1:0:0:0:
192,0,233020,1,0,1:0:0:0:
64,0,233102,1,0,1:0:0:0:
320,0,233102,1,0,1:0:0:0:
64,0,233265,1,0,1:0:0:0:
192,0,233265,1,0,1:0:0:0:
448,0,233265,1,0,1:0:0:0:
320,0,233346,1,0,1:0:0:0:
64,0,233428,1,0,1:0:0:0:
192,0,233428,1,0,1:0:0:0:
320,0,233509,1,0,1:0:0:0:
192,0,233591,1,0,1:0:0:0:
448,0,233591,1,0,1:0:0:0:
64,0,233672,1,0,1:0:0:0:
192,0,233754,1,0,1:0:0:0:
320,0,233754,1,0,1:0:0:0:
448,0,233835,1,0,1:0:0:0:
64,0,233917,1,0,1:0:0:0:
192,0,233917,1,0,1:0:0:0:
320,0,233917,1,0,1:0:0:0:
448,0,233998,1,0,1:0:0:0:
64,0,234080,1,0,1:0:0:0:
192,0,234080,1,0,1:0:0:0:
320,0,234162,1,0,1:0:0:0:
64,0,234243,1,0,1:0:0:0:
192,0,234243,1,0,1:0:0:0:
448,0,234243,1,0,1:0:0:0:
320,0,234325,1,0,1:0:0:0:
64,0,234406,1,0,1:0:0:0:
192,0,234406,1,0,1:0:0:0:
448,0,234488,1,0,1:0:0:0:
64,0,234569,1,0,1:0:0:0:
192,0,234569,1,0,1:0:0:0:
320,0,234569,1,0,1:0:0:0:
448,0,234651,1,0,1:0:0:0:
64,0,234732,1,0,1:0:0:0:
192,0,234732,1,0,1:0:0:0:
320,0,234814,1,0,1:0:0:0:
64,0,234895,1,0,1:0:0:0:
192,0,234895,1,0,1:0:0:0:
320,0,234977,1,0,1:0:0:0:
448,0,234977,1,0,1:0:0:0:
64,0,235058,1,0,1:0:0:0:
192,0,235058,1,0,1:0:0:0:
320,0,235140,1,0,1:0:0:0:
64,0,235221,1,0,1:0:0:0:
448,0,235221,1,0,1:0:0:0:
192,0,235303,1,0,1:0:0:0:
320,0,235303,1,0,1:0:0:0:
64,0,235384,1,0,1:0:0:0:
448,0,235384,1,0,1:0:0:0:
192,0,235466,1,0,1:0:0:0:
64,0,235547,1,0,1:0:0:0:
320,0,235547,1,0,1:0:0:0:
448,0,235547,1,0,1:0:0:0:
192,0,235629,1,0,1:0:0:0:
320,0,235710,1,0,1:0:0:0:
448,0,235710,1,0,1:0:0:0:
192,0,235792,1,0,1:0:0:0:
64,0,235873,1,0,1:0:0:0:
320,0,235873,1,0,1:0:0:0:
448,0,235873,1,0,1:0:0:0:
192,0,235955,1,0,1:0:0:0:
64,0,236036,1,0,1:0:0:0:
448,0,236036,1,0,1:0:0:0:
320,0,236118,1,0,1:0:0:0:
64,0,236200,1,0,1:0:0:0:
192,0,236200,1,0,1:0:0:0:
448,0,236200,1,0,1:0:0:0:
320,0,236281,1,0,1:0:0:0:
64,0,236363,1,0,1:0:0:0:
192,0,236363,1,0,1:0:0:0:
448,0,236444,1,0,1:0:0:0:
64,0,236526,1,0,1:0:0:0:
192,0,236526,1,0,1:0:0:0:
320,0,236526,1,0,1:0:0:0:
448,0,236607,1,0,1:0:0:0:
64,0,236689,1,0,1:0:0:0:
192,0,236689,1,0,1:0:0:0:
320,0,236770,1,0,1:0:0:0:
64,0,236852,1,0,1:0:0:0:
192,0,236852,1,0,1:0:0:0:
448,0,236852,1,0,1:0:0:0:
320,0,236933,1,0,1:0:0:0:
64,0,237015,1,0,1:0:0:0:
448,0,237015,1,0,1:0:0:0:
192,0,237096,1,0,1:0:0:0:
64,0,237178,1,0,1:0:0:0:
320,0,237178,1,0,1:0:0:0:
448,0,237178,1,0,1:0:0:0:
192,0,237259,1,0,1:0:0:0:
320,0,237341,1,0,1:0:0:0:
448,0,237341,1,0,1:0:0:0:
64,0,237422,1,0,1:0:0:0:
192,0,237504,1,0,1:0:0:0:
320,0,237504,1,0,1:0:0:0:
448,0,237504,1,0,1:0:0:0:
64,0,237585,1,0,1:0:0:0:
320,0,237667,1,0,1:0:0:0:
448,0,237667,1,0,1:0:0:0:
192,0,237748,1,0,1:0:0:0:
64,0,237830,1,0,1:0:0:0:
320,0,237830,1,0,1:0:0:0:
448,0,237830,1,0,1:0:0:0:
192,0,237911,1,0,1:0:0:0:
64,0,237993,1,0,1:0:0:0:
448,0,237993,1,0,1:0:0:0:
320,0,238074,1,0,1:0:0:0:
64,0,238156,1,0,1:0:0:0:
192,0,238156,1,0,1:0:0:0:
448,0,238156,1,0,1:0:0:0:
320,0,238238,1,0,1:0:0:0:
64,0,238319,1,0,1:0:0:0:
192,0,238319,1,0,1:0:0:0:
320,0,238401,1,0,1:0:0:0:
448,0,238401,1,0,1:0:0:0:
64,0,238482,1,0,1:0:0:0:
192,0,238482,1,0,1:0:0:0:
320,0,238564,1,0,1:0:0:0:
448,0,238564,1,0,1:0:0:0:
64,0,238645,1,0,1:0:0:0:
192,0,238645,1,0,1:0:0:0:
320,0,238727,1,0,1:0:0:0:
64,0,238808,1,0,1:0:0:0:
192,0,238808,1,0,1:0:0:0:
448,0,238808,1,0,1:0:0:0:
192,0,238971,1,0,1:0:0:0:
320,0,238971,1,0,1:0:0:0:
448,0,238971,1,0,1:0:0:0:
64,0,239189,1,0,1:0:0:0:
192,0,239352,1,0,1:0:0:0:
320,0,239352,1,0,1:0:0:0:
448,0,239352,1,0,1:0:0:0:
192,0,239515,1,0,1:0:0:0:
64,0,239678,1,0,1:0:0:0:
192,0,239678,1,0,1:0:0:0:
320,0,239678,1,0,1:0:0:0:
448,0,239678,1,0,1:0:0:0:
64,0,240004,1,0,1:0:0:0:
192,0,240004,1,0,1:0:0:0:
320,0,240004,1,0,1:0:0:0:
448,0,240167,1,0,1:0:0:0:
64,0,240330,1,0,1:0:0:0:
192,0,240330,1,0,1:0:0:0:
320,0,240330,1,0,1:0:0:0:
448,0,240330,1,0,1:0:0:0:
192,0,240493,1,0,1:0:0:0:
64,0,240656,1,0,1:0:0:0:
192,0,240656,1,0,1:0:0:0:
320,0,240656,1,0,1:0:0:0:
448,0,240656,1,0,1:0:0:0:
192,0,240928,1,0,1:0:0:0:
320,0,240928,1,0,1:0:0:0:
448,0,240928,1,0,1:0:0:0:
64,0,241091,1,0,1:0:0:0:
192,0,241091,1,0,1:0:0:0:
320,0,241091,1,0,1:0:0:0:
192,0,241254,1,0,1:0:0:0:
320,0,241254,1,0,1:0:0:0:
448,0,241254,1,0,1:0:0:0:
64,0,241417,1,0,1:0:0:0:
320,0,241417,1,0,1:0:0:0:
448,0,241417,1,0,1:0:0:0:
192,0,241498,1,0,1:0:0:0:
320,0,241580,1,0,1:0:0:0:
448,0,241580,1,0,1:0:0:0:
64,0,241661,1,0,1:0:0:0:
192,0,241661,1,0,1:0:0:0:
320,0,241743,1,0,1:0:0:0:
448,0,241743,1,0,1:0:0:0:
64,0,241824,1,0,1:0:0:0:
192,0,241906,1,0,1:0:0:0:
64,0,241987,1,0,1:0:0:0:
448,0,241987,1,0,1:0:0:0:
192,0,242069,1,0,1:0:0:0:
320,0,242069,1,0,1:0:0:0:
448,0,242150,1,0,1:0:0:0:
64,0,242232,1,0,1:0:0:0:
192,0,242232,1,0,1:0:0:0:
320,0,242313,1,0,1:0:0:0:
448,0,242313,1,0,1:0:0:0:
64,0,242395,1,0,1:0:0:0:
192,0,242395,1,0,1:0:0:0:
448,0,242477,1,0,1:0:0:0:
64,0,242558,1,0,1:0:0:0:
192,0,242558,1,0,1:0:0:0:
320,0,242558,1,0,1:0:0:0:
448,0,242640,1,0,1:0:0:0:
64,0,242721,1,0,1:0:0:0:
192,0,242721,1,0,1:0:0:0:
320,0,242721,1,0,1:0:0:0:
192,0,242884,1,0,1:0:0:0:
320,0,242884,1,0,1:0:0:0:
448,0,242884,1,0,1:0:0:0:
64,0,243047,1,0,1:0:0:0:
192,0,243210,1,0,1:0:0:0:
320,0,243210,1,0,1:0:0:0:
448,0,243210,1,0,1:0:0:0:
320,0,243373,1,0,1:0:0:0:
64,0,243536,1,0,1:0:0:0:
192,0,243536,1,0,1:0:0:0:
448,0,243536,1,0,1:0:0:0:
320,0,243618,1,0,1:0:0:0:
64,0,243699,1,0,1:0:0:0:
192,0,243699,1,0,1:0:0:0:
320,0,243781,1,0,1:0:0:0:
448,0,243781,1,0,1:0:0:0:
64,0,243862,1,0,1:0:0:0:
192,0,243862,1,0,1:0:0:0:
320,0,243944,1,0,1:0:0:0:
448,0,244025,1,0,1:0:0:0:
320,0,244080,1,0,1:0:0:0:
192,0,244134,1,0,1:0:0:0:
64,0,244188,1,0,1:0:0:0:
448,0,244188,1,0,1:0:0:0:
320,0,244243,1,0,1:0:0:0:
192,0,244297,1,0,1:0:0:0:
64,0,244351,1,0,1:0:0:0:
320,0,244406,1,0,1:0:0:0:
192,0,244460,1,0,1:0:0:0:
64,0,244515,1,0,1:0:0:0:
448,0,244515,1,0,1:0:0:0:
320,0,244569,1,0,1:0:0:0:
192,0,244623,1,0,1:0:0:0:
64,0,244678,1,0,1:0:0:0:
448,0,244732,1,0,1:0:0:0:
320,0,244786,1,0,1:0:0:0:
64,0,244841,1,0,1:0:0:0:
192,0,244841,1,0,1:0:0:0:
448,0,244895,1,0,1:0:0:0:
320,0,244949,1,0,1:0:0:0:
192,0,245004,1,0,1:0:0:0:
64,0,245058,1,0,1:0:0:0:
320,0,245112,1,0,1:0:0:0:
192,0,245167,1,0,1:0:0:0:
448,0,245167,1,0,1:0:0:0:
64,0,245221,1,0,1:0:0:0:
320,0,245275,1,0,1:0:0:0:
192,0,245330,1,0,1:0:0:0:
64,0,245384,1,0,1:0:0:0:
448,0,245438,1,0,1:0:0:0:
192,0,245493,1,0,1:0:0:0:
320,0,245493,1,0,1:0:0:0:
64,0,245547,1,0,1:0:0:0:
448,0,245601,1,0,1:0:0:0:
320,0,245656,1,0,1:0:0:0:
192,0,245710,1,0,1:0:0:0:
64,0,245764,1,0,1:0:0:0:
320,0,245819,1,0,1:0:0:0:
448,0,245819,1,0,1:0:0:0:
192,0,245873,1,0,1:0:0:0:
64,0,245928,1,0,1:0:0:0:
448,0,245982,1,0,1:0:0:0:
320,0,246036,1,0,1:0:0:0:
192,0,246091,1,0,1:0:0:0:
64,0,246145,1,0,1:0:0:0:
448,0,246145,1,0,1:0:0:0:
320,0,246199,1,0,1:0:0:0:
192,0,246254,1,0,1:0:0:0:
64,0,246308,1,0,1:0:0:0:
320,0,246362,1,0,1:0:0:0:
192,0,246417,1,0,1:0:0:0:
64,0,246471,1,0,1:0:0:0:
448,0,246471,1,0,1:0:0:0:
320,0,246525,1,0,1:0:0:0:
192,0,246580,1,0,1:0:0:0:
64,0,246634,1,0,1:0:0:0:
448,0,246634,1,0,1:0:0:0:
320,0,246688,1,0,1:0:0:0:
192,0,246743,1,0,1:0:0:0:
64,0,246797,1,0,1:0:0:0:
448,0,246797,1,0,1:0:0:0:
320,0,246851,1,0,1:0:0:0:
192,0,246906,1,0,1:0:0:0:
64,0,246960,1,0,1:0:0:0:
448,0,247014,1,0,1:0:0:0:
320,0,247069,1,0,1:0:0:0:
64,0,247123,1,0,1:0:0:0:
192,0,247123,1,0,1:0:0:0:
448,0,247177,1,0,1:0:0:0:
320,0,247232,1,0,1:0:0:0:
192,0,247286,1,0,1:0:0:0:
448,0,247341,1,0,1:0:0:0:
320,0,247395,1,0,1:0:0:0:
64,0,247449,1,0,1:0:0:0:
192,0,247449,1,0,1:0:0:0:
448,0,247504,1,0,1:0:0:0:
320,0,247558,1,0,1:0:0:0:
192,0,247612,1,0,1:0:0:0:
64,0,247667,1,0,1:0:0:0:
448,0,247721,1,0,1:0:0:0:
192,0,247775,1,0,1:0:0:0:
320,0,247775,1,0,1:0:0:0:
64,0,247830,1,0,1:0:0:0:
448,0,247884,1,0,1:0:0:0:
320,0,247938,1,0,1:0:0:0:
192,0,247993,1,0,1:0:0:0:
448,0,248047,1,0,1:0:0:0:
64,0,248101,1,0,1:0:0:0:
320,0,248101,1,0,1:0:0:0:
192,0,248156,1,0,1:0:0:0:
448,0,248210,1,0,1:0:0:0:
320,0,248264,1,0,1:0:0:0:
64,0,248319,1,0,1:0:0:0:
448,0,248373,1,0,1:0:0:0:
192,0,248427,1,0,1:0:0:0:
320,0,248427,1,0,1:0:0:0:
64,0,248482,1,0,1:0:0:0:
448,0,248536,1,0,1:0:0:0:
320,0,248590,1,0,1:0:0:0:
192,0,248645,1,0,1:0:0:0:
64,0,248699,1,0,1:0:0:0:
320,0,248754,1,0,1:0:0:0:
448,0,248754,1,0,1:0:0:0:
192,0,248808,1,0,1:0:0:0:
64,0,248862,1,0,1:0:0:0:
448,0,248917,1,0,1:0:0:0:
320,0,248971,1,0,1:0:0:0:
192,0,249025,1,0,1:0:0:0:
64,0,249080,1,0,1:0:0:0:
448,0,249080,1,0,1:0:0:0:
320,0,249134,1,0,1:0:0:0:
192,0,249188,1,0,1:0:0:0:
64,0,249243,1,0,1:0:0:0:
448,0,249243,1,0,1:0:0:0:
320,0,249297,1,0,1:0:0:0:
192,0,249351,1,0,1:0:0:0:
64,0,249406,1,0,1:0:0:0:
448,0,249406,1,0,1:0:0:0:
320,0,249460,1,0,1:0:0:0:
192,0,249514,1,0,1:0:0:0:
64,0,249569,1,0,1:0:0:0:
448,0,249623,1,0,1:0:0:0:
320,0,249677,1,0,1:0:0:0:
64,0,249732,1,0,1:0:0:0:
192,0,249732,1,0,1:0:0:0:
448,0,249786,1,0,1:0:0:0:
320,0,249840,1,0,1:0:0:0:
192,0,249895,1,0,1:0:0:0:
64,0,249949,1,0,1:0:0:0:
448,0,250003,1,0,1:0:0:0:
192,0,250058,1,0,1:0:0:0:
320,0,250058,1,0,1:0:0:0:
64,0,250112,1,0,1:0:0:0:
448,0,250167,1,0,1:0:0:0:
320,0,250221,1,0,1:0:0:0:
64,0,250275,1,0,1:0:0:0:
448,0,250330,1,0,1:0:0:0:
192,0,250384,1,0,1:0:0:0:
320,0,250384,1,0,1:0:0:0:
64,0,250438,1,0,1:0:0:0:
448,0,250493,1,0,1:0:0:0:
320,0,250547,1,0,1:0:0:0:
192,0,250601,1,0,1:0:0:0:
64,0,250656,1,0,1:0:0:0:
320,0,250710,1,0,1:0:0:0:
448,0,250710,1,0,1:0:0:0:
192,0,250764,1,0,1:0:0:0:
64,0,250819,1,0,1:0:0:0:
448,0,250873,1,0,1:0:0:0:
320,0,250927,1,0,1:0:0:0:
192,0,250982,1,0,1:0:0:0:
64,0,251036,1,0,1:0:0:0:
448,0,251036,1,0,1:0:0:0:
320,0,251090,1,0,1:0:0:0:
192,0,251145,1,0,1:0:0:0:
64,0,251199,1,0,1:0:0:0:
320,0,251253,1,0,1:0:0:0:
192,0,251308,1,0,1:0:0:0:
64,0,251362,1,0,1:0:0:0:
448,0,251362,1,0,1:0:0:0:
320,0,251416,1,0,1:0:0:0:
192,0,251471,1,0,1:0:0:0:
64,0,251525,1,0,1:0:0:0:
448,0,251580,1,0,1:0:0:0:
320,0,251634,1,0,1:0:0:0:
64,0,251688,1,0,1:0:0:0:
192,0,251688,1,0,1:0:0:0:
448,0,251743,1,0,1:0:0:0:
320,0,251797,1,0,1:0:0:0:
64,0,251851,1,0,1:0:0:0:
192,0,251851,1,0,1:0:0:0:
448,0,251906,1,0,1:0:0:0:
320,0,251960,1,0,1:0:0:0:
64,0,252014,1,0,1:0:0:0:
192,0,252014,1,0,1:0:0:0:
448,0,252069,1,0,1:0:0:0:
320,0,252123,1,0,1:0:0:0:
192,0,252177,1,0,1:0:0:0:
64,0,252232,1,0,1:0:0:0:
448,0,252286,1,0,1:0:0:0:
192,0,252340,1,0,1:0:0:0:
320,0,252340,1,0,1:0:0:0:
64,0,252395,1,0,1:0:0:0:
448,0,252449,1,0,1:0:0:0:
320,0,252503,1,0,1:0:0:0:
64,0,252558,1,0,1:0:0:0:
448,0,252612,1,0,1:0:0:0:
192,0,252666,1,0,1:0:0:0:
320,0,252666,1,0,1:0:0:0:
64,0,252721,1,0,1:0:0:0:
448,0,252775,1,0,1:0:0:0:
320,0,252830,1,0,1:0:0:0:
64,0,252884,1,0,1:0:0:0:
448,0,252938,1,0,1:0:0:0:
192,0,252993,1,0,1:0:0:0:
320,0,252993,1,0,1:0:0:0:
64,0,253047,1,0,1:0:0:0:
448,0,253101,1,0,1:0:0:0:
192,0,253156,1,0,1:0:0:0:
320,0,253156,1,0,1:0:0:0:
64,0,253210,1,0,1:0:0:0:
448,0,253264,1,0,1:0:0:0:
192,0,253319,1,0,1:0:0:0:
320,0,253319,1,0,1:0:0:0:
64,0,253373,1,0,1:0:0:0:
448,0,253427,1,0,1:0:0:0:
320,0,253482,1,0,1:0:0:0:
192,0,253536,1,0,1:0:0:0:
64,0,253590,1,0,1:0:0:0:
320,0,253645,1,0,1:0:0:0:
448,0,253645,1,0,1:0:0:0:
192,0,253699,1,0,1:0:0:0:
64,0,253753,1,0,1:0:0:0:
448,0,253808,1,0,1:0:0:0:
320,0,253848,1,0,1:0:0:0:
192,0,253889,1,0,1:0:0:0:
64,0,253930,1,0,1:0:0:0:
448,0,253971,1,0,1:0:0:0:
320,0,254012,1,0,1:0:0:0:
192,0,254052,1,0,1:0:0:0:
64,0,254093,1,0,1:0:0:0:
448,0,254134,1,0,1:0:0:0:
320,0,254175,1,0,1:0:0:0:
192,0,254215,1,0,1:0:0:0:
64,0,254256,1,0,1:0:0:0:
448,0,254297,1,0,1:0:0:0:
320,0,254338,1,0,1:0:0:0:
192,0,254378,1,0,1:0:0:0:
64,0,254419,1,0,1:0:0:0:
448,0,254460,1,0,1:0:0:0:
320,0,254514,1,0,1:0:0:0:
192,0,254569,1,0,1:0:0:0:
64,0,254623,1,0,1:0:0:0:
320,0,254677,1,0,1:0:0:0:
192,0,254732,1,0,1:0:0:0:
64,0,254786,1,0,1:0:0:0:
448,0,254786,1,0,1:0:0:0:
320,0,254840,1,0,1:0:0:0:
192,0,254895,1,0,1:0:0:0:
64,0,254949,1,0,1:0:0:0:
448,0,255003,1,0,1:0:0:0:
320,0,255058,1,0,1:0:0:0:
64,0,255112,1,0,1:0:0:0:
192,0,255112,1,0,1:0:0:0:
448,0,255166,1,0,1:0:0:0:
320,0,255221,1,0,1:0:0:0:
192,0,255275,1,0,1:0:0:0:
64,0,255329,1,0,1:0:0:0:
320,0,255384,1,0,1:0:0:0:
192,0,255438,1,0,1:0:0:0:
448,0,255438,1,0,1:0:0:0:
64,0,255492,1,0,1:0:0:0:
320,0,255547,1,0,1:0:0:0:
192,0,255601,1,0,1:0:0:0:
64,0,255656,1,0,1:0:0:0:
448,0,255710,1,0,1:0:0:0:
192,0,255764,1,0,1:0:0:0:
320,0,255764,1,0,1:0:0:0:
64,0,255819,1,0,1:0:0:0:
448,0,255873,1,0,1:0:0:0:
320,0,255927,1,0,1:0:0:0:
192,0,255982,1,0,1:0:0:0:
64,0,256036,1,0,1:0:0:0:
320,0,256090,1,0,1:0:0:0:
448,0,256090,1,0,1:0:0:0:
192,0,256145,1,0,1:0:0:0:
64,0,256199,1,0,1:0:0:0:
448,0,256253,1,0,1:0:0:0:
320,0,256308,1,0,1:0:0:0:
192,0,256362,1,0,1:0:0:0:
64,0,256416,1,0,1:0:0:0:
448,0,256416,1,0,1:0:0:0:
320,0,256471,1,0,1:0:0:0:
192,0,256525,1,0,1:0:0:0:
64,0,256579,1,0,1:0:0:0:
320,0,256634,1,0,1:0:0:0:
192,0,256688,1,0,1:0:0:0:
64,0,256742,1,0,1:0:0:0:
448,0,256742,1,0,1:0:0:0:
320,0,256797,1,0,1:0:0:0:
192,0,256851,1,0,1:0:0:0:
64,0,256905,1,0,1:0:0:0:
448,0,256960,1,0,1:0:0:0:
320,0,257014,1,0,1:0:0:0:
64,0,257069,1,0,1:0:0:0:
192,0,257069,1,0,1:0:0:0:
448,0,257123,1,0,1:0:0:0:
320,0,257177,1,0,1:0:0:0:
192,0,257232,1,0,1:0:0:0:
64,0,257286,1,0,1:0:0:0:
320,0,257340,1,0,1:0:0:0:
192,0,257395,1,0,1:0:0:0:
448,0,257395,1,0,1:0:0:0:
64,0,257449,1,0,1:0:0:0:
320,0,257503,1,0,1:0:0:0:
192,0,257558,1,0,1:0:0:0:
448,0,257612,1,0,1:0:0:0:
320,0,257666,1,0,1:0:0:0:
64,0,257721,1,0,1:0:0:0:
192,0,257721,1,0,1:0:0:0:
448,0,257775,1,0,1:0:0:0:
320,0,257829,1,0,1:0:0:0:
192,0,257884,1,0,1:0:0:0:
64,0,257938,1,0,1:0:0:0:
448,0,257992,1,0,1:0:0:0:
192,0,258047,1,0,1:0:0:0:
320,0,258047,1,0,1:0:0:0:
64,0,258101,1,0,1:0:0:0:
448,0,258155,1,0,1:0:0:0:
320,0,258210,1,0,1:0:0:0:
64,0,258264,1,0,1:0:0:0:
448,0,258318,1,0,1:0:0:0:
192,0,258373,1,0,1:0:0:0:
320,0,258373,1,0,1:0:0:0:
64,0,258427,1,0,1:0:0:0:
448,0,258482,1,0,1:0:0:0:
320,0,258536,1,0,1:0:0:0:
64,0,258590,1,0,1:0:0:0:
448,0,258645,1,0,1:0:0:0:
192,0,258699,1,0,1:0:0:0:
320,0,258699,1,0,1:0:0:0:
64,0,258753,1,0,1:0:0:0:
448,0,258808,1,0,1:0:0:0:
320,0,258862,1,0,1:0:0:0:
192,0,258916,1,0,1:0:0:0:
64,0,258971,1,0,1:0:0:0:
320,0,259025,1,0,1:0:0:0:
448,0,259025,1,0,1:0:0:0:
192,0,259079,1,0,1:0:0:0:
64,0,259134,1,0,1:0:0:0:
448,0,259188,1,0,1:0:0:0:
320,0,259242,1,0,1:0:0:0:
192,0,259297,1,0,1:0:0:0:
64,0,259351,1,0,1:0:0:0:
448,0,259351,1,0,1:0:0:0:
320,0,259405,1,0,1:0:0:0:
192,0,259460,1,0,1:0:0:0:
64,0,259514,1,0,1:0:0:0:
320,0,259568,1,0,1:0:0:0:
192,0,259623,1,0,1:0:0:0:
64,0,259677,1,0,1:0:0:0:
448,0,259677,1,0,1:0:0:0:
320,0,259731,1,0,1:0:0:0:
192,0,259786,1,0,1:0:0:0:
64,0,259840,1,0,1:0:0:0:
448,0,259895,1,0,1:0:0:0:
320,0,259949,1,0,1:0:0:0:
64,0,260003,1,0,1:0:0:0:
192,0,260003,1,0,1:0:0:0:
448,0,260058,1,0,1:0:0:0:
320,0,260112,1,0,1:0:0:0:
192,0,260166,1,0,1:0:0:0:
64,0,260221,1,0,1:0:0:0:
320,0,260275,1,0,1:0:0:0:
192,0,260329,1,0,1:0:0:0:
448,0,260329,1,0,1:0:0:0:
64,0,260384,1,0,1:0:0:0:
320,0,260438,1,0,1:0:0:0:
192,0,260492,1,0,1:0:0:0:
64,0,260547,1,0,1:0:0:0:
448,0,260601,1,0,1:0:0:0:
192,0,260655,1,0,1:0:0:0:
320,0,260655,1,0,1:0:0:0:
64,0,260710,1,0,1:0:0:0:
448,0,260764,1,0,1:0:0:0:
320,0,260818,1,0,1:0:0:0:
192,0,260873,1,0,1:0:0:0:
64,0,260927,1,0,1:0:0:0:
320,0,260981,1,0,1:0:0:0:
448,0,260981,1,0,1:0:0:0:
192,0,261036,1,0,1:0:0:0:
64,0,261090,1,0,1:0:0:0:
448,0,261144,1,0,1:0:0:0:
320,0,261199,1,0,1:0:0:0:
192,0,261253,1,0,1:0:0:0:
64,0,261308,1,0,1:0:0:0:
448,0,261308,1,0,1:0:0:0:
320,0,261362,1,0,1:0:0:0:
192,0,261416,1,0,1:0:0:0:
64,0,261471,1,0,1:0:0:0:
448,0,261525,1,0,1:0:0:0:
320,0,261579,1,0,1:0:0:0:
64,0,261634,1,0,1:0:0:0:
192,0,261634,1,0,1:0:0:0:
448,0,261688,1,0,1:0:0:0:
320,0,261742,1,0,1:0:0:0:
192,0,261797,1,0,1:0:0:0:
64,0,261851,1,0,1:0:0:0:
448,0,261905,1,0,1:0:0:0:
192,0,261960,1,0,1:0:0:0:
320,0,261960,1,0,1:0:0:0:
64,0,262014,1,0,1:0:0:0:
448,0,262068,1,0,1:0:0:0:
320,0,262123,1,0,1:0:0:0:
192,0,262177,1,0,1:0:0:0:
64,0,262231,1,0,1:0:0:0:
448,0,262286,1,0,1:0:0:0:
320,0,262327,1,0,1:0:0:0:
192,0,262367,1,0,1:0:0:0:
64,0,262408,1,0,1:0:0:0:
448,0,262449,1,0,1:0:0:0:
320,0,262490,1,0,1:0:0:0:
192,0,262530,1,0,1:0:0:0:
64,0,262571,1,0,1:0:0:0:
448,0,262612,1,0,1:0:0:0:
320,0,262653,1,0,1:0:0:0:
192,0,262693,1,0,1:0:0:0:
64,0,262734,1,0,1:0:0:0:
448,0,262775,1,0,1:0:0:0:
320,0,262816,1,0,1:0:0:0:
192,0,262856,1,0,1:0:0:0:
64,0,262897,1,0,1:0:0:0:
320,0,262938,1,0,1:0:0:0:
448,0,262979,1,0,1:0:0:0:
192,0,263019,1,0,1:0:0:0:
64,0,263060,1,0,1:0:0:0:
320,0,263101,1,0,1:0:0:0:
448,0,263142,1,0,1:0:0:0:
192,0,263182,1,0,1:0:0:0:
64,0,263223,1,0,1:0:0:0:
320,0,263264,1,0,1:0:0:0:
448,0,263305,1,0,1:0:0:0:
192,0,263346,1,0,1:0:0:0:
64,0,263386,1,0,1:0:0:0:
320,0,263427,1,0,1:0:0:0:
448,0,263468,1,0,1:0:0:0:
192,0,263509,1,0,1:0:0:0:
64,0,263549,1,0,1:0:0:0:
448,0,263590,1,0,1:0:0:0:
320,0,263631,1,0,1:0:0:0:
192,0,263672,1,0,1:0:0:0:
64,0,263712,1,0,1:0:0:0:
448,0,263753,1,0,1:0:0:0:
320,0,263794,1,0,1:0:0:0:
192,0,263835,1,0,1:0:0:0:
64,0,263875,1,0,1:0:0:0:
448,0,263916,1,0,1:0:0:0:
320,0,263957,1,0,1:0:0:0:
192,0,263998,1,0,1:0:0:0:
64,0,264038,1,0,1:0:0:0:
448,0,264079,1,0,1:0:0:0:
320,0,264120,1,0,1:0:0:0:
192,0,264161,1,0,1:0:0:0:
64,0,264201,1,0,1:0:0:0:
320,0,264242,1,0,1:0:0:0:
448,0,264283,1,0,1:0:0:0:
192,0,264324,1,0,1:0:0:0:
64,0,264365,1,0,1:0:0:0:
320,0,264405,1,0,1:0:0:0:
448,0,264446,1,0,1:0:0:0:
192,0,264487,1,0,1:0:0:0:
64,0,264528,1,0,1:0:0:0:
320,0,264568,1,0,1:0:0:0:
448,0,264609,1,0,1:0:0:0:
192,0,264650,1,0,1:0:0:0:
64,0,264691,1,0,1:0:0:0:
320,0,264731,1,0,1:0:0:0:
448,0,264772,1,0,1:0:0:0:
192,0,264813,1,0,1:0:0:0:
64,0,264854,1,0,1:0:0:0:
320,0,264894,1,0,1:0:0:0:
448,0,264894,1,0,1:0:0:0:
192,0,264976,1,0,1:0:0:0:
64,0,265017,1,0,1:0:0:0:
320,0,265057,1,0,1:0:0:0:
448,0,265057,1,0,1:0:0:0:
192,0,265139,1,0,1:0:0:0:
64,0,265180,1,0,1:0:0:0:
448,0,265220,1,0,1:0:0:0:
320,0,265261,1,0,1:0:0:0:
64,0,265302,1,0,1:0:0:0:
192,0,265302,1,0,1:0:0:0:
448,0,265384,1,0,1:0:0:0:
320,0,265424,1,0,1:0:0:0:
192,0,265465,1,0,1:0:0:0:
64,0,265506,1,0,1:0:0:0:
320,0,265547,1,0,1:0:0:0:
448,0,265547,1,0,1:0:0:0:
192,0,265628,1,0,1:0:0:0:
64,0,265669,1,0,1:0:0:0:
320,0,265710,1,0,1:0:0:0:
448,0,265710,1,0,1:0:0:0:
192,0,265791,1,0,1:0:0:0:
64,0,265832,1,0,1:0:0:0:
448,0,265873,1,0,1:0:0:0:
320,0,265913,1,0,1:0:0:0:
64,0,265954,1,0,1:0:0:0:
192,0,265954,1,0,1:0:0:0:
448,0,266036,1,0,1:0:0:0:
320,0,266076,1,0,1:0:0:0:
192,0,266117,1,0,1:0:0:0:
64,0,266158,1,0,1:0:0:0:
320,0,266199,1,0,1:0:0:0:
448,0,266199,1,0,1:0:0:0:
192,0,266280,1,0,1:0:0:0:
64,0,266321,1,0,1:0:0:0:
448,0,266362,1,0,1:0:0:0:
320,0,266403,1,0,1:0:0:0:
192,0,266443,1,0,1:0:0:0:
64,0,266484,1,0,1:0:0:0:
448,0,266525,1,0,1:0:0:0:
320,0,266566,1,0,1:0:0:0:
192,0,266606,1,0,1:0:0:0:
64,0,266647,1,0,1:0:0:0:
448,0,266688,1,0,1:0:0:0:
320,0,266729,1,0,1:0:0:0:
192,0,266769,1,0,1:0:0:0:
64,0,266810,1,0,1:0:0:0:
448,0,266851,1,0,1:0:0:0:
320,0,266892,1,0,1:0:0:0:
192,0,266932,1,0,1:0:0:0:
64,0,266973,1,0,1:0:0:0:
448,0,267014,1,0,1:0:0:0:
320,0,267055,1,0,1:0:0:0:
192,0,267095,1,0,1:0:0:0:
64,0,267136,1,0,1:0:0:0:
448,0,267177,1,0,1:0:0:0:
320,0,267218,1,0,1:0:0:0:
192,0,267258,1,0,1:0:0:0:
64,0,267299,1,0,1:0:0:0:
320,0,267340,1,0,1:0:0:0:
448,0,267340,1,0,1:0:0:0:
192,0,267421,1,0,1:0:0:0:
64,0,267503,1,0,1:0:0:0:
448,0,267503,1,0,1:0:0:0:
320,0,267585,1,0,1:0:0:0:
64,0,267666,1,0,1:0:0:0:
192,0,267666,1,0,1:0:0:0:
320,0,267748,1,0,1:0:0:0:
64,0,267829,1,0,1:0:0:0:
192,0,267829,1,0,1:0:0:0:
448,0,267829,1,0,1:0:0:0:
320,0,267911,1,0,1:0:0:0:
64,0,267992,1,0,1:0:0:0:
192,0,267992,1,0,1:0:0:0:
448,0,268074,1,0,1:0:0:0:
64,0,268155,1,0,1:0:0:0:
192,0,268155,1,0,1:0:0:0:
320,0,268155,1,0,1:0:0:0:
448,0,268237,1,0,1:0:0:0:
64,0,268318,1,0,1:0:0:0:
192,0,268318,1,0,1:0:0:0:
320,0,268400,1,0,1:0:0:0:
64,0,268481,1,0,1:0:0:0:
192,0,268481,1,0,1:0:0:0:
448,0,268481,1,0,1:0:0:0:
320,0,268563,1,0,1:0:0:0:
64,0,268644,1,0,1:0:0:0:
192,0,268644,1,0,1:0:0:0:
448,0,268644,1,0,1:0:0:0:
320,0,268726,1,0,1:0:0:0:
64,0,268807,1,0,1:0:0:0:
192,0,268807,1,0,1:0:0:0:
448,0,268889,1,0,1:0:0:0:
64,0,268970,1,0,1:0:0:0:
320,0,268970,1,0,1:0:0:0:
192,0,269052,1,0,1:0:0:0:
64,0,269133,1,0,1:0:0:0:
320,0,269133,1,0,1:0:0:0:
448,0,269133,1,0,1:0:0:0:
192,0,269215,1,0,1:0:0:0:
320,0,269296,1,0,1:0:0:0:
448,0,269296,1,0,1:0:0:0:
64,0,269378,1,0,1:0:0:0:
192,0,269459,1,0,1:0:0:0:
320,0,269459,1,0,1:0:0:0:
448,0,269459,1,0,1:0:0:0:
64,0,269541,1,0,1:0:0:0:
320,0,269623,1,0,1:0:0:0:
448,0,269623,1,0,1:0:0:0:
192,0,269704,1,0,1:0:0:0:
64,0,269786,1,0,1:0:0:0:
320,0,269786,1,0,1:0:0:0:
448,0,269786,1,0,1:0:0:0:
192,0,269867,1,0,1:0:0:0:
64,0,269949,1,0,1:0:0:0:
320,0,269949,1,0,1:0:0:0:
448,0,269949,1,0,1:0:0:0:
192,0,270030,1,0,1:0:0:0:
320,0,270112,1,0,1:0:0:0:
448,0,270112,1,0,1:0:0:0:
64,0,270193,1,0,1:0:0:0:
192,0,270275,1,0,1:0:0:0:
320,0,270275,1,0,1:0:0:0:
448,0,270356,1,0,1:0:0:0:
64,0,270438,1,0,1:0:0:0:
192,0,270438,1,0,1:0:0:0:
320,0,270438,1,0,1:0:0:0:
448,0,270519,1,0,1:0:0:0:
64,0,270601,1,0,1:0:0:0:
192,0,270601,1,0,1:0:0:0:
320,0,270682,1,0,1:0:0:0:
64,0,270764,1,0,1:0:0:0:
192,0,270764,1,0,1:0:0:0:
448,0,270764,1,0,1:0:0:0:
320,0,270845,1,0,1:0:0:0:
64,0,270927,1,0,1:0:0:0:
192,0,270927,1,0,1:0:0:0:
448,0,271008,1,0,1:0:0:0:
64,0,271090,1,0,1:0:0:0:
192,0,271090,1,0,1:0:0:0:
320,0,271090,1,0,1:0:0:0:
448,0,271171,1,0,1:0:0:0:
64,0,271253,1,0,1:0:0:0:
192,0,271253,1,0,1:0:0:0:
320,0,271253,1,0,1:0:0:0:
448,0,271334,1,0,1:0:0:0:
64,0,271416,1,0,1:0:0:0:
192,0,271416,1,0,1:0:0:0:
320,0,271497,1,0,1:0:0:0:
64,0,271579,1,0,1:0:0:0:
448,0,271579,1,0,1:0:0:0:
192,0,271661,1,0,1:0:0:0:
64,0,271742,1,0,1:0:0:0:
320,0,271742,1,0,1:0:0:0:
448,0,271742,1,0,1:0:0:0:
192,0,271824,1,0,1:0:0:0:
320,0,271905,1,0,1:0:0:0:
448,0,271905,1,0,1:0:0:0:
192,0,271987,1,0,1:0:0:0:
320,0,272068,1,0,1:0:0:0:
448,0,272068,1,0,1:0:0:0:
64,0,272150,1,0,1:0:0:0:
192,0,272150,1,0,1:0:0:0:
320,0,272231,1,0,1:0:0:0:
448,0,272231,1,0,1:0:0:0:
64,0,272313,1,0,1:0:0:0:
192,0,272313,1,0,1:0:0:0:
320,0,272394,1,0,1:0:0:0:
448,0,272394,1,0,1:0:0:0:
192,0,272476,1,0,1:0:0:0:
64,0,272557,1,0,1:0:0:0:
320,0,272557,1,0,1:0:0:0:
448,0,272557,1,0,1:0:0:0:
192,0,272639,1,0,1:0:0:0:
64,0,272720,1,0,1:0:0:0:
448,0,272720,1,0,1:0:0:0:
320,0,272802,1,0,1:0:0:0:
64,0,272883,1,0,1:0:0:0:
192,0,272883,1,0,1:0:0:0:
320,0,272965,1,0,1:0:0:0:
64,0,273046,1,0,1:0:0:0:
192,0,273046,1,0,1:0:0:0:
448,0,273046,1,0,1:0:0:0:
320,0,273128,1,0,1:0:0:0:
64,0,273209,1,0,1:0:0:0:
192,0,273209,1,0,1:0:0:0:
448,0,273291,1,0,1:0:0:0:
64,0,273372,1,0,1:0:0:0:
192,0,273372,1,0,1:0:0:0:
320,0,273372,1,0,1:0:0:0:
448,0,273454,1,0,1:0:0:0:
64,0,273535,1,0,1:0:0:0:
192,0,273535,1,0,1:0:0:0:
320,0,273617,1,0,1:0:0:0:
64,0,273699,1,0,1:0:0:0:
192,0,273699,1,0,1:0:0:0:
448,0,273699,1,0,1:0:0:0:
320,0,273780,1,0,1:0:0:0:
64,0,273862,1,0,1:0:0:0:
192,0,273862,1,0,1:0:0:0:
448,0,273862,1,0,1:0:0:0:
320,0,273943,1,0,1:0:0:0:
64,0,274025,1,0,1:0:0:0:
192,0,274025,1,0,1:0:0:0:
320,0,274106,1,0,1:0:0:0:
64,0,274188,1,0,1:0:0:0:
448,0,274188,1,0,1:0:0:0:
192,0,274269,1,0,1:0:0:0:
64,0,274351,1,0,1:0:0:0:
320,0,274351,1,0,1:0:0:0:
448,0,274351,1,0,1:0:0:0:
192,0,274432,1,0,1:0:0:0:
320,0,274514,1,0,1:0:0:0:
448,0,274514,1,0,1:0:0:0:
64,0,274595,1,0,1:0:0:0:
192,0,274677,1,0,1:0:0:0:
320,0,274677,1,0,1:0:0:0:
448,0,274677,1,0,1:0:0:0:
64,0,274758,1,0,1:0:0:0:
320,0,274840,1,0,1:0:0:0:
448,0,274840,1,0,1:0:0:0:
192,0,274921,1,0,1:0:0:0:
64,0,275003,1,0,1:0:0:0:
320,0,275003,1,0,1:0:0:0:
448,0,275003,1,0,1:0:0:0:
192,0,275084,1,0,1:0:0:0:
64,0,275166,1,0,1:0:0:0:
320,0,275166,1,0,1:0:0:0:
448,0,275166,1,0,1:0:0:0:
192,0,275247,1,0,1:0:0:0:
64,0,275329,1,0,1:0:0:0:
448,0,275329,1,0,1:0:0:0:
320,0,275410,1,0,1:0:0:0:
64,0,275492,1,0,1:0:0:0:
192,0,275492,1,0,1:0:0:0:
320,0,275573,1,0,1:0:0:0:
64,0,275655,1,0,1:0:0:0:
192,0,275655,1,0,1:0:0:0:
448,0,275655,1,0,1:0:0:0:
320,0,275736,1,0,1:0:0:0:
64,0,275818,1,0,1:0:0:0:
192,0,275818,1,0,1:0:0:0:
448,0,275900,1,0,1:0:0:0:
64,0,275981,1,0,1:0:0:0:
192,0,275981,1,0,1:0:0:0:
320,0,275981,1,0,1:0:0:0:
448,0,276063,1,0,1:0:0:0:
64,0,276144,1,0,1:0:0:0:
192,0,276144,1,0,1:0:0:0:
320,0,276226,1,0,1:0:0:0:
64,0,276307,1,0,1:0:0:0:
192,0,276307,1,0,1:0:0:0:
448,0,276307,1,0,1:0:0:0:
320,0,276389,1,0,1:0:0:0:
64,0,276470,1,0,1:0:0:0:
192,0,276470,1,0,1:0:0:0:
448,0,276470,1,0,1:0:0:0:
320,0,276552,1,0,1:0:0:0:
64,0,276633,1,0,1:0:0:0:
192,0,276633,1,0,1:0:0:0:
448,0,276633,1,0,1:0:0:0:
320,0,276715,1,0,1:0:0:0:
64,0,276796,1,0,1:0:0:0:
192,0,276796,1,0,1:0:0:0:
320,0,276878,1,0,1:0:0:0:
448,0,276878,1,0,1:0:0:0:
64,0,276959,1,0,1:0:0:0:
192,0,276959,1,0,1:0:0:0:
320,0,277041,1,0,1:0:0:0:
448,0,277041,1,0,1:0:0:0:
192,0,277122,1,0,1:0:0:0:
64,0,277204,1,0,1:0:0:0:
192,0,277285,1,0,1:0:0:0:
320,0,277285,1,0,1:0:0:0:
448,0,277285,1,0,1:0:0:0:
192,0,277448,1,0,1:0:0:0:
320,0,277448,1,0,1:0:0:0:
64,0,277611,1,0,1:0:0:0:
192,0,277611,1,0,1:0:0:0:
64,0,277774,1,0,1:0:0:0:
448,0,277774,1,0,1:0:0:0:
64,0,277938,1,0,1:0:0:0:
192,0,277938,1,0,1:0:0:0:
320,0,277938,1,0,1:0:0:0:
448,0,277938,1,0,1:0:0:0:
64,0,278264,1,0,1:0:0:0:
448,0,278264,1,0,1:0:0:0:
192,0,278345,1,0,1:0:0:0:
320,0,278427,1,0,1:0:0:0:
448,0,278508,1,0,1:0:0:0:
64,0,278590,1,0,1:0:0:0:
192,0,278590,1,0,1:0:0:0:
320,0,278671,1,0,1:0:0:0:
192,0,278753,1,0,1:0:0:0:
320,0,278834,1,0,1:0:0:0:
64,0,278916,1,0,1:0:0:0:
448,0,278916,1,0,1:0:0:0:
192,0,278997,1,0,1:0:0:0:
320,0,279079,1,0,1:0:0:0:
448,0,279079,1,0,1:0:0:0:
192,0,279160,1,0,1:0:0:0:
64,0,279242,1,0,1:0:0:0:
320,0,279242,1,0,1:0:0:0:
448,0,279242,1,0,1:0:0:0:
192,0,279323,1,0,1:0:0:0:
448,0,279405,1,0,1:0:0:0:
64,0,279486,1,0,1:0:0:0:
192,0,279568,1,0,1:0:0:0:
320,0,279568,1,0,1:0:0:0:
448,0,279649,1,0,1:0:0:0:
64,0,279731,1,0,1:0:0:0:
192,0,279731,1,0,1:0:0:0:
320,0,279812,1,0,1:0:0:0:
192,0,279894,1,0,1:0:0:0:
64,0,279976,1,0,1:0:0:0:
320,0,280057,1,0,1:0:0:0:
448,0,280057,1,0,1:0:0:0:
192,0,280139,1,0,1:0:0:0:
320,0,280220,1,0,1:0:0:0:
448,0,280220,1,0,1:0:0:0:
192,0,280302,1,0,1:0:0:0:
64,0,280383,1,0,1:0:0:0:
448,0,280383,1,0,1:0:0:0:
320,0,280465,1,0,1:0:0:0:
64,0,280546,1,0,1:0:0:0:
192,0,280546,1,0,1:0:0:0:
448,0,280546,1,0,1:0:0:0:
320,0,280628,1,0,1:0:0:0:
64,0,280709,1,0,1:0:0:0:
192,0,280791,1,0,1:0:0:0:
320,0,280872,1,0,1:0:0:0:
448,0,280954,1,0,1:0:0:0:
320,0,281035,1,0,1:0:0:0:
192,0,281117,1,0,1:0:0:0:
64,0,281198,1,0,1:0:0:0:
448,0,281280,1,0,1:0:0:0:
192,0,281361,1,0,1:0:0:0:
320,0,281443,1,0,1:0:0:0:
64,0,281524,1,0,1:0:0:0:
448,0,281524,1,0,1:0:0:0:
192,0,281606,1,0,1:0:0:0:
320,0,281687,1,0,1:0:0:0:
448,0,281687,1,0,1:0:0:0:
192,0,281769,1,0,1:0:0:0:
64,0,281850,1,0,1:0:0:0:
320,0,281850,1,0,1:0:0:0:
448,0,281850,1,0,1:0:0:0:
192,0,281932,1,0,1:0:0:0:
320,0,282013,1,0,1:0:0:0:
448,0,282095,1,0,1:0:0:0:
64,0,282177,1,0,1:0:0:0:
192,0,282177,1,0,1:0:0:0:
320,0,282258,1,0,1:0:0:0:
64,0,282340,1,0,1:0:0:0:
192,0,282340,1,0,1:0:0:0:
448,0,282340,1,0,1:0:0:0:
320,0,282421,1,0,1:0:0:0:
64,0,282503,1,0,1:0:0:0:
192,0,282584,1,0,1:0:0:0:
320,0,282666,1,0,1:0:0:0:
448,0,282747,1,0,1:0:0:0:
64,0,282829,1,0,1:0:0:0:
192,0,282829,1,0,1:0:0:0:
320,0,282829,1,0,1:0:0:0:
448,0,282910,1,0,1:0:0:0:
320,0,282992,1,0,1:0:0:0:
192,0,283073,1,0,1:0:0:0:
64,0,283155,1,0,1:0:0:0:
320,0,283155,1,0,1:0:0:0:
448,0,283155,1,0,1:0:0:0:
192,0,283236,1,0,1:0:0:0:
448,0,283318,1,0,1:0:0:0:
320,0,283399,1,0,1:0:0:0:
64,0,283481,1,0,1:0:0:0:
192,0,283481,1,0,1:0:0:0:
448,0,283562,1,0,1:0:0:0:
320,0,283644,1,0,1:0:0:0:
192,0,283725,1,0,1:0:0:0:
64,0,283807,1,0,1:0:0:0:
448,0,283807,1,0,1:0:0:0:
320,0,283888,1,0,1:0:0:0:
64,0,283970,1,0,1:0:0:0:
192,0,283970,1,0,1:0:0:0:
320,0,284051,1,0,1:0:0:0:
64,0,284133,1,0,1:0:0:0:
448,0,284133,1,0,1:0:0:0:
192,0,284215,1,0,1:0:0:0:
320,0,284296,1,0,1:0:0:0:
448,0,284296,1,0,1:0:0:0:
64,0,284378,1,0,1:0:0:0:
192,0,284459,1,0,1:0:0:0:
320,0,284459,1,0,1:0:0:0:
448,0,284459,1,0,1:0:0:0:
64,0,284541,1,0,1:0:0:0:
448,0,284622,1,0,1:0:0:0:
320,0,284704,1,0,1:0:0:0:
192,0,284785,1,0,1:0:0:0:
64,0,284867,1,0,1:0:0:0:
192,0,284948,1,0,1:0:0:0:
320,0,284948,1,0,1:0:0:0:
448,0,284948,1,0,1:0:0:0:
64,0,285030,1,0,1:0:0:0:
192,0,285111,1,0,1:0:0:0:
320,0,285193,1,0,1:0:0:0:
448,0,285274,1,0,1:0:0:0:
192,0,285356,1,0,1:0:0:0:
64,0,285437,1,0,1:0:0:0:
320,0,285437,1,0,1:0:0:0:
448,0,285437,1,0,1:0:0:0:
192,0,285519,1,0,1:0:0:0:
320,0,285600,1,0,1:0:0:0:
448,0,285682,1,0,1:0:0:0:
64,0,285763,1,0,1:0:0:0:
192,0,285763,1,0,1:0:0:0:
320,0,285845,1,0,1:0:0:0:
64,0,285926,1,0,1:0:0:0:
448,0,285926,1,0,1:0:0:0:
192,0,286008,1,0,1:0:0:0:
320,0,286089,1,0,1:0:0:0:
448,0,286089,1,0,1:0:0:0:
64,0,286171,1,0,1:0:0:0:
320,0,286253,1,0,1:0:0:0:
448,0,286253,1,0,1:0:0:0:
64,0,286334,1,0,1:0:0:0:
192,0,286334,1,0,1:0:0:0:
320,0,286416,1,0,1:0:0:0:
448,0,286416,1,0,1:0:0:0:
192,0,286497,1,0,1:0:0:0:
64,0,286579,1,0,1:0:0:0:
448,0,286579,1,0,1:0:0:0:
192,0,286660,1,0,1:0:0:0:
320,0,286660,1,0,1:0:0:0:
64,0,286742,1,0,1:0:0:0:
448,0,286742,1,0,1:0:0:0:
320,0,286823,1,0,1:0:0:0:
64,0,286905,1,0,1:0:0:0:
192,0,286905,1,0,1:0:0:0:
448,0,286986,1,0,1:0:0:0:
64,0,287068,1,0,1:0:0:0:
192,0,287068,1,0,1:0:0:0:
320,0,287068,1,0,1:0:0:0:
448,0,287149,1,0,1:0:0:0:
64,0,287231,1,0,1:0:0:0:
192,0,287231,1,0,1:0:0:0:
320,0,287312,1,0,1:0:0:0:
64,0,287394,1,0,1:0:0:0:
448,0,287394,1,0,1:0:0:0:
192,0,287475,1,0,1:0:0:0:
64,0,287557,1,0,1:0:0:0:
320,0,287557,1,0,1:0:0:0:
448,0,287557,1,0,1:0:0:0:
192,0,287638,1,0,1:0:0:0:
320,0,287720,1,0,1:0:0:0:
448,0,287801,1,0,1:0:0:0:
64,0,287883,1,0,1:0:0:0:
192,0,287883,1,0,1:0:0:0:
320,0,287964,1,0,1:0:0:0:
64,0,288046,1,0,1:0:0:0:
192,0,288046,1,0,1:0:0:0:
448,0,288046,1,0,1:0:0:0:
320,0,288127,1,0,1:0:0:0:
192,0,288209,1,0,1:0:0:0:
64,0,288290,1,0,1:0:0:0:
192,0,288372,1,0,1:0:0:0:
320,0,288372,1,0,1:0:0:0:
448,0,288372,1,0,1:0:0:0:
64,0,288454,1,0,1:0:0:0:
192,0,288535,1,0,1:0:0:0:
320,0,288617,1,0,1:0:0:0:
64,0,288698,1,0,1:0:0:0:
192,0,288698,1,0,1:0:0:0:
448,0,288698,1,0,1:0:0:0:
320,0,288780,1,0,1:0:0:0:
64,0,288861,1,0,1:0:0:0:
192,0,288861,1,0,1:0:0:0:
320,0,288943,1,0,1:0:0:0:
64,0,289024,1,0,1:0:0:0:
448,0,289024,1,0,1:0:0:0:
192,0,289106,1,0,1:0:0:0:
320,0,289187,1,0,1:0:0:0:
448,0,289187,1,0,1:0:0:0:
192,0,289269,1,0,1:0:0:0:
64,0,289350,1,0,1:0:0:0:
320,0,289350,1,0,1:0:0:0:
448,0,289350,1,0,1:0:0:0:
192,0,289432,1,0,1:0:0:0:
320,0,289513,1,0,1:0:0:0:
448,0,289513,1,0,1:0:0:0:
64,0,289595,1,0,1:0:0:0:
192,0,289676,1,0,1:0:0:0:
320,0,289676,1,0,1:0:0:0:
448,0,289676,1,0,1:0:0:0:
64,0,289758,1,0,1:0:0:0:
320,0,289839,1,0,1:0:0:0:
448,0,289839,1,0,1:0:0:0:
192,0,289921,1,0,1:0:0:0:
64,0,290002,1,0,1:0:0:0:
320,0,290002,1,0,1:0:0:0:
448,0,290002,1,0,1:0:0:0:
192,0,290084,1,0,1:0:0:0:
64,0,290165,1,0,1:0:0:0:
320,0,290165,1,0,1:0:0:0:
448,0,290165,1,0,1:0:0:0:
192,0,290247,1,0,1:0:0:0:
64,0,290328,1,0,1:0:0:0:
448,0,290328,1,0,1:0:0:0:
320,0,290410,1,0,1:0:0:0:
64,0,290492,1,0,1:0:0:0:
192,0,290492,1,0,1:0:0:0:
320,0,290573,1,0,1:0:0:0:
64,0,290655,1,0,1:0:0:0:
192,0,290655,1,0,1:0:0:0:
448,0,290655,1,0,1:0:0:0:
320,0,290736,1,0,1:0:0:0:
64,0,290818,1,0,1:0:0:0:
192,0,290818,1,0,1:0:0:0:
448,0,290899,1,0,1:0:0:0:
64,0,290981,1,0,1:0:0:0:
192,0,290981,1,0,1:0:0:0:
320,0,290981,1,0,1:0:0:0:
448,0,291062,1,0,1:0:0:0:
64,0,291144,1,0,1:0:0:0:
192,0,291144,1,0,1:0:0:0:
320,0,291225,1,0,1:0:0:0:
64,0,291307,1,0,1:0:0:0:
192,0,291307,1,0,1:0:0:0:
448,0,291307,1,0,1:0:0:0:
320,0,291388,1,0,1:0:0:0:
64,0,291470,1,0,1:0:0:0:
448,0,291470,1,0,1:0:0:0:
192,0,291551,1,0,1:0:0:0:
320,0,291633,1,0,1:0:0:0:
448,0,291633,1,0,1:0:0:0:
64,0,291714,1,0,1:0:0:0:
192,0,291796,1,0,1:0:0:0:
320,0,291796,1,0,1:0:0:0:
448,0,291877,1,0,1:0:0:0:
64,0,291959,1,0,1:0:0:0:
192,0,291959,1,0,1:0:0:0:
320,0,291959,1,0,1:0:0:0:
448,0,292040,1,0,1:0:0:0:
64,0,292122,1,0,1:0:0:0:
192,0,292122,1,0,1:0:0:0:
320,0,292203,1,0,1:0:0:0:
64,0,292285,1,0,1:0:0:0:
192,0,292285,1,0,1:0:0:0:
448,0,292285,1,0,1:0:0:0:
320,0,292366,1,0,1:0:0:0:
64,0,292448,1,0,1:0:0:0:
448,0,292448,1,0,1:0:0:0:
192,0,292530,1,0,1:0:0:0:
64,0,292611,1,0,1:0:0:0:
320,0,292611,1,0,1:0:0:0:
448,0,292611,1,0,1:0:0:0:
192,0,292693,1,0,1:0:0:0:
320,0,292774,1,0,1:0:0:0:
448,0,292774,1,0,1:0:0:0:
64,0,292856,1,0,1:0:0:0:
192,0,292937,1,0,1:0:0:0:
320,0,292937,1,0,1:0:0:0:
448,0,292937,1,0,1:0:0:0:
64,0,293019,1,0,1:0:0:0:
320,0,293100,1,0,1:0:0:0:
448,0,293100,1,0,1:0:0:0:
192,0,293182,1,0,1:0:0:0:
64,0,293263,1,0,1:0:0:0:
320,0,293263,1,0,1:0:0:0:
192,0,293345,1,0,1:0:0:0:
320,0,293426,1,0,1:0:0:0:
448,0,293426,1,0,1:0:0:0:
64,0,293508,1,0,1:0:0:0:
192,0,293589,1,0,1:0:0:0:
320,0,293589,1,0,1:0:0:0:
448,0,293589,1,0,1:0:0:0:
64,0,293671,1,0,1:0:0:0:
320,0,293752,1,0,1:0:0:0:
448,0,293752,1,0,1:0:0:0:
192,0,293834,1,0,1:0:0:0:
64,0,293915,1,0,1:0:0:0:
320,0,293915,1,0,1:0:0:0:
448,0,293915,1,0,1:0:0:0:
192,0,293997,1,0,1:0:0:0:
64,0,294078,1,0,1:0:0:0:
448,0,294078,1,0,1:0:0:0:
320,0,294160,1,0,1:0:0:0:
64,0,294241,1,0,1:0:0:0:
192,0,294241,1,0,1:0:0:0:
448,0,294241,1,0,1:0:0:0:
320,0,294323,1,0,1:0:0:0:
64,0,294404,1,0,1:0:0:0:
192,0,294404,1,0,1:0:0:0:
448,0,294486,1,0,1:0:0:0:
64,0,294568,1,0,1:0:0:0:
192,0,294568,1,0,1:0:0:0:
320,0,294568,1,0,1:0:0:0:
448,0,294649,1,0,1:0:0:0:
64,0,294731,1,0,1:0:0:0:
192,0,294731,1,0,1:0:0:0:
320,0,294812,1,0,1:0:0:0:
64,0,294894,1,0,1:0:0:0:
192,0,294894,1,0,1:0:0:0:
448,0,294894,1,0,1:0:0:0:
320,0,294975,1,0,1:0:0:0:
64,0,295057,1,0,1:0:0:0:
448,0,295057,1,0,1:0:0:0:
192,0,295138,1,0,1:0:0:0:
64,0,295220,1,0,1:0:0:0:
320,0,295220,1,0,1:0:0:0:
448,0,295220,1,0,1:0:0:0:
192,0,295301,1,0,1:0:0:0:
64,0,295383,1,0,1:0:0:0:
320,0,295383,1,0,1:0:0:0:
448,0,295383,1,0,1:0:0:0:
192,0,295464,1,0,1:0:0:0:
64,0,295546,1,0,1:0:0:0:
320,0,295546,1,0,1:0:0:0:
448,0,295546,1,0,1:0:0:0:
192,0,295627,1,0,1:0:0:0:
64,0,295709,1,0,1:0:0:0:
320,0,295709,1,0,1:0:0:0:
448,0,295709,1,0,1:0:0:0:
192,0,295790,1,0,1:0:0:0:
320,0,295872,1,0,1:0:0:0:
448,0,295872,1,0,1:0:0:0:
64,0,295953,1,0,1:0:0:0:
192,0,296035,1,0,1:0:0:0:
320,0,296035,1,0,1:0:0:0:
448,0,296035,1,0,1:0:0:0:
64,0,296116,1,0,1:0:0:0:
192,0,296198,1,0,1:0:0:0:
320,0,296198,1,0,1:0:0:0:
448,0,296279,1,0,1:0:0:0:
64,0,296361,1,0,1:0:0:0:
192,0,296361,1,0,1:0:0:0:
320,0,296442,1,0,1:0:0:0:
64,0,296524,1,0,1:0:0:0:
192,0,296524,1,0,1:0:0:0:
448,0,296524,1,0,1:0:0:0:
320,0,296605,1,0,1:0:0:0:
64,0,296687,1,0,1:0:0:0:
192,0,296687,1,0,1:0:0:0:
320,0,296769,1,0,1:0:0:0:
64,0,296850,1,0,1:0:0:0:
448,0,296850,1,0,1:0:0:0:
192,0,296932,1,0,1:0:0:0:
320,0,297013,1,0,1:0:0:0:
448,0,297013,1,0,1:0:0:0:
192,0,297095,1,0,1:0:0:0:
64,0,297176,1,0,1:0:0:0:
320,0,297176,1,0,1:0:0:0:
448,0,297176,1,0,1:0:0:0:
192,0,297258,1,0,1:0:0:0:
320,0,297339,1,0,1:0:0:0:
448,0,297339,1,0,1:0:0:0:
64,0,297421,1,0,1:0:0:0:
192,0,297502,1,0,1:0:0:0:
320,0,297502,1,0,1:0:0:0:
448,0,297584,1,0,1:0:0:0:
64,0,297665,1,0,1:0:0:0:
192,0,297665,1,0,1:0:0:0:
320,0,297747,1,0,1:0:0:0:
64,0,297828,1,0,1:0:0:0:
192,0,297828,1,0,1:0:0:0:
448,0,297828,1,0,1:0:0:0:
320,0,297910,1,0,1:0:0:0:
64,0,297991,1,0,1:0:0:0:
192,0,297991,1,0,1:0:0:0:
448,0,298073,1,0,1:0:0:0:
192,0,298154,1,0,1:0:0:0:
320,0,298154,1,0,1:0:0:0:
64,0,298236,1,0,1:0:0:0:
320,0,298317,1,0,1:0:0:0:
448,0,298317,1,0,1:0:0:0:
192,0,298399,1,0,1:0:0:0:
64,0,298480,1,0,1:0:0:0:
320,0,298480,1,0,1:0:0:0:
448,0,298562,1,0,1:0:0:0:
192,0,298643,1,0,1:0:0:0:
320,0,298643,1,0,1:0:0:0:
64,0,298725,1,0,1:0:0:0:
320,0,298807,1,0,1:0:0:0:
448,0,298807,1,0,1:0:0:0:
64,0,298861,1,0,1:0:0:0:
192,0,298915,1,0,1:0:0:0:
320,0,298970,1,0,1:0:0:0:
64,0,299024,1,0,1:0:0:0:
192,0,299078,1,0,1:0:0:0:
320,0,299133,1,0,1:0:0:0:
448,0,299187,1,0,1:0:0:0:
64,0,299241,1,0,1:0:0:0:
192,0,299296,1,0,1:0:0:0:
320,0,299296,1,0,1:0:0:0:
448,0,299350,1,0,1:0:0:0:
64,0,299404,1,0,1:0:0:0:
192,0,299459,1,0,1:0:0:0:
320,0,299513,1,0,1:0:0:0:
448,0,299567,1,0,1:0:0:0:
64,0,299622,1,0,1:0:0:0:
192,0,299622,1,0,1:0:0:0:
320,0,299676,1,0,1:0:0:0:
448,0,299730,1,0,1:0:0:0:
64,0,299785,1,0,1:0:0:0:
192,0,299785,1,0,1:0:0:0:
320,0,299839,1,0,1:0:0:0:
448,0,299893,1,0,1:0:0:0:
64,0,299948,1,0,1:0:0:0:
192,0,299948,1,0,1:0:0:0:
320,0,300002,1,0,1:0:0:0:
448,0,300056,1,0,1:0:0:0:
64,0,300111,1,0,1:0:0:0:
192,0,300165,1,0,1:0:0:0:
320,0,300220,1,0,1:0:0:0:
448,0,300274,1,0,1:0:0:0:
64,0,300315,1,0,1:0:0:0:
192,0,300355,1,0,1:0:0:0:
320,0,300396,1,0,1:0:0:0:
448,0,300437,1,0,1:0:0:0:
64,0,300491,1,0,1:0:0:0:
192,0,300546,1,0,1:0:0:0:
320,0,300600,1,0,1:0:0:0:
448,0,300641,1,0,1:0:0:0:
64,0,300681,1,0,1:0:0:0:
192,0,300722,1,0,1:0:0:0:
320,0,300763,1,0,1:0:0:0:
448,0,300817,1,0,1:0:0:0:
64,0,300872,1,0,1:0:0:0:
192,0,300926,1,0,1:0:0:0:
320,0,300967,1,0,1:0:0:0:
448,0,301008,1,0,1:0:0:0:
64,0,301048,1,0,1:0:0:0:
192,0,301089,1,0,1:0:0:0:
320,0,301089,1,0,1:0:0:0:
64,0,301252,1,0,1:0:0:0:
448,0,301252,1,0,1:0:0:0:
192,0,301415,128,0,304024:0:0:0:0:
64,0,304024,1,0,1:0:0:0:
320,0,304024,1,0,1:0:0:0:
448,0,304024,1,0,1:0:0:0:
192,0,304105,1,0,1:0:0:0:
64,0,304187,1,0,1:0:0:0:
320,0,304187,1,0,1:0:0:0:
448,0,304187,1,0,1:0:0:0:
192,0,304268,1,0,1:0:0:0:
320,0,304350,1,0,1:0:0:0:
448,0,304350,1,0,1:0:0:0:
64,0,304431,1,0,1:0:0:0:
192,0,304513,1,0,1:0:0:0:
320,0,304513,1,0,1:0:0:0:
448,0,304513,1,0,1:0:0:0:
64,0,304594,1,0,1:0:0:0:
320,0,304676,1,0,1:0:0:0:
448,0,304676,1,0,1:0:0:0:
192,0,304757,1,0,1:0:0:0:
320,0,304839,1,0,1:0:0:0:
448,0,304839,1,0,1:0:0:0:
192,0,304920,1,0,1:0:0:0:
64,0,305002,1,0,1:0:0:0:
320,0,305002,1,0,1:0:0:0:
448,0,305002,1,0,1:0:0:0:
192,0,305084,1,0,1:0:0:0:
64,0,305165,1,0,1:0:0:0:
320,0,305165,1,0,1:0:0:0:
448,0,305165,1,0,1:0:0:0:
192,0,305247,1,0,1:0:0:0:
64,0,305328,1,0,1:0:0:0:
320,0,305328,1,0,1:0:0:0:
448,0,305328,1,0,1:0:0:0:
192,0,305410,1,0,1:0:0:0:
320,0,305491,1,0,1:0:0:0:
448,0,305491,1,0,1:0:0:0:
64,0,305573,1,0,1:0:0:0:
192,0,305654,1,0,1:0:0:0:
320,0,305654,1,0,1:0:0:0:
448,0,305736,1,0,1:0:0:0:
64,0,305817,1,0,1:0:0:0:
192,0,305817,1,0,1:0:0:0:
320,0,305817,1,0,1:0:0:0:
448,0,305899,1,0,1:0:0:0:
64,0,305980,1,0,1:0:0:0:
192,0,305980,1,0,1:0:0:0:
320,0,306062,1,0,1:0:0:0:
64,0,306143,1,0,1:0:0:0:
192,0,306143,1,0,1:0:0:0:
320,0,306225,1,0,1:0:0:0:
64,0,306306,1,0,1:0:0:0:
192,0,306306,1,0,1:0:0:0:
448,0,306306,1,0,1:0:0:0:
320,0,306388,1,0,1:0:0:0:
64,0,306469,1,0,1:0:0:0:
192,0,306469,1,0,1:0:0:0:
320,0,306551,1,0,1:0:0:0:
64,0,306632,1,0,1:0:0:0:
192,0,306632,1,0,1:0:0:0:
448,0,306632,1,0,1:0:0:0:
320,0,306714,1,0,1:0:0:0:
64,0,306795,1,0,1:0:0:0:
448,0,306795,1,0,1:0:0:0:
192,0,306877,1,0,1:0:0:0:
320,0,306958,1,0,1:0:0:0:
448,0,306958,1,0,1:0:0:0:
192,0,307040,1,0,1:0:0:0:
64,0,307122,1,0,1:0:0:0:
320,0,307122,1,0,1:0:0:0:
448,0,307122,1,0,1:0:0:0:
192,0,307203,1,0,1:0:0:0:
320,0,307285,1,0,1:0:0:0:
448,0,307285,1,0,1:0:0:0:
192,0,307366,1,0,1:0:0:0:
320,0,307448,1,0,1:0:0:0:
448,0,307448,1,0,1:0:0:0:
192,0,307529,1,0,1:0:0:0:
64,0,307611,1,0,1:0:0:0:
320,0,307611,1,0,1:0:0:0:
448,0,307611,1,0,1:0:0:0:
192,0,307692,1,0,1:0:0:0:
64,0,307774,1,0,1:0:0:0:
320,0,307774,1,0,1:0:0:0:
448,0,307774,1,0,1:0:0:0:
192,0,307855,1,0,1:0:0:0:
64,0,307937,1,0,1:0:0:0:
320,0,307937,1,0,1:0:0:0:
448,0,307937,1,0,1:0:0:0:
192,0,308018,1,0,1:0:0:0:
320,0,308100,1,0,1:0:0:0:
448,0,308100,1,0,1:0:0:0:
64,0,308181,1,0,1:0:0:0:
192,0,308263,1,0,1:0:0:0:
320,0,308263,1,0,1:0:0:0:
448,0,308263,1,0,1:0:0:0:
64,0,308344,1,0,1:0:0:0:
192,0,308426,1,0,1:0:0:0:
320,0,308426,1,0,1:0:0:0:
448,0,308426,1,0,1:0:0:0:
64,0,308507,1,0,1:0:0:0:
320,0,308589,1,0,1:0:0:0:
448,0,308589,1,0,1:0:0:0:
192,0,308670,1,0,1:0:0:0:
320,0,308752,1,0,1:0:0:0:
448,0,308752,1,0,1:0:0:0:
192,0,308833,1,0,1:0:0:0:
64,0,308915,1,0,1:0:0:0:
320,0,308915,1,0,1:0:0:0:
448,0,308915,1,0,1:0:0:0:
192,0,308996,1,0,1:0:0:0:
64,0,309078,1,0,1:0:0:0:
448,0,309078,1,0,1:0:0:0:
320,0,309159,1,0,1:0:0:0:
64,0,309241,1,0,1:0:0:0:
192,0,309241,1,0,1:0:0:0:
448,0,309241,1,0,1:0:0:0:
320,0,309323,1,0,1:0:0:0:
64,0,309404,1,0,1:0:0:0:
192,0,309404,1,0,1:0:0:0:
448,0,309486,1,0,1:0:0:0:
64,0,309567,1,0,1:0:0:0:
192,0,309567,1,0,1:0:0:0:
320,0,309649,1,0,1:0:0:0:
64,0,309730,1,0,1:0:0:0:
192,0,309730,1,0,1:0:0:0:
448,0,309730,1,0,1:0:0:0:
320,0,309812,1,0,1:0:0:0:
64,0,309893,1,0,1:0:0:0:
192,0,309893,1,0,1:0:0:0:
448,0,309975,1,0,1:0:0:0:
64,0,310056,1,0,1:0:0:0:
192,0,310056,1,0,1:0:0:0:
320,0,310056,1,0,1:0:0:0:
448,0,310138,1,0,1:0:0:0:
64,0,310219,1,0,1:0:0:0:
192,0,310219,1,0,1:0:0:0:
320,0,310219,1,0,1:0:0:0:
448,0,310301,1,0,1:0:0:0:
64,0,310382,1,0,1:0:0:0:
192,0,310382,1,0,1:0:0:0:
320,0,310382,1,0,1:0:0:0:
448,0,310464,1,0,1:0:0:0:
64,0,310545,1,0,1:0:0:0:
192,0,310545,1,0,1:0:0:0:
320,0,310545,1,0,1:0:0:0:
448,0,310627,1,0,1:0:0:0:
64,0,310708,1,0,1:0:0:0:
192,0,310708,1,0,1:0:0:0:
320,0,310790,1,0,1:0:0:0:
64,0,310871,1,0,1:0:0:0:
192,0,310871,1,0,1:0:0:0:
448,0,310871,1,0,1:0:0:0:
320,0,310953,1,0,1:0:0:0:
64,0,311034,1,0,1:0:0:0:
448,0,311034,1,0,1:0:0:0:
192,0,311116,1,0,1:0:0:0:
64,0,311197,1,0,1:0:0:0:
320,0,311197,1,0,1:0:0:0:
448,0,311197,1,0,1:0:0:0:
192,0,311279,1,0,1:0:0:0:
320,0,311361,1,0,1:0:0:0:
448,0,311361,1,0,1:0:0:0:
64,0,311442,1,0,1:0:0:0:
192,0,311524,1,0,1:0:0:0:
320,0,311524,1,0,1:0:0:0:
448,0,311524,1,0,1:0:0:0:
64,0,311605,1,0,1:0:0:0:
320,0,311687,1,0,1:0:0:0:
448,0,311687,1,0,1:0:0:0:
192,0,311768,1,0,1:0:0:0:
64,0,311850,1,0,1:0:0:0:
320,0,311850,1,0,1:0:0:0:
448,0,311850,1,0,1:0:0:0:
192,0,311931,1,0,1:0:0:0:
64,0,312013,1,0,1:0:0:0:
320,0,312013,1,0,1:0:0:0:
448,0,312013,1,0,1:0:0:0:
192,0,312094,1,0,1:0:0:0:
320,0,312176,1,0,1:0:0:0:
448,0,312176,1,0,1:0:0:0:
192,0,312257,1,0,1:0:0:0:
64,0,312339,1,0,1:0:0:0:
320,0,312339,1,0,1:0:0:0:
192,0,312420,1,0,1:0:0:0:
64,0,312502,1,0,1:0:0:0:
320,0,312502,1,0,1:0:0:0:
448,0,312502,1,0,1:0:0:0:
192,0,312583,1,0,1:0:0:0:
320,0,312665,1,0,1:0:0:0:
448,0,312665,1,0,1:0:0:0:
64,0,312746,1,0,1:0:0:0:
192,0,312828,1,0,1:0:0:0:
320,0,312828,1,0,1:0:0:0:
448,0,312828,1,0,1:0:0:0:
64,0,312909,1,0,1:0:0:0:
192,0,312991,1,0,1:0:0:0:
320,0,312991,1,0,1:0:0:0:
448,0,313072,1,0,1:0:0:0:
64,0,313154,1,0,1:0:0:0:
192,0,313154,1,0,1:0:0:0:
320,0,313154,1,0,1:0:0:0:
448,0,313235,1,0,1:0:0:0:
64,0,313317,1,0,1:0:0:0:
192,0,313317,1,0,1:0:0:0:
320,0,313317,1,0,1:0:0:0:
448,0,313399,1,0,1:0:0:0:
64,0,313480,1,0,1:0:0:0:
192,0,313480,1,0,1:0:0:0:
320,0,313562,1,0,1:0:0:0:
64,0,313643,1,0,1:0:0:0:
192,0,313643,1,0,1:0:0:0:
320,0,313725,1,0,1:0:0:0:
64,0,313806,1,0,1:0:0:0:
192,0,313806,1,0,1:0:0:0:
448,0,313806,1,0,1:0:0:0:
320,0,313888,1,0,1:0:0:0:
64,0,313969,1,0,1:0:0:0:
192,0,313969,1,0,1:0:0:0:
448,0,314051,1,0,1:0:0:0:
64,0,314132,1,0,1:0:0:0:
192,0,314132,1,0,1:0:0:0:
320,0,314132,1,0,1:0:0:0:
448,0,314214,1,0,1:0:0:0:
64,0,314295,1,0,1:0:0:0:
192,0,314295,1,0,1:0:0:0:
320,0,314377,1,0,1:0:0:0:
64,0,314458,1,0,1:0:0:0:
192,0,314458,1,0,1:0:0:0:
448,0,314458,1,0,1:0:0:0:
320,0,314540,1,0,1:0:0:0:
64,0,314621,1,0,1:0:0:0:
192,0,314621,1,0,1:0:0:0:
448,0,314703,1,0,1:0:0:0:
64,0,314784,1,0,1:0:0:0:
192,0,314784,1,0,1:0:0:0:
320,0,314784,1,0,1:0:0:0:
448,0,314866,1,0,1:0:0:0:
64,0,314947,1,0,1:0:0:0:
192,0,314947,1,0,1:0:0:0:
320,0,315029,1,0,1:0:0:0:
64,0,315110,1,0,1:0:0:0:
192,0,315110,1,0,1:0:0:0:
448,0,315110,1,0,1:0:0:0:
320,0,315192,1,0,1:0:0:0:
64,0,315273,1,0,1:0:0:0:
448,0,315273,1,0,1:0:0:0:
192,0,315355,1,0,1:0:0:0:
64,0,315436,1,0,1:0:0:0:
320,0,315436,1,0,1:0:0:0:
448,0,315436,1,0,1:0:0:0:
192,0,315518,1,0,1:0:0:0:
64,0,315600,1,0,1:0:0:0:
320,0,315600,1,0,1:0:0:0:
448,0,315600,1,0,1:0:0:0:
192,0,315681,1,0,1:0:0:0:
64,0,315763,1,0,1:0:0:0:
320,0,315763,1,0,1:0:0:0:
448,0,315763,1,0,1:0:0:0:
192,0,315844,1,0,1:0:0:0:
320,0,315926,1,0,1:0:0:0:
448,0,315926,1,0,1:0:0:0:
64,0,316007,1,0,1:0:0:0:
192,0,316089,1,0,1:0:0:0:
320,0,316089,1,0,1:0:0:0:
448,0,316089,1,0,1:0:0:0:
64,0,316170,1,0,1:0:0:0:
192,0,316252,1,0,1:0:0:0:
320,0,316252,1,0,1:0:0:0:
448,0,316252,1,0,1:0:0:0:
64,0,316333,1,0,1:0:0:0:
192,0,316415,1,0,1:0:0:0:
320,0,316415,1,0,1:0:0:0:
448,0,316415,1,0,1:0:0:0:
64,0,316496,1,0,1:0:0:0:
320,0,316578,1,0,1:0:0:0:
448,0,316578,1,0,1:0:0:0:
192,0,316659,1,0,1:0:0:0:
64,0,316741,1,0,1:0:0:0:
320,0,316741,1,0,1:0:0:0:
448,0,316741,1,0,1:0:0:0:
192,0,316822,1,0,1:0:0:0:
64,0,316904,1,0,1:0:0:0:
448,0,316904,1,0,1:0:0:0:
320,0,316985,1,0,1:0:0:0:
64,0,317067,1,0,1:0:0:0:
192,0,317067,1,0,1:0:0:0:
448,0,317067,1,0,1:0:0:0:
320,0,317148,1,0,1:0:0:0:
64,0,317230,1,0,1:0:0:0:
192,0,317230,1,0,1:0:0:0:
448,0,317311,1,0,1:0:0:0:
64,0,317393,1,0,1:0:0:0:
192,0,317393,1,0,1:0:0:0:
320,0,317393,1,0,1:0:0:0:
448,0,317474,1,0,1:0:0:0:
64,0,317556,1,0,1:0:0:0:
192,0,317556,1,0,1:0:0:0:
320,0,317638,1,0,1:0:0:0:
64,0,317719,1,0,1:0:0:0:
192,0,317719,1,0,1:0:0:0:
448,0,317719,1,0,1:0:0:0:
320,0,317801,1,0,1:0:0:0:
64,0,317882,1,0,1:0:0:0:
192,0,317882,1,0,1:0:0:0:
448,0,317964,1,0,1:0:0:0:
64,0,318045,1,0,1:0:0:0:
192,0,318045,1,0,1:0:0:0:
320,0,318045,1,0,1:0:0:0:
448,0,318127,1,0,1:0:0:0:
64,0,318208,1,0,1:0:0:0:
192,0,318208,1,0,1:0:0:0:
320,0,318208,1,0,1:0:0:0:
448,0,318290,1,0,1:0:0:0:
64,0,318371,1,0,1:0:0:0:
192,0,318371,1,0,1:0:0:0:
320,0,318371,1,0,1:0:0:0:
448,0,318453,1,0,1:0:0:0:
64,0,318534,1,0,1:0:0:0:
192,0,318534,1,0,1:0:0:0:
320,0,318616,1,0,1:0:0:0:
64,0,318697,1,0,1:0:0:0:
192,0,318697,1,0,1:0:0:0:
448,0,318697,1,0,1:0:0:0:
320,0,318779,1,0,1:0:0:0:
64,0,318860,1,0,1:0:0:0:
192,0,318860,1,0,1:0:0:0:
448,0,318942,1,0,1:0:0:0:
64,0,319023,1,0,1:0:0:0:
192,0,319023,1,0,1:0:0:0:
320,0,319023,1,0,1:0:0:0:
448,0,319105,1,0,1:0:0:0:
64,0,319186,1,0,1:0:0:0:
192,0,319186,1,0,1:0:0:0:
320,0,319268,1,0,1:0:0:0:
64,0,319349,1,0,1:0:0:0:
192,0,319349,1,0,1:0:0:0:
448,0,319349,1,0,1:0:0:0:
320,0,319431,1,0,1:0:0:0:
64,0,319512,1,0,1:0:0:0:
448,0,319512,1,0,1:0:0:0:
192,0,319594,1,0,1:0:0:0:
64,0,319676,1,0,1:0:0:0:
320,0,319676,1,0,1:0:0:0:
448,0,319676,1,0,1:0:0:0:
192,0,319757,1,0,1:0:0:0:
320,0,319839,1,0,1:0:0:0:
448,0,319839,1,0,1:0:0:0:
64,0,319920,1,0,1:0:0:0:
192,0,320002,1,0,1:0:0:0:
320,0,320002,1,0,1:0:0:0:
448,0,320002,1,0,1:0:0:0:
64,0,320083,1,0,1:0:0:0:
192,0,320165,1,0,1:0:0:0:
320,0,320165,1,0,1:0:0:0:
448,0,320165,1,0,1:0:0:0:
64,0,320246,1,0,1:0:0:0:
192,0,320328,1,0,1:0:0:0:
320,0,320328,1,0,1:0:0:0:
448,0,320328,1,0,1:0:0:0:
64,0,320409,1,0,1:0:0:0:
192,0,320491,1,0,1:0:0:0:
320,0,320491,1,0,1:0:0:0:
448,0,320491,1,0,1:0:0:0:
64,0,320572,1,0,1:0:0:0:
192,0,320654,1,0,1:0:0:0:
320,0,320654,1,0,1:0:0:0:
448,0,320654,1,0,1:0:0:0:
64,0,320735,1,0,1:0:0:0:
320,0,320817,1,0,1:0:0:0:
448,0,320817,1,0,1:0:0:0:
192,0,320898,1,0,1:0:0:0:
64,0,320980,1,0,1:0:0:0:
320,0,320980,1,0,1:0:0:0:
448,0,320980,1,0,1:0:0:0:
192,0,321061,1,0,1:0:0:0:
64,0,321143,1,0,1:0:0:0:
448,0,321143,1,0,1:0:0:0:
320,0,321224,1,0,1:0:0:0:
64,0,321306,1,0,1:0:0:0:
192,0,321306,1,0,1:0:0:0:
448,0,321306,1,0,1:0:0:0:
320,0,321387,1,0,1:0:0:0:
64,0,321469,1,0,1:0:0:0:
192,0,321469,1,0,1:0:0:0:
448,0,321550,1,0,1:0:0:0:
64,0,321632,1,0,1:0:0:0:
192,0,321632,1,0,1:0:0:0:
320,0,321632,1,0,1:0:0:0:
448,0,321714,1,0,1:0:0:0:
64,0,321795,1,0,1:0:0:0:
192,0,321795,1,0,1:0:0:0:
320,0,321877,1,0,1:0:0:0:
64,0,321958,1,0,1:0:0:0:
192,0,321958,1,0,1:0:0:0:
448,0,321958,1,0,1:0:0:0:
320,0,322040,1,0,1:0:0:0:
64,0,322121,1,0,1:0:0:0:
192,0,322121,1,0,1:0:0:0:
448,0,322121,1,0,1:0:0:0:
320,0,322203,1,0,1:0:0:0:
64,0,322284,1,0,1:0:0:0:
192,0,322284,1,0,1:0:0:0:
448,0,322284,1,0,1:0:0:0:
320,0,322366,1,0,1:0:0:0:
64,0,322447,1,0,1:0:0:0:
192,0,322447,1,0,1:0:0:0:
448,0,322529,1,0,1:0:0:0:
64,0,322610,1,0,1:0:0:0:
192,0,322610,1,0,1:0:0:0:
320,0,322610,1,0,1:0:0:0:
448,0,322692,1,0,1:0:0:0:
64,0,322773,1,0,1:0:0:0:
192,0,322773,1,0,1:0:0:0:
320,0,322855,1,0,1:0:0:0:
64,0,322936,1,0,1:0:0:0:
192,0,322936,1,0,1:0:0:0:
448,0,322936,1,0,1:0:0:0:
320,0,323018,1,0,1:0:0:0:
64,0,323099,1,0,1:0:0:0:
448,0,323099,1,0,1:0:0:0:
192,0,323181,1,0,1:0:0:0:
64,0,323262,1,0,1:0:0:0:
320,0,323262,1,0,1:0:0:0:
448,0,323262,1,0,1:0:0:0:
192,0,323344,1,0,1:0:0:0:
320,0,323425,1,0,1:0:0:0:
448,0,323425,1,0,1:0:0:0:
64,0,323507,1,0,1:0:0:0:
192,0,323588,1,0,1:0:0:0:
320,0,323588,1,0,1:0:0:0:
448,0,323588,1,0,1:0:0:0:
64,0,323670,1,0,1:0:0:0:
320,0,323751,1,0,1:0:0:0:
448,0,323751,1,0,1:0:0:0:
192,0,323833,1,0,1:0:0:0:
64,0,323915,1,0,1:0:0:0:
448,0,323915,1,0,1:0:0:0:
192,0,323996,1,0,1:0:0:0:
320,0,323996,1,0,1:0:0:0:
64,0,324078,1,0,1:0:0:0:
448,0,324078,1,0,1:0:0:0:
192,0,324159,1,0,1:0:0:0:
320,0,324159,1,0,1:0:0:0:
64,0,324241,1,0,1:0:0:0:
448,0,324241,1,0,1:0:0:0:
192,0,324322,1,0,1:0:0:0:
320,0,324322,1,0,1:0:0:0:
64,0,324404,1,0,1:0:0:0:
448,0,324404,1,0,1:0:0:0:
192,0,324485,1,0,1:0:0:0:
320,0,324485,1,0,1:0:0:0:
64,0,324567,1,0,1:0:0:0:
448,0,324567,1,0,1:0:0:0:
192,0,324648,1,0,1:0:0:0:
320,0,324648,1,0,1:0:0:0:
64,0,324730,1,0,1:0:0:0:
448,0,324730,1,0,1:0:0:0:
192,0,324811,1,0,1:0:0:0:
320,0,324811,1,0,1:0:0:0:
64,0,324893,1,0,1:0:0:0:
448,0,324893,1,0,1:0:0:0:
192,0,324974,1,0,1:0:0:0:
64,0,325056,1,0,1:0:0:0:
320,0,325056,1,0,1:0:0:0:
448,0,325137,1,0,1:0:0:0:
64,0,325219,1,0,1:0:0:0:
192,0,325219,1,0,1:0:0:0:
320,0,325219,1,0,1:0:0:0:
448,0,325300,1,0,1:0:0:0:
64,0,325382,1,0,1:0:0:0:
192,0,325382,1,0,1:0:0:0:
320,0,325382,1,0,1:0:0:0:
448,0,325463,1,0,1:0:0:0:
64,0,325545,1,0,1:0:0:0:
192,0,325545,1,0,1:0:0:0:
320,0,325545,1,0,1:0:0:0:
448,0,325626,1,0,1:0:0:0:
64,0,325708,1,0,1:0:0:0:
192,0,325708,1,0,1:0:0:0:
320,0,325789,1,0,1:0:0:0:
64,0,325871,1,0,1:0:0:0:
192,0,325871,1,0,1:0:0:0:
448,0,325871,1,0,1:0:0:0:
320,0,325953,1,0,1:0:0:0:
64,0,326034,1,0,1:0:0:0:
448,0,326034,1,0,1:0:0:0:
192,0,326116,1,0,1:0:0:0:
64,0,326197,1,0,1:0:0:0:
320,0,326197,1,0,1:0:0:0:
448,0,326197,1,0,1:0:0:0:
192,0,326279,1,0,1:0:0:0:
320,0,326360,1,0,1:0:0:0:
448,0,326360,1,0,1:0:0:0:
64,0,326442,1,0,1:0:0:0:
192,0,326523,1,0,1:0:0:0:
320,0,326523,1,0,1:0:0:0:
448,0,326523,1,0,1:0:0:0:
64,0,326605,1,0,1:0:0:0:
192,0,326686,1,0,1:0:0:0:
320,0,326686,1,0,1:0:0:0:
448,0,326686,1,0,1:0:0:0:
64,0,326768,1,0,1:0:0:0:
192,0,326849,1,0,1:0:0:0:
320,0,326849,1,0,1:0:0:0:
448,0,326849,1,0,1:0:0:0:
64,0,326931,1,0,1:0:0:0:
320,0,327012,1,0,1:0:0:0:
448,0,327012,1,0,1:0:0:0:
192,0,327094,1,0,1:0:0:0:
64,0,327175,1,0,1:0:0:0:
320,0,327175,1,0,1:0:0:0:
448,0,327175,1,0,1:0:0:0:
192,0,327257,1,0,1:0:0:0:
64,0,327338,1,0,1:0:0:0:
448,0,327338,1,0,1:0:0:0:
320,0,327420,1,0,1:0:0:0:
64,0,327501,1,0,1:0:0:0:
192,0,327501,1,0,1:0:0:0:
448,0,327501,1,0,1:0:0:0:
320,0,327583,1,0,1:0:0:0:
64,0,327664,1,0,1:0:0:0:
192,0,327664,1,0,1:0:0:0:
448,0,327746,1,0,1:0:0:0:
64,0,327827,1,0,1:0:0:0:
192,0,327827,1,0,1:0:0:0:
320,0,327827,1,0,1:0:0:0:
448,0,327909,1,0,1:0:0:0:
64,0,327991,1,0,1:0:0:0:
192,0,327991,1,0,1:0:0:0:
320,0,327991,1,0,1:0:0:0:
448,0,328072,1,0,1:0:0:0:
64,0,328154,1,0,1:0:0:0:
192,0,328154,1,0,1:0:0:0:
320,0,328154,1,0,1:0:0:0:
448,0,328235,1,0,1:0:0:0:
64,0,328317,1,0,1:0:0:0:
192,0,328317,1,0,1:0:0:0:
320,0,328398,1,0,1:0:0:0:
64,0,328480,1,0,1:0:0:0:
192,0,328480,1,0,1:0:0:0:
448,0,328480,1,0,1:0:0:0:
320,0,328561,1,0,1:0:0:0:
64,0,328643,1,0,1:0:0:0:
192,0,328643,1,0,1:0:0:0:
448,0,328724,1,0,1:0:0:0:
64,0,328806,1,0,1:0:0:0:
192,0,328806,1,0,1:0:0:0:
320,0,328806,1,0,1:0:0:0:
448,0,328887,1,0,1:0:0:0:
64,0,328969,1,0,1:0:0:0:
192,0,328969,1,0,1:0:0:0:
320,0,329050,1,0,1:0:0:0:
64,0,329132,1,0,1:0:0:0:
192,0,329132,1,0,1:0:0:0:
448,0,329132,1,0,1:0:0:0:
320,0,329213,1,0,1:0:0:0:
64,0,329295,1,0,1:0:0:0:
192,0,329295,1,0,1:0:0:0:
448,0,329376,1,0,1:0:0:0:
64,0,329458,1,0,1:0:0:0:
192,0,329458,1,0,1:0:0:0:
320,0,329458,1,0,1:0:0:0:
448,0,329539,1,0,1:0:0:0:
64,0,329621,1,0,1:0:0:0:
192,0,329621,1,0,1:0:0:0:
320,0,329702,1,0,1:0:0:0:
64,0,329784,1,0,1:0:0:0:
192,0,329784,1,0,1:0:0:0:
448,0,329784,1,0,1:0:0:0:
320,0,329865,1,0,1:0:0:0:
64,0,329947,1,0,1:0:0:0:
448,0,329947,1,0,1:0:0:0:
192,0,330028,1,0,1:0:0:0:
64,0,330110,1,0,1:0:0:0:
320,0,330110,1,0,1:0:0:0:
448,0,330110,1,0,1:0:0:0:
192,0,330192,1,0,1:0:0:0:
320,0,330273,1,0,1:0:0:0:
448,0,330273,1,0,1:0:0:0:
64,0,330355,1,0,1:0:0:0:
192,0,330436,1,0,1:0:0:0:
320,0,330436,1,0,1:0:0:0:
448,0,330436,1,0,1:0:0:0:
64,0,330518,1,0,1:0:0:0:
320,0,330599,1,0,1:0:0:0:
448,0,330599,1,0,1:0:0:0:
192,0,330681,1,0,1:0:0:0:
64,0,330762,1,0,1:0:0:0:
320,0,330762,1,0,1:0:0:0:
448,0,330762,1,0,1:0:0:0:
192,0,330844,1,0,1:0:0:0:
64,0,330925,1,0,1:0:0:0:
320,0,330925,1,0,1:0:0:0:
448,0,330925,1,0,1:0:0:0:
192,0,331007,1,0,1:0:0:0:
64,0,331088,1,0,1:0:0:0:
320,0,331088,1,0,1:0:0:0:
448,0,331088,1,0,1:0:0:0:
192,0,331170,1,0,1:0:0:0:
64,0,331251,1,0,1:0:0:0:
320,0,331251,1,0,1:0:0:0:
448,0,331251,1,0,1:0:0:0:
192,0,331333,1,0,1:0:0:0:
64,0,331414,1,0,1:0:0:0:
320,0,331414,1,0,1:0:0:0:
448,0,331414,1,0,1:0:0:0:
192,0,331496,1,0,1:0:0:0:
64,0,331577,1,0,1:0:0:0:
448,0,331577,1,0,1:0:0:0:
320,0,331659,1,0,1:0:0:0:
64,0,331740,1,0,1:0:0:0:
192,0,331740,1,0,1:0:0:0:
448,0,331740,1,0,1:0:0:0:
320,0,331822,1,0,1:0:0:0:
64,0,331903,1,0,1:0:0:0:
192,0,331903,1,0,1:0:0:0:
448,0,331985,1,0,1:0:0:0:
64,0,332066,1,0,1:0:0:0:
192,0,332066,1,0,1:0:0:0:
320,0,332066,1,0,1:0:0:0:
448,0,332148,1,0,1:0:0:0:
64,0,332230,1,0,1:0:0:0:
192,0,332230,1,0,1:0:0:0:
320,0,332311,1,0,1:0:0:0:
64,0,332393,1,0,1:0:0:0:
192,0,332393,1,0,1:0:0:0:
448,0,332393,1,0,1:0:0:0:
320,0,332474,1,0,1:0:0:0:
64,0,332556,1,0,1:0:0:0:
192,0,332556,1,0,1:0:0:0:
448,0,332637,1,0,1:0:0:0:
64,0,332719,1,0,1:0:0:0:
192,0,332719,1,0,1:0:0:0:
320,0,332719,1,0,1:0:0:0:
448,0,332800,1,0,1:0:0:0:
64,0,332882,1,0,1:0:0:0:
192,0,332882,1,0,1:0:0:0:
320,0,332963,1,0,1:0:0:0:
64,0,333045,1,0,1:0:0:0:
192,0,333045,1,0,1:0:0:0:
448,0,333045,1,0,1:0:0:0:
320,0,333126,1,0,1:0:0:0:
64,0,333208,1,0,1:0:0:0:
448,0,333208,1,0,1:0:0:0:
192,0,333289,1,0,1:0:0:0:
64,0,333371,1,0,1:0:0:0:
320,0,333371,1,0,1:0:0:0:
448,0,333371,1,0,1:0:0:0:
192,0,333452,1,0,1:0:0:0:
320,0,333534,1,0,1:0:0:0:
448,0,333534,1,0,1:0:0:0:
64,0,333615,1,0,1:0:0:0:
192,0,333697,1,0,1:0:0:0:
320,0,333697,1,0,1:0:0:0:
448,0,333697,1,0,1:0:0:0:
64,0,333778,1,0,1:0:0:0:
320,0,333860,1,0,1:0:0:0:
448,0,333860,1,0,1:0:0:0:
192,0,333941,1,0,1:0:0:0:
64,0,334023,1,0,1:0:0:0:
320,0,334023,1,0,1:0:0:0:
448,0,334023,1,0,1:0:0:0:
192,0,334104,1,0,1:0:0:0:
320,0,334186,1,0,1:0:0:0:
448,0,334186,1,0,1:0:0:0:
64,0,334268,1,0,1:0:0:0:
192,0,334349,1,0,1:0:0:0:
320,0,334349,1,0,1:0:0:0:
448,0,334349,1,0,1:0:0:0:
64,0,334431,1,0,1:0:0:0:
320,0,334512,1,0,1:0:0:0:
448,0,334512,1,0,1:0:0:0:
192,0,334594,1,0,1:0:0:0:
64,0,334675,1,0,1:0:0:0:
320,0,334675,1,0,1:0:0:0:
448,0,334675,1,0,1:0:0:0:
192,0,334757,1,0,1:0:0:0:
64,0,334838,1,0,1:0:0:0:
320,0,334838,1,0,1:0:0:0:
448,0,334838,1,0,1:0:0:0:
192,0,334920,1,0,1:0:0:0:
64,0,335001,1,0,1:0:0:0:
320,0,335001,1,0,1:0:0:0:
448,0,335001,1,0,1:0:0:0:
192,0,335083,1,0,1:0:0:0:
320,0,335164,1,0,1:0:0:0:
448,0,335164,1,0,1:0:0:0:
64,0,335246,1,0,1:0:0:0:
192,0,335327,1,0,1:0:0:0:
320,0,335327,1,0,1:0:0:0:
448,0,335327,1,0,1:0:0:0:
64,0,335409,1,0,1:0:0:0:
320,0,335490,1,0,1:0:0:0:
448,0,335490,1,0,1:0:0:0:
192,0,335572,1,0,1:0:0:0:
64,0,335653,1,0,1:0:0:0:
320,0,335653,1,0,1:0:0:0:
448,0,335653,1,0,1:0:0:0:
192,0,335735,1,0,1:0:0:0:
320,0,335816,1,0,1:0:0:0:
448,0,335816,1,0,1:0:0:0:
64,0,335898,1,0,1:0:0:0:
192,0,335898,1,0,1:0:0:0:
320,0,335979,1,0,1:0:0:0:
448,0,335979,1,0,1:0:0:0:
64,0,336061,1,0,1:0:0:0:
192,0,336061,1,0,1:0:0:0:
320,0,336142,1,0,1:0:0:0:
448,0,336142,1,0,1:0:0:0:
192,0,336224,1,0,1:0:0:0:
64,0,336305,1,0,1:0:0:0:
320,0,336305,1,0,1:0:0:0:
448,0,336305,1,0,1:0:0:0:
192,0,336387,1,0,1:0:0:0:
64,0,336469,1,0,1:0:0:0:
320,0,336469,1,0,1:0:0:0:
448,0,336469,1,0,1:0:0:0:
192,0,336550,1,0,1:0:0:0:
64,0,336632,1,0,1:0:0:0:
320,0,336632,1,0,1:0:0:0:
448,0,336632,1,0,1:0:0:0:
192,0,336713,1,0,1:0:0:0:
64,0,336795,1,0,1:0:0:0:
448,0,336795,1,0,1:0:0:0:
320,0,336876,1,0,1:0:0:0:
64,0,336958,1,0,1:0:0:0:
192,0,336958,1,0,1:0:0:0:
448,0,336958,1,0,1:0:0:0:
320,0,337039,1,0,1:0:0:0:
64,0,337121,1,0,1:0:0:0:
192,0,337121,1,0,1:0:0:0:
448,0,337121,1,0,1:0:0:0:
320,0,337202,1,0,1:0:0:0:
64,0,337284,1,0,1:0:0:0:
192,0,337284,1,0,1:0:0:0:
320,0,337365,1,0,1:0:0:0:
448,0,337365,1,0,1:0:0:0:
64,0,337447,1,0,1:0:0:0:
192,0,337447,1,0,1:0:0:0:
320,0,337528,1,0,1:0:0:0:
64,0,337610,1,0,1:0:0:0:
192,0,337610,1,0,1:0:0:0:
448,0,337610,1,0,1:0:0:0:
320,0,337691,1,0,1:0:0:0:
64,0,337773,1,0,1:0:0:0:
192,0,337773,1,0,1:0:0:0:
448,0,337773,1,0,1:0:0:0:
320,0,337854,1,0,1:0:0:0:
64,0,337936,1,0,1:0:0:0:
192,0,337936,1,0,1:0:0:0:
448,0,337936,1,0,1:0:0:0:
320,0,338017,1,0,1:0:0:0:
64,0,338099,1,0,1:0:0:0:
192,0,338099,1,0,1:0:0:0:
320,0,338180,1,0,1:0:0:0:
64,0,338262,1,0,1:0:0:0:
192,0,338262,1,0,1:0:0:0:
448,0,338262,1,0,1:0:0:0:
320,0,338343,1,0,1:0:0:0:
64,0,338425,1,0,1:0:0:0:
192,0,338425,1,0,1:0:0:0:
448,0,338425,1,0,1:0:0:0:
320,0,338507,1,0,1:0:0:0:
64,0,338588,1,0,1:0:0:0:
448,0,338588,1,0,1:0:0:0:
192,0,338670,1,0,1:0:0:0:
320,0,338670,1,0,1:0:0:0:
64,0,338751,1,0,1:0:0:0:
448,0,338751,1,0,1:0:0:0:
192,0,338833,1,0,1:0:0:0:
64,0,338914,1,0,1:0:0:0:
320,0,338914,1,0,1:0:0:0:
448,0,338914,1,0,1:0:0:0:
192,0,338996,1,0,1:0:0:0:
320,0,339077,1,0,1:0:0:0:
448,0,339077,1,0,1:0:0:0:
64,0,339159,1,0,1:0:0:0:
192,0,339240,1,0,1:0:0:0:
320,0,339240,1,0,1:0:0:0:
448,0,339240,1,0,1:0:0:0:
64,0,339322,1,0,1:0:0:0:
320,0,339403,1,0,1:0:0:0:
448,0,339403,1,0,1:0:0:0:
192,0,339485,1,0,1:0:0:0:
64,0,339566,1,0,1:0:0:0:
320,0,339566,1,0,1:0:0:0:
448,0,339566,1,0,1:0:0:0:
192,0,339648,1,0,1:0:0:0:
320,0,339729,1,0,1:0:0:0:
448,0,339729,1,0,1:0:0:0:
64,0,339811,1,0,1:0:0:0:
192,0,339811,1,0,1:0:0:0:
320,0,339892,1,0,1:0:0:0:
448,0,339892,1,0,1:0:0:0:
64,0,339974,1,0,1:0:0:0:
192,0,339974,1,0,1:0:0:0:
320,0,340055,1,0,1:0:0:0:
448,0,340055,1,0,1:0:0:0:
64,0,340137,1,0,1:0:0:0:
192,0,340218,1,0,1:0:0:0:
320,0,340218,1,0,1:0:0:0:
448,0,340218,1,0,1:0:0:0:
64,0,340300,1,0,1:0:0:0:
320,0,340381,1,0,1:0:0:0:
448,0,340381,1,0,1:0:0:0:
192,0,340463,1,0,1:0:0:0:
64,0,340545,1,0,1:0:0:0:
320,0,340545,1,0,1:0:0:0:
448,0,340545,1,0,1:0:0:0:
192,0,340626,1,0,1:0:0:0:
64,0,340708,1,0,1:0:0:0:
448,0,340708,1,0,1:0:0:0:
192,0,340789,1,0,1:0:0:0:
320,0,340789,1,0,1:0:0:0:
64,0,340871,1,0,1:0:0:0:
448,0,340871,1,0,1:0:0:0:
320,0,340952,1,0,1:0:0:0:
64,0,341034,1,0,1:0:0:0:
192,0,341034,1,0,1:0:0:0:
448,0,341034,1,0,1:0:0:0:
320,0,341115,1,0,1:0:0:0:
64,0,341197,1,0,1:0:0:0:
192,0,341197,1,0,1:0:0:0:
320,0,341278,1,0,1:0:0:0:
448,0,341278,1,0,1:0:0:0:
64,0,341360,1,0,1:0:0:0:
192,0,341360,1,0,1:0:0:0:
320,0,341441,1,0,1:0:0:0:
64,0,341523,1,0,1:0:0:0:
192,0,341523,1,0,1:0:0:0:
448,0,341523,1,0,1:0:0:0:
320,0,341604,1,0,1:0:0:0:
64,0,341686,1,0,1:0:0:0:
192,0,341686,1,0,1:0:0:0:
448,0,341767,1,0,1:0:0:0:
64,0,341849,1,0,1:0:0:0:
192,0,341849,1,0,1:0:0:0:
320,0,341849,1,0,1:0:0:0:
448,0,341930,1,0,1:0:0:0:
64,0,342012,1,0,1:0:0:0:
192,0,342012,1,0,1:0:0:0:
320,0,342093,1,0,1:0:0:0:
64,0,342175,1,0,1:0:0:0:
192,0,342175,1,0,1:0:0:0:
448,0,342175,1,0,1:0:0:0:
320,0,342256,1,0,1:0:0:0:
64,0,342338,1,0,1:0:0:0:
192,0,342338,1,0,1:0:0:0:
448,0,342338,1,0,1:0:0:0:
320,0,342419,1,0,1:0:0:0:
64,0,342501,1,0,1:0:0:0:
192,0,342501,1,0,1:0:0:0:
320,0,342583,1,0,1:0:0:0:
448,0,342583,1,0,1:0:0:0:
64,0,342664,1,0,1:0:0:0:
192,0,342664,1,0,1:0:0:0:
320,0,342746,1,0,1:0:0:0:
64,0,342827,1,0,1:0:0:0:
192,0,342827,1,0,1:0:0:0:
448,0,342827,1,0,1:0:0:0:
320,0,342909,1,0,1:0:0:0:
64,0,342990,1,0,1:0:0:0:
192,0,342990,1,0,1:0:0:0:
448,0,343072,1,0,1:0:0:0:
64,0,343153,1,0,1:0:0:0:
192,0,343153,1,0,1:0:0:0:
320,0,343153,1,0,1:0:0:0:
448,0,343235,1,0,1:0:0:0:
64,0,343316,1,0,1:0:0:0:
192,0,343316,1,0,1:0:0:0:
320,0,343398,1,0,1:0:0:0:
448,0,343398,1,0,1:0:0:0:
64,0,343479,1,0,1:0:0:0:
192,0,343479,1,0,1:0:0:0:
320,0,343561,1,0,1:0:0:0:
64,0,343642,1,0,1:0:0:0:
192,0,343642,1,0,1:0:0:0:
448,0,343642,1,0,1:0:0:0:
320,0,343724,1,0,1:0:0:0:
64,0,343805,1,0,1:0:0:0:
448,0,343805,1,0,1:0:0:0:
192,0,343887,1,0,1:0:0:0:
320,0,343887,1,0,1:0:0:0:
64,0,343968,1,0,1:0:0:0:
448,0,343968,1,0,1:0:0:0:
192,0,344050,1,0,1:0:0:0:
64,0,344131,1,0,1:0:0:0:
320,0,344131,1,0,1:0:0:0:
448,0,344131,1,0,1:0:0:0:
192,0,344213,1,0,1:0:0:0:
320,0,344294,1,0,1:0:0:0:
448,0,344294,1,0,1:0:0:0:
64,0,344376,1,0,1:0:0:0:
192,0,344376,1,0,1:0:0:0:
320,0,344457,1,0,1:0:0:0:
448,0,344457,1,0,1:0:0:0:
192,0,344539,1,0,1:0:0:0:
64,0,344620,1,0,1:0:0:0:
320,0,344620,1,0,1:0:0:0:
448,0,344620,1,0,1:0:0:0:
192,0,344702,1,0,1:0:0:0:
320,0,344784,1,0,1:0:0:0:
448,0,344784,1,0,1:0:0:0:
64,0,344865,1,0,1:0:0:0:
192,0,344865,1,0,1:0:0:0:
320,0,344947,1,0,1:0:0:0:
448,0,344947,1,0,1:0:0:0:
192,0,345028,1,0,1:0:0:0:
64,0,345110,1,0,1:0:0:0:
320,0,345110,1,0,1:0:0:0:
448,0,345110,1,0,1:0:0:0:
192,0,345191,1,0,1:0:0:0:
64,0,345273,1,0,1:0:0:0:
448,0,345273,1,0,1:0:0:0:
320,0,345354,1,0,1:0:0:0:
64,0,345436,1,0,1:0:0:0:
192,0,345436,1,0,1:0:0:0:
448,0,345436,1,0,1:0:0:0:
320,0,345517,1,0,1:0:0:0:
64,0,345599,1,0,1:0:0:0:
192,0,345599,1,0,1:0:0:0:
448,0,345680,1,0,1:0:0:0:
64,0,345762,1,0,1:0:0:0:
192,0,345762,1,0,1:0:0:0:
320,0,345762,1,0,1:0:0:0:
448,0,345843,1,0,1:0:0:0:
64,0,345925,1,0,1:0:0:0:
192,0,345925,1,0,1:0:0:0:
320,0,346006,1,0,1:0:0:0:
64,0,346088,1,0,1:0:0:0:
192,0,346088,1,0,1:0:0:0:
448,0,346088,1,0,1:0:0:0:
320,0,346169,1,0,1:0:0:0:
64,0,346251,1,0,1:0:0:0:
192,0,346251,1,0,1:0:0:0:
448,0,346332,1,0,1:0:0:0:
64,0,346414,1,0,1:0:0:0:
192,0,346414,1,0,1:0:0:0:
320,0,346414,1,0,1:0:0:0:
448,0,346495,1,0,1:0:0:0:
64,0,346577,1,0,1:0:0:0:
192,0,346577,1,0,1:0:0:0:
320,0,346658,1,0,1:0:0:0:
64,0,346740,1,0,1:0:0:0:
192,0,346740,1,0,1:0:0:0:
448,0,346740,1,0,1:0:0:0:
320,0,346822,1,0,1:0:0:0:
64,0,346903,1,0,1:0:0:0:
448,0,346903,1,0,1:0:0:0:
192,0,346985,1,0,1:0:0:0:
64,0,347066,1,0,1:0:0:0:
448,0,347066,1,0,1:0:0:0:
192,0,347148,1,0,1:0:0:0:
320,0,347148,1,0,1:0:0:0:
64,0,347229,1,0,1:0:0:0:
448,0,347229,1,0,1:0:0:0:
192,0,347311,1,0,1:0:0:0:
64,0,347392,1,0,1:0:0:0:
320,0,347392,1,0,1:0:0:0:
192,0,347474,1,0,1:0:0:0:
448,0,347474,1,0,1:0:0:0:
64,0,347555,1,0,1:0:0:0:
320,0,347555,1,0,1:0:0:0:
448,0,347637,1,0,1:0:0:0:
64,0,347718,1,0,1:0:0:0:
192,0,347718,1,0,1:0:0:0:
320,0,347800,1,0,1:0:0:0:
448,0,347800,1,0,1:0:0:0:
64,0,347881,1,0,1:0:0:0:
192,0,347881,1,0,1:0:0:0:
320,0,347963,1,0,1:0:0:0:
64,0,348044,1,0,1:0:0:0:
448,0,348044,1,0,1:0:0:0:
192,0,348126,1,0,1:0:0:0:
320,0,348126,1,0,1:0:0:0:
64,0,348207,1,0,1:0:0:0:
448,0,348207,1,0,1:0:0:0:
320,0,348289,1,0,1:0:0:0:
448,0,348370,1,0,1:0:0:0:
64,0,348370,128,0,350164:0:0:0:0:
192,0,348370,128,0,350164:0:0:0:0:
448,0,348860,1,0,1:0:0:0:
448,0,349186,1,0,1:0:0:0:
448,0,349512,1,0,1:0:0:0:
448,0,349838,1,0,1:0:0:0:
448,0,350164,1,0,1:0:0:0:
64,0,350327,128,0,350816:0:0:0:0:
192,0,350327,128,0,350816:0:0:0:0:
320,0,350327,128,0,350816:0:0:0:0:
448,0,350327,128,0,350816:0:0:0:0:
64,0,350979,1,0,1:0:0:0:
192,0,350979,1,0,1:0:0:0:
320,0,350979,1,0,1:0:0:0:
448,0,350979,1,0,1:0:0:0:
64,0,351631,1,0,1:0:0:0:
192,0,351631,1,0,1:0:0:0:
320,0,351631,1,0,1:0:0:0:
448,0,351631,1,0,1:0:0:0:
64,0,351794,1,0,1:0:0:0:
448,0,351794,1,0,1:0:0:0:
64,0,351957,1,0,1:0:0:0:
192,0,351957,1,0,1:0:0:0:
320,0,351957,1,0,1:0:0:0:
192,0,352120,1,0,1:0:0:0:
320,0,352120,1,0,1:0:0:0:
448,0,352120,1,0,1:0:0:0:
64,0,352283,1,0,1:0:0:0:
192,0,352283,1,0,1:0:0:0:
320,0,352283,1,0,1:0:0:0:
448,0,352283,1,0,1:0:0:0:
64,0,352446,1,0,1:0:0:0:
192,0,352446,1,0,1:0:0:0:
320,0,352446,1,0,1:0:0:0:
64,0,352609,1,0,1:0:0:0:
320,0,352609,1,0,1:0:0:0:
448,0,352609,1,0,1:0:0:0:
64,0,352772,1,0,1:0:0:0:
192,0,352772,1,0,1:0:0:0:
448,0,352772,1,0,1:0:0:0:
64,0,352935,1,0,1:0:0:0:
192,0,352935,1,0,1:0:0:0:
320,0,352935,1,0,1:0:0:0:
448,0,352935,1,0,1:0:0:0:
192,0,353099,1,0,1:0:0:0:
320,0,353099,1,0,1:0:0:0:
64,0,353262,1,0,1:0:0:0:
192,0,353262,1,0,1:0:0:0:
448,0,353262,1,0,1:0:0:0:
64,0,353425,1,0,1:0:0:0:
448,0,353425,1,0,1:0:0:0:
64,0,353588,1,0,1:0:0:0:
192,0,353588,1,0,1:0:0:0:
320,0,353588,1,0,1:0:0:0:
448,0,353588,1,0,1:0:0:0:
192,0,353751,1,0,1:0:0:0:
320,0,353751,1,0,1:0:0:0:
64,0,353914,1,0,1:0:0:0:
320,0,353914,1,0,1:0:0:0:
192,0,354077,1,0,1:0:0:0:
448,0,354077,1,0,1:0:0:0:
64,0,354240,1,0,1:0:0:0:
192,0,354240,1,0,1:0:0:0:
320,0,354240,1,0,1:0:0:0:
448,0,354240,1,0,1:0:0:0:
64,0,354403,1,0,1:0:0:0:
192,0,354403,1,0,1:0:0:0:
320,0,354403,1,0,1:0:0:0:
192,0,354566,1,0,1:0:0:0:
320,0,354566,1,0,1:0:0:0:
448,0,354566,1,0,1:0:0:0:
64,0,354729,1,0,1:0:0:0:
192,0,354729,1,0,1:0:0:0:
320,0,354729,1,0,1:0:0:0:
64,0,354892,1,0,1:0:0:0:
192,0,354892,1,0,1:0:0:0:
320,0,354892,1,0,1:0:0:0:
448,0,354892,1,0,1:0:0:0:
192,0,355055,1,0,1:0:0:0:
320,0,355055,1,0,1:0:0:0:
448,0,355055,1,0,1:0:0:0:
192,0,355218,1,0,1:0:0:0:
320,0,355218,1,0,1:0:0:0:
448,0,355218,1,0,1:0:0:0:
64,0,355381,1,0,1:0:0:0:
192,0,355381,1,0,1:0:0:0:
320,0,355381,1,0,1:0:0:0:
64,0,355544,1,0,1:0:0:0:
192,0,355544,1,0,1:0:0:0:
320,0,355544,1,0,1:0:0:0:
448,0,355544,1,0,1:0:0:0:
192,0,355707,1,0,1:0:0:0:
320,0,355707,1,0,1:0:0:0:
64,0,355870,1,0,1:0:0:0:
192,0,355870,1,0,1:0:0:0:
448,0,355870,1,0,1:0:0:0:
64,0,356033,1,0,1:0:0:0:
192,0,356033,1,0,1:0:0:0:
320,0,356088,1,0,1:0:0:0:
448,0,356142,1,0,1:0:0:0:
64,0,356196,1,0,1:0:0:0:
192,0,356196,1,0,1:0:0:0:
192,0,356359,1,0,1:0:0:0:
320,0,356359,1,0,1:0:0:0:
320,0,356522,1,0,1:0:0:0:
448,0,356522,1,0,1:0:0:0:
64,0,356685,1,0,1:0:0:0:
192,0,356685,1,0,1:0:0:0:
64,0,356848,1,0,1:0:0:0:
192,0,356848,1,0,1:0:0:0:
320,0,356848,1,0,1:0:0:0:
448,0,356848,1,0,1:0:0:0:
192,0,357011,1,0,1:0:0:0:
320,0,357011,1,0,1:0:0:0:
448,0,357011,1,0,1:0:0:0:
64,0,357174,1,0,1:0:0:0:
192,0,357174,1,0,1:0:0:0:
320,0,357174,1,0,1:0:0:0:
64,0,357338,1,0,1:0:0:0:
320,0,357338,1,0,1:0:0:0:
448,0,357338,1,0,1:0:0:0:
64,0,357501,1,0,1:0:0:0:
192,0,357501,1,0,1:0:0:0:
320,0,357501,1,0,1:0:0:0:
448,0,357501,1,0,1:0:0:0:
64,0,357664,1,0,1:0:0:0:
192,0,357664,1,0,1:0:0:0:
320,0,357664,1,0,1:0:0:0:
64,0,357827,1,0,1:0:0:0:
192,0,357827,1,0,1:0:0:0:
448,0,357827,1,0,1:0:0:0:
192,0,357990,1,0,1:0:0:0:
320,0,357990,1,0,1:0:0:0:
448,0,357990,1,0,1:0:0:0:
64,0,358153,1,0,1:0:0:0:
192,0,358153,1,0,1:0:0:0:
320,0,358153,1,0,1:0:0:0:
448,0,358153,1,0,1:0:0:0:
64,0,358316,1,0,1:0:0:0:
192,0,358316,1,0,1:0:0:0:
448,0,358316,1,0,1:0:0:0:
64,0,358479,1,0,1:0:0:0:
192,0,358479,1,0,1:0:0:0:
320,0,358479,1,0,1:0:0:0:
320,0,358642,1,0,1:0:0:0:
448,0,358642,1,0,1:0:0:0:
64,0,358805,1,0,1:0:0:0:
192,0,358805,1,0,1:0:0:0:
320,0,358805,1,0,1:0:0:0:
448,0,358805,1,0,1:0:0:0:
64,0,358968,1,0,1:0:0:0:
192,0,358968,1,0,1:0:0:0:
192,0,359131,1,0,1:0:0:0:
320,0,359131,1,0,1:0:0:0:
448,0,359131,1,0,1:0:0:0:
192,0,359294,1,0,1:0:0:0:
448,0,359294,1,0,1:0:0:0:
64,0,359457,1,0,1:0:0:0:
192,0,359457,1,0,1:0:0:0:
320,0,359457,1,0,1:0:0:0:
448,0,359457,1,0,1:0:0:0:
192,0,359620,1,0,1:0:0:0:
320,0,359620,1,0,1:0:0:0:
64,0,359783,1,0,1:0:0:0:
192,0,359783,1,0,1:0:0:0:
448,0,359783,1,0,1:0:0:0:
64,0,359946,1,0,1:0:0:0:
448,0,359946,1,0,1:0:0:0:
192,0,360028,1,0,1:0:0:0:
64,0,360109,1,0,1:0:0:0:
320,0,360109,1,0,1:0:0:0:
448,0,360109,1,0,1:0:0:0:
64,0,360272,1,0,1:0:0:0:
192,0,360272,1,0,1:0:0:0:
320,0,360272,1,0,1:0:0:0:
320,0,360435,1,0,1:0:0:0:
448,0,360435,1,0,1:0:0:0:
64,0,360517,1,0,1:0:0:0:
192,0,360517,1,0,1:0:0:0:
320,0,360598,1,0,1:0:0:0:
448,0,360598,1,0,1:0:0:0:
192,0,360680,1,0,1:0:0:0:
64,0,360761,1,0,1:0:0:0:
320,0,360761,1,0,1:0:0:0:
448,0,360761,1,0,1:0:0:0:
192,0,360924,1,0,1:0:0:0:
320,0,360924,1,0,1:0:0:0:
64,0,361087,1,0,1:0:0:0:
192,0,361087,1,0,1:0:0:0:
448,0,361087,1,0,1:0:0:0:
192,0,361250,1,0,1:0:0:0:
320,0,361250,1,0,1:0:0:0:
448,0,361250,1,0,1:0:0:0:
64,0,361414,1,0,1:0:0:0:
192,0,361414,1,0,1:0:0:0:
448,0,361414,1,0,1:0:0:0:
320,0,361495,1,0,1:0:0:0:
448,0,361577,1,0,1:0:0:0:
320,0,361658,1,0,1:0:0:0:
448,0,361740,1,0,1:0:0:0:
320,0,361821,1,0,1:0:0:0:
448,0,361903,1,0,1:0:0:0:
320,0,361984,1,0,1:0:0:0:
64,0,362066,1,0,1:0:0:0:
192,0,362066,1,0,1:0:0:0:
448,0,362066,1,0,1:0:0:0:
320,0,362147,1,0,1:0:0:0:
448,0,362229,1,0,1:0:0:0:
320,0,362310,1,0,1:0:0:0:
64,0,362392,1,0,1:0:0:0:
192,0,362392,1,0,1:0:0:0:
448,0,362392,1,0,1:0:0:0:
64,0,362555,1,0,1:0:0:0:
192,0,362555,1,0,1:0:0:0:
320,0,362555,1,0,1:0:0:0:
64,0,362718,1,0,1:0:0:0:
192,0,362718,1,0,1:0:0:0:
320,0,362718,1,0,1:0:0:0:
448,0,362718,1,0,1:0:0:0:
64,0,362935,1,0,1:0:0:0:
320,0,362935,1,0,1:0:0:0:
448,0,362935,1,0,1:0:0:0:
64,0,363153,1,0,1:0:0:0:
192,0,363153,1,0,1:0:0:0:
320,0,363153,1,0,1:0:0:0:
64,0,363370,1,0,1:0:0:0:
192,0,363370,1,0,1:0:0:0:
320,0,363370,1,0,1:0:0:0:
448,0,363370,1,0,1:0:0:0:
192,0,363533,1,0,1:0:0:0:
320,0,363533,1,0,1:0:0:0:
64,0,363696,1,0,1:0:0:0:
320,0,363696,1,0,1:0:0:0:
448,0,363696,1,0,1:0:0:0:
64,0,363859,1,0,1:0:0:0:
192,0,363859,1,0,1:0:0:0:
64,0,364022,1,0,1:0:0:0:
192,0,364022,1,0,1:0:0:0:
320,0,364022,1,0,1:0:0:0:
448,0,364022,1,0,1:0:0:0:
448,0,364185,1,0,1:0:0:0:
320,0,364226,1,0,1:0:0:0:
192,0,364267,1,0,1:0:0:0:
64,0,364307,1,0,1:0:0:0:
448,0,364348,1,0,1:0:0:0:
320,0,364389,1,0,1:0:0:0:
192,0,364430,1,0,1:0:0:0:
64,0,364470,1,0,1:0:0:0:
448,0,364511,1,0,1:0:0:0:
320,0,364552,1,0,1:0:0:0:
192,0,364593,1,0,1:0:0:0:
64,0,364634,1,0,1:0:0:0:
320,0,364674,1,0,1:0:0:0:
448,0,364674,1,0,1:0:0:0:
64,0,364837,1,0,1:0:0:0:
192,0,364837,1,0,1:0:0:0:
192,0,365000,1,0,1:0:0:0:
320,0,365000,1,0,1:0:0:0:
320,0,365163,1,0,1:0:0:0:
448,0,365163,1,0,1:0:0:0:
64,0,365326,1,0,1:0:0:0:
192,0,365326,1,0,1:0:0:0:
320,0,365326,1,0,1:0:0:0:
448,0,365326,1,0,1:0:0:0:
64,0,365489,1,0,1:0:0:0:
192,0,365489,1,0,1:0:0:0:
64,0,365653,1,0,1:0:0:0:
448,0,365653,1,0,1:0:0:0:
192,0,365734,1,0,1:0:0:0:
320,0,365734,1,0,1:0:0:0:
64,0,365816,1,0,1:0:0:0:
448,0,365816,1,0,1:0:0:0:
192,0,365897,1,0,1:0:0:0:
320,0,365979,1,0,1:0:0:0:
448,0,365979,1,0,1:0:0:0:
64,0,366060,1,0,1:0:0:0:
192,0,366060,1,0,1:0:0:0:
320,0,366142,1,0,1:0:0:0:
448,0,366142,1,0,1:0:0:0:
64,0,366223,1,0,1:0:0:0:
192,0,366305,1,0,1:0:0:0:
320,0,366305,1,0,1:0:0:0:
64,0,366386,1,0,1:0:0:0:
448,0,366386,1,0,1:0:0:0:
192,0,366468,1,0,1:0:0:0:
320,0,366468,1,0,1:0:0:0:
448,0,366549,1,0,1:0:0:0:
64,0,366631,1,0,1:0:0:0:
192,0,366631,1,0,1:0:0:0:
320,0,366712,1,0,1:0:0:0:
448,0,366712,1,0,1:0:0:0:
64,0,366794,1,0,1:0:0:0:
192,0,366794,1,0,1:0:0:0:
320,0,366875,1,0,1:0:0:0:
448,0,366875,1,0,1:0:0:0:
64,0,366957,1,0,1:0:0:0:
192,0,366957,1,0,1:0:0:0:
192,0,367120,1,0,1:0:0:0:
320,0,367120,1,0,1:0:0:0:
448,0,367120,1,0,1:0:0:0:
64,0,367283,1,0,1:0:0:0:
448,0,367283,1,0,1:0:0:0:
192,0,367364,1,0,1:0:0:0:
320,0,367364,1,0,1:0:0:0:
64,0,367446,1,0,1:0:0:0:
448,0,367446,1,0,1:0:0:0:
192,0,367609,1,0,1:0:0:0:
320,0,367609,1,0,1:0:0:0:
448,0,367609,1,0,1:0:0:0:
64,0,367772,1,0,1:0:0:0:
192,0,367772,1,0,1:0:0:0:
320,0,367772,1,0,1:0:0:0:
192,0,367935,1,0,1:0:0:0:
448,0,367935,1,0,1:0:0:0:
64,0,368017,1,0,1:0:0:0:
320,0,368017,1,0,1:0:0:0:
192,0,368098,1,0,1:0:0:0:
448,0,368098,1,0,1:0:0:0:
192,0,368261,1,0,1:0:0:0:
320,0,368261,1,0,1:0:0:0:
448,0,368261,1,0,1:0:0:0:
64,0,368424,1,0,1:0:0:0:
192,0,368424,1,0,1:0:0:0:
192,0,368587,1,0,1:0:0:0:
320,0,368587,1,0,1:0:0:0:
448,0,368587,1,0,1:0:0:0:
64,0,368669,1,0,1:0:0:0:
192,0,368750,1,0,1:0:0:0:
320,0,368750,1,0,1:0:0:0:
448,0,368832,1,0,1:0:0:0:
64,0,368913,1,0,1:0:0:0:
192,0,368913,1,0,1:0:0:0:
320,0,368913,1,0,1:0:0:0:
192,0,369076,1,0,1:0:0:0:
320,0,369076,1,0,1:0:0:0:
448,0,369076,1,0,1:0:0:0:
64,0,369239,1,0,1:0:0:0:
448,0,369239,1,0,1:0:0:0:
192,0,369294,1,0,1:0:0:0:
320,0,369348,1,0,1:0:0:0:
448,0,369402,1,0,1:0:0:0:
64,0,369457,1,0,1:0:0:0:
192,0,369511,1,0,1:0:0:0:
320,0,369565,1,0,1:0:0:0:
448,0,369565,1,0,1:0:0:0:
64,0,369620,1,0,1:0:0:0:
192,0,369674,1,0,1:0:0:0:
320,0,369729,1,0,1:0:0:0:
448,0,369783,1,0,1:0:0:0:
64,0,369837,1,0,1:0:0:0:
192,0,369892,1,0,1:0:0:0:
320,0,369892,1,0,1:0:0:0:
448,0,369892,1,0,1:0:0:0:
64,0,370055,1,0,1:0:0:0:
192,0,370055,1,0,1:0:0:0:
320,0,370055,1,0,1:0:0:0:
64,0,370218,1,0,1:0:0:0:
192,0,370218,1,0,1:0:0:0:
320,0,370218,1,0,1:0:0:0:
448,0,370218,1,0,1:0:0:0:
192,0,370381,1,0,1:0:0:0:
448,0,370381,1,0,1:0:0:0:
64,0,370544,1,0,1:0:0:0:
192,0,370544,1,0,1:0:0:0:
320,0,370544,1,0,1:0:0:0:
448,0,370544,1,0,1:0:0:0:
192,0,370707,1,0,1:0:0:0:
320,0,370707,1,0,1:0:0:0:
448,0,370707,1,0,1:0:0:0:
64,0,370870,1,0,1:0:0:0:
192,0,370870,1,0,1:0:0:0:
192,0,371033,1,0,1:0:0:0:
320,0,371033,1,0,1:0:0:0:
64,0,371196,1,0,1:0:0:0:
192,0,371196,1,0,1:0:0:0:
448,0,371196,1,0,1:0:0:0:
64,0,371359,1,0,1:0:0:0:
192,0,371359,1,0,1:0:0:0:
320,0,371359,1,0,1:0:0:0:
64,0,371522,1,0,1:0:0:0:
320,0,371522,1,0,1:0:0:0:
448,0,371522,1,0,1:0:0:0:
192,0,371685,1,0,1:0:0:0:
320,0,371685,1,0,1:0:0:0:
448,0,371685,1,0,1:0:0:0:
64,0,371848,1,0,1:0:0:0:
192,0,371848,1,0,1:0:0:0:
320,0,371848,1,0,1:0:0:0:
448,0,371848,1,0,1:0:0:0:
320,0,372011,1,0,1:0:0:0:
448,0,372011,1,0,1:0:0:0:
64,0,372174,1,0,1:0:0:0:
192,0,372174,1,0,1:0:0:0:
320,0,372174,1,0,1:0:0:0:
64,0,372337,1,0,1:0:0:0:
320,0,372337,1,0,1:0:0:0:
64,0,372500,1,0,1:0:0:0:
192,0,372500,1,0,1:0:0:0:
320,0,372500,1,0,1:0:0:0:
448,0,372500,1,0,1:0:0:0:
64,0,372663,1,0,1:0:0:0:
192,0,372663,1,0,1:0:0:0:
448,0,372663,1,0,1:0:0:0:
64,0,372826,1,0,1:0:0:0:
192,0,372826,1,0,1:0:0:0:
320,0,372826,1,0,1:0:0:0:
192,0,372989,1,0,1:0:0:0:
320,0,372989,1,0,1:0:0:0:
448,0,372989,1,0,1:0:0:0:
64,0,373152,1,0,1:0:0:0:
192,0,373152,1,0,1:0:0:0:
320,0,373152,1,0,1:0:0:0:
448,0,373152,1,0,1:0:0:0:
64,0,373315,1,0,1:0:0:0:
192,0,373315,1,0,1:0:0:0:
320,0,373315,1,0,1:0:0:0:
64,0,373478,1,0,1:0:0:0:
192,0,373478,1,0,1:0:0:0:
320,0,373478,1,0,1:0:0:0:
64,0,373641,1,0,1:0:0:0:
192,0,373641,1,0,1:0:0:0:
448,0,373641,1,0,1:0:0:0:
64,0,373804,1,0,1:0:0:0:
192,0,373804,1,0,1:0:0:0:
320,0,373804,1,0,1:0:0:0:
448,0,373804,1,0,1:0:0:0:
192,0,373968,1,0,1:0:0:0:
448,0,373968,1,0,1:0:0:0:
64,0,374131,1,0,1:0:0:0:
320,0,374131,1,0,1:0:0:0:
448,0,374131,1,0,1:0:0:0:
192,0,374294,1,0,1:0:0:0:
320,0,374294,1,0,1:0:0:0:
64,0,374457,1,0,1:0:0:0:
192,0,374457,1,0,1:0:0:0:
320,0,374457,1,0,1:0:0:0:
448,0,374457,1,0,1:0:0:0:
64,0,374620,1,0,1:0:0:0:
192,0,374620,1,0,1:0:0:0:
320,0,374620,1,0,1:0:0:0:
448,0,374620,1,0,1:0:0:0:
64,0,374783,1,0,1:0:0:0:
192,0,374783,1,0,1:0:0:0:
192,0,374946,1,0,1:0:0:0:
320,0,374946,1,0,1:0:0:0:
64,0,375109,1,0,1:0:0:0:
192,0,375109,1,0,1:0:0:0:
320,0,375109,1,0,1:0:0:0:
448,0,375109,1,0,1:0:0:0:
64,0,375272,1,0,1:0:0:0:
448,0,375272,1,0,1:0:0:0:
192,0,375435,1,0,1:0:0:0:
320,0,375435,1,0,1:0:0:0:
448,0,375435,1,0,1:0:0:0:
64,0,375598,1,0,1:0:0:0:
192,0,375598,1,0,1:0:0:0:
320,0,375598,1,0,1:0:0:0:
64,0,375761,1,0,1:0:0:0:
192,0,375761,1,0,1:0:0:0:
320,0,375761,1,0,1:0:0:0:
448,0,375761,1,0,1:0:0:0:
192,0,375924,1,0,1:0:0:0:
320,0,375924,1,0,1:0:0:0:
448,0,375924,1,0,1:0:0:0:
192,0,376087,1,0,1:0:0:0:
320,0,376087,1,0,1:0:0:0:
448,0,376087,1,0,1:0:0:0:
64,0,376250,1,0,1:0:0:0:
320,0,376250,1,0,1:0:0:0:
448,0,376250,1,0,1:0:0:0:
64,0,376413,1,0,1:0:0:0:
192,0,376413,1,0,1:0:0:0:
320,0,376413,1,0,1:0:0:0:
448,0,376413,1,0,1:0:0:0:
64,0,376576,1,0,1:0:0:0:
448,0,376576,1,0,1:0:0:0:
64,0,376739,1,0,1:0:0:0:
192,0,376739,1,0,1:0:0:0:
320,0,376739,1,0,1:0:0:0:
320,0,376902,1,0,1:0:0:0:
448,0,376902,1,0,1:0:0:0:
64,0,376957,1,0,1:0:0:0:
192,0,377011,1,0,1:0:0:0:
320,0,377065,1,0,1:0:0:0:
448,0,377065,1,0,1:0:0:0:
64,0,377228,1,0,1:0:0:0:
192,0,377228,1,0,1:0:0:0:
192,0,377391,1,0,1:0:0:0:
320,0,377391,1,0,1:0:0:0:
448,0,377391,1,0,1:0:0:0:
64,0,377554,1,0,1:0:0:0:
320,0,377554,1,0,1:0:0:0:
448,0,377554,1,0,1:0:0:0:
64,0,377717,1,0,1:0:0:0:
192,0,377717,1,0,1:0:0:0:
320,0,377717,1,0,1:0:0:0:
448,0,377717,1,0,1:0:0:0:
64,0,377880,1,0,1:0:0:0:
192,0,377880,1,0,1:0:0:0:
320,0,377880,1,0,1:0:0:0:
64,0,378043,1,0,1:0:0:0:
320,0,378043,1,0,1:0:0:0:
448,0,378043,1,0,1:0:0:0:
192,0,378207,1,0,1:0:0:0:
320,0,378207,1,0,1:0:0:0:
448,0,378207,1,0,1:0:0:0:
64,0,378370,1,0,1:0:0:0:
192,0,378370,1,0,1:0:0:0:
320,0,378370,1,0,1:0:0:0:
448,0,378370,1,0,1:0:0:0:
64,0,378533,1,0,1:0:0:0:
192,0,378533,1,0,1:0:0:0:
320,0,378533,1,0,1:0:0:0:
448,0,378614,1,0,1:0:0:0:
64,0,378696,1,0,1:0:0:0:
192,0,378696,1,0,1:0:0:0:
320,0,378696,1,0,1:0:0:0:
192,0,378859,1,0,1:0:0:0:
448,0,378859,1,0,1:0:0:0:
64,0,379022,1,0,1:0:0:0:
192,0,379022,1,0,1:0:0:0:
320,0,379022,1,0,1:0:0:0:
448,0,379022,1,0,1:0:0:0:
192,0,379185,1,0,1:0:0:0:
320,0,379185,1,0,1:0:0:0:
448,0,379185,1,0,1:0:0:0:
64,0,379348,1,0,1:0:0:0:
192,0,379348,1,0,1:0:0:0:
320,0,379348,1,0,1:0:0:0:
448,0,379348,1,0,1:0:0:0:
192,0,379511,1,0,1:0:0:0:
320,0,379511,1,0,1:0:0:0:
448,0,379511,1,0,1:0:0:0:
64,0,379674,1,0,1:0:0:0:
192,0,379674,1,0,1:0:0:0:
320,0,379674,1,0,1:0:0:0:
448,0,379674,1,0,1:0:0:0:
192,0,379837,1,0,1:0:0:0:
320,0,379837,1,0,1:0:0:0:
64,0,380000,1,0,1:0:0:0:
192,0,380000,1,0,1:0:0:0:
320,0,380000,1,0,1:0:0:0:
64,0,380163,1,0,1:0:0:0:
448,0,380163,1,0,1:0:0:0:
64,0,380326,1,0,1:0:0:0:
192,0,380326,1,0,1:0:0:0:
320,0,380326,1,0,1:0:0:0:
448,0,380326,1,0,1:0:0:0:
192,0,380489,1,0,1:0:0:0:
320,0,380489,1,0,1:0:0:0:
64,0,380652,1,0,1:0:0:0:
192,0,380652,1,0,1:0:0:0:
320,0,380652,1,0,1:0:0:0:
448,0,380652,1,0,1:0:0:0:
64,0,380815,1,0,1:0:0:0:
192,0,380815,1,0,1:0:0:0:
448,0,380815,1,0,1:0:0:0:
64,0,380978,1,0,1:0:0:0:
192,0,380978,1,0,1:0:0:0:
320,0,380978,1,0,1:0:0:0:
448,0,380978,1,0,1:0:0:0:
192,0,381141,1,0,1:0:0:0:
320,0,381141,1,0,1:0:0:0:
448,0,381141,1,0,1:0:0:0:
64,0,381304,1,0,1:0:0:0:
192,0,381304,1,0,1:0:0:0:
320,0,381304,1,0,1:0:0:0:
448,0,381304,1,0,1:0:0:0:
64,0,381467,1,0,1:0:0:0:
192,0,381467,1,0,1:0:0:0:
448,0,381467,1,0,1:0:0:0:
64,0,381630,1,0,1:0:0:0:
192,0,381630,1,0,1:0:0:0:
320,0,381630,1,0,1:0:0:0:
448,0,381630,1,0,1:0:0:0:
64,0,381793,1,0,1:0:0:0:
192,0,381793,1,0,1:0:0:0:
320,0,381793,1,0,1:0:0:0:
64,0,381956,1,0,1:0:0:0:
192,0,381956,1,0,1:0:0:0:
448,0,381956,1,0,1:0:0:0:
320,0,382119,1,0,1:0:0:0:
448,0,382119,1,0,1:0:0:0:
192,0,382201,1,0,1:0:0:0:
64,0,382283,1,0,1:0:0:0:
320,0,382283,1,0,1:0:0:0:
448,0,382283,1,0,1:0:0:0:
192,0,382446,1,0,1:0:0:0:
320,0,382446,1,0,1:0:0:0:
192,0,382609,1,0,1:0:0:0:
320,0,382609,1,0,1:0:0:0:
192,0,382772,1,0,1:0:0:0:
320,0,382772,1,0,1:0:0:0:
64,0,382935,1,0,1:0:0:0:
192,0,382935,1,0,1:0:0:0:
320,0,382935,1,0,1:0:0:0:
448,0,382935,1,0,1:0:0:0:
320,0,383098,1,0,1:0:0:0:
448,0,383098,1,0,1:0:0:0:
64,0,383261,1,0,1:0:0:0:
192,0,383261,1,0,1:0:0:0:
320,0,383261,1,0,1:0:0:0:
64,0,383424,1,0,1:0:0:0:
320,0,383424,1,0,1:0:0:0:
448,0,383424,1,0,1:0:0:0:
64,0,383587,1,0,1:0:0:0:
192,0,383587,1,0,1:0:0:0:
320,0,383587,1,0,1:0:0:0:
448,0,383587,1,0,1:0:0:0:
64,0,383750,1,0,1:0:0:0:
192,0,383750,1,0,1:0:0:0:
448,0,383750,1,0,1:0:0:0:
64,0,383913,1,0,1:0:0:0:
192,0,383913,1,0,1:0:0:0:
448,0,383913,1,0,1:0:0:0:
192,0,384076,1,0,1:0:0:0:
320,0,384076,1,0,1:0:0:0:
448,0,384076,1,0,1:0:0:0:
64,0,384239,1,0,1:0:0:0:
192,0,384239,1,0,1:0:0:0:
320,0,384239,1,0,1:0:0:0:
448,0,384239,1,0,1:0:0:0:
192,0,384402,1,0,1:0:0:0:
320,0,384402,1,0,1:0:0:0:
448,0,384402,1,0,1:0:0:0:
64,0,384565,1,0,1:0:0:0:
192,0,384565,1,0,1:0:0:0:
320,0,384565,1,0,1:0:0:0:
192,0,384728,1,0,1:0:0:0:
320,0,384728,1,0,1:0:0:0:
448,0,384728,1,0,1:0:0:0:
64,0,384891,1,0,1:0:0:0:
192,0,384891,1,0,1:0:0:0:
320,0,384891,1,0,1:0:0:0:
448,0,384891,1,0,1:0:0:0:
64,0,385054,1,0,1:0:0:0:
192,0,385054,1,0,1:0:0:0:
64,0,385217,1,0,1:0:0:0:
192,0,385217,1,0,1:0:0:0:
320,0,385217,1,0,1:0:0:0:
448,0,385217,1,0,1:0:0:0:
320,0,385380,1,0,1:0:0:0:
448,0,385380,1,0,1:0:0:0:
64,0,385543,1,0,1:0:0:0:
192,0,385543,1,0,1:0:0:0:
320,0,385543,1,0,1:0:0:0:
448,0,385543,1,0,1:0:0:0:
192,0,385706,1,0,1:0:0:0:
448,0,385706,1,0,1:0:0:0:
64,0,385869,1,0,1:0:0:0:
192,0,385869,1,0,1:0:0:0:
320,0,385869,1,0,1:0:0:0:
448,0,385869,1,0,1:0:0:0:
64,0,386032,1,0,1:0:0:0:
192,0,386032,1,0,1:0:0:0:
64,0,386195,1,0,1:0:0:0:
192,0,386195,1,0,1:0:0:0:
320,0,386195,1,0,1:0:0:0:
448,0,386195,1,0,1:0:0:0:
64,0,386358,1,0,1:0:0:0:
192,0,386358,1,0,1:0:0:0:
320,0,386358,1,0,1:0:0:0:
448,0,386358,1,0,1:0:0:0:
64,0,386522,1,0,1:0:0:0:
192,0,386562,1,0,1:0:0:0:
320,0,386603,1,0,1:0:0:0:
448,0,386644,1,0,1:0:0:0:
64,0,386685,1,0,1:0:0:0:
192,0,386725,1,0,1:0:0:0:
320,0,386766,1,0,1:0:0:0:
448,0,386807,1,0,1:0:0:0:
64,0,386848,1,0,1:0:0:0:
192,0,386848,1,0,1:0:0:0:
192,0,387011,1,0,1:0:0:0:
320,0,387011,1,0,1:0:0:0:
448,0,387011,1,0,1:0:0:0:
64,0,387174,1,0,1:0:0:0:
320,0,387174,1,0,1:0:0:0:
448,0,387174,1,0,1:0:0:0:
64,0,387337,1,0,1:0:0:0:
192,0,387337,1,0,1:0:0:0:
320,0,387337,1,0,1:0:0:0:
448,0,387500,1,0,1:0:0:0:
320,0,387541,1,0,1:0:0:0:
192,0,387581,1,0,1:0:0:0:
64,0,387622,1,0,1:0:0:0:
448,0,387663,1,0,1:0:0:0:
320,0,387704,1,0,1:0:0:0:
192,0,387744,1,0,1:0:0:0:
64,0,387785,1,0,1:0:0:0:
448,0,387826,1,0,1:0:0:0:
320,0,387867,1,0,1:0:0:0:
192,0,387907,1,0,1:0:0:0:
64,0,387948,1,0,1:0:0:0:
448,0,387989,1,0,1:0:0:0:
320,0,388030,1,0,1:0:0:0:
192,0,388070,1,0,1:0:0:0:
64,0,388111,1,0,1:0:0:0:
320,0,388152,1,0,1:0:0:0:
448,0,388152,1,0,1:0:0:0:
192,0,388233,1,0,1:0:0:0:
64,0,388315,1,0,1:0:0:0:
448,0,388315,1,0,1:0:0:0:
192,0,388396,1,0,1:0:0:0:
320,0,388396,1,0,1:0:0:0:
64,0,388478,1,0,1:0:0:0:
448,0,388478,1,0,1:0:0:0:
320,0,388560,1,0,1:0:0:0:
64,0,388641,1,0,1:0:0:0:
192,0,388641,1,0,1:0:0:0:
448,0,388723,1,0,1:0:0:0:
64,0,388804,1,0,1:0:0:0:
192,0,388804,1,0,1:0:0:0:
320,0,388804,1,0,1:0:0:0:
448,0,388886,1,0,1:0:0:0:
64,0,388967,1,0,1:0:0:0:
192,0,388967,1,0,1:0:0:0:
320,0,389049,1,0,1:0:0:0:
64,0,389130,1,0,1:0:0:0:
448,0,389130,1,0,1:0:0:0:
192,0,389212,1,0,1:0:0:0:
320,0,389212,1,0,1:0:0:0:
64,0,389293,1,0,1:0:0:0:
448,0,389293,1,0,1:0:0:0:
192,0,389375,1,0,1:0:0:0:
64,0,389456,1,0,1:0:0:0:
320,0,389456,1,0,1:0:0:0:
448,0,389456,1,0,1:0:0:0:
192,0,389538,1,0,1:0:0:0:
320,0,389619,1,0,1:0:0:0:
448,0,389619,1,0,1:0:0:0:
64,0,389701,1,0,1:0:0:0:
192,0,389782,1,0,1:0:0:0:
320,0,389782,1,0,1:0:0:0:
64,0,389864,1,0,1:0:0:0:
448,0,389864,1,0,1:0:0:0:
192,0,389945,1,0,1:0:0:0:
320,0,389945,1,0,1:0:0:0:
448,0,390027,1,0,1:0:0:0:
64,0,390108,1,0,1:0:0:0:
192,0,390108,1,0,1:0:0:0:
320,0,390108,1,0,1:0:0:0:
192,0,390489,1,0,1:0:0:0:
448,0,390489,1,0,1:0:0:0:
64,0,390869,1,0,1:0:0:0:
192,0,390869,1,0,1:0:0:0:
192,0,391331,1,0,1:0:0:0:
320,0,391331,1,0,1:0:0:0:
64,0,391494,1,0,1:0:0:0:
192,0,391576,1,0,1:0:0:0:
320,0,391657,1,0,1:0:0:0:
64,0,391739,1,0,1:0:0:0:
192,0,391739,1,0,1:0:0:0:
448,0,391739,1,0,1:0:0:0:
64,0,392228,1,0,1:0:0:0:
192,0,392228,1,0,1:0:0:0:
320,0,392472,1,0,1:0:0:0:
448,0,392554,1,0,1:0:0:0:
64,0,392635,1,0,1:0:0:0:
192,0,392717,1,0,1:0:0:0:
320,0,392799,1,0,1:0:0:0:
448,0,392799,1,0,1:0:0:0:
64,0,393369,1,0,1:0:0:0:
192,0,393369,1,0,1:0:0:0:
64,0,394239,1,0,1:0:0:0:
192,0,394239,1,0,1:0:0:0:
320,0,394239,1,0,1:0:0:0:
448,0,394239,1,0,1:0:0:0:
192,0,394565,1,0,1:0:0:0:
320,0,394565,1,0,1:0:0:0:
64,0,395000,1,0,1:0:0:0:
192,0,395000,1,0,1:0:0:0:
448,0,395000,1,0,1:0:0:0:
320,0,395081,1,0,1:0:0:0:
192,0,395163,1,0,1:0:0:0:
64,0,395244,1,0,1:0:0:0:
448,0,395326,1,0,1:0:0:0:
192,0,395407,1,0,1:0:0:0:
64,0,395489,1,0,1:0:0:0:
320,0,395570,1,0,1:0:0:0:
448,0,395570,1,0,1:0:0:0:
192,0,395652,1,0,1:0:0:0:
64,0,395733,1,0,1:0:0:0:
192,0,395815,1,0,1:0:0:0:
320,0,395896,1,0,1:0:0:0:
448,0,395896,1,0,1:0:0:0:
64,0,395978,1,0,1:0:0:0:
192,0,396059,1,0,1:0:0:0:
320,0,396141,1,0,1:0:0:0:
64,0,396222,1,0,1:0:0:0:
448,0,396222,1,0,1:0:0:0:
192,0,396304,1,0,1:0:0:0:
320,0,396385,1,0,1:0:0:0:
448,0,396467,1,0,1:0:0:0:
64,0,396548,1,0,1:0:0:0:
192,0,396548,1,0,1:0:0:0:
320,0,396630,1,0,1:0:0:0:
64,0,396711,1,0,1:0:0:0:
192,0,396793,1,0,1:0:0:0:
320,0,396793,1,0,1:0:0:0:
448,0,396875,1,0,1:0:0:0:
192,0,396956,1,0,1:0:0:0:
64,0,397038,1,0,1:0:0:0:
448,0,397038,1,0,1:0:0:0:
192,0,397119,1,0,1:0:0:0:
320,0,397173,1,0,1:0:0:0:
64,0,397228,1,0,1:0:0:0:
448,0,397282,1,0,1:0:0:0:
192,0,397336,1,0,1:0:0:0:
320,0,397391,1,0,1:0:0:0:
64,0,397445,1,0,1:0:0:0:
192,0,397499,1,0,1:0:0:0:
320,0,397554,1,0,1:0:0:0:
448,0,397608,1,0,1:0:0:0:
192,0,397663,1,0,1:0:0:0:
320,0,397717,1,0,1:0:0:0:
64,0,397771,1,0,1:0:0:0:
192,0,397826,1,0,1:0:0:0:
320,0,397880,1,0,1:0:0:0:
448,0,397934,1,0,1:0:0:0:
192,0,397989,1,0,1:0:0:0:
64,0,398043,1,0,1:0:0:0:
448,0,398097,1,0,1:0:0:0:
320,0,398152,1,0,1:0:0:0:
192,0,398206,1,0,1:0:0:0:
64,0,398260,1,0,1:0:0:0:
192,0,398315,1,0,1:0:0:0:
320,0,398369,1,0,1:0:0:0:
448,0,398423,1,0,1:0:0:0:
192,0,398478,1,0,1:0:0:0:
320,0,398532,1,0,1:0:0:0:
448,0,398586,1,0,1:0:0:0:
64,0,398641,1,0,1:0:0:0:
192,0,398695,1,0,1:0:0:0:
320,0,398749,1,0,1:0:0:0:
64,0,398804,1,0,1:0:0:0:
192,0,398858,1,0,1:0:0:0:
320,0,398912,1,0,1:0:0:0:
448,0,398967,1,0,1:0:0:0:
64,0,399021,1,0,1:0:0:0:
192,0,399076,1,0,1:0:0:0:
320,0,399130,1,0,1:0:0:0:
448,0,399184,1,0,1:0:0:0:
192,0,399239,1,0,1:0:0:0:
320,0,399293,1,0,1:0:0:0:
64,0,399347,1,0,1:0:0:0:
448,0,399402,1,0,1:0:0:0:
320,0,399456,1,0,1:0:0:0:
192,0,399510,1,0,1:0:0:0:
64,0,399565,1,0,1:0:0:0:
192,0,399619,1,0,1:0:0:0:
320,0,399673,1,0,1:0:0:0:
448,0,399728,1,0,1:0:0:0:
320,0,399782,1,0,1:0:0:0:
192,0,399836,1,0,1:0:0:0:
64,0,399891,1,0,1:0:0:0:
448,0,399945,1,0,1:0:0:0:
192,0,399999,1,0,1:0:0:0:
320,0,400054,1,0,1:0:0:0:
64,0,400108,1,0,1:0:0:0:
192,0,400162,1,0,1:0:0:0:
320,0,400217,1,0,1:0:0:0:
448,0,400271,1,0,1:0:0:0:
64,0,400325,1,0,1:0:0:0:
192,0,400380,1,0,1:0:0:0:
320,0,400434,1,0,1:0:0:0:
448,0,400489,1,0,1:0:0:0:
192,0,400543,1,0,1:0:0:0:
64,0,400597,1,0,1:0:0:0:
448,0,400652,1,0,1:0:0:0:
320,0,400706,1,0,1:0:0:0:
192,0,400760,1,0,1:0:0:0:
64,0,400815,1,0,1:0:0:0:
448,0,400869,1,0,1:0:0:0:
320,0,400923,1,0,1:0:0:0:
192,0,400978,1,0,1:0:0:0:
64,0,401032,1,0,1:0:0:0:
448,0,401086,1,0,1:0:0:0:
320,0,401141,1,0,1:0:0:0:
64,0,401195,1,0,1:0:0:0:
192,0,401249,1,0,1:0:0:0:
320,0,401304,1,0,1:0:0:0:
448,0,401358,1,0,1:0:0:0:
64,0,401412,1,0,1:0:0:0:
192,0,401467,1,0,1:0:0:0:
320,0,401521,1,0,1:0:0:0:
448,0,401575,1,0,1:0:0:0:
192,0,401630,1,0,1:0:0:0:
320,0,401684,1,0,1:0:0:0:
448,0,401739,1,0,1:0:0:0:
64,0,401793,1,0,1:0:0:0:
192,0,401847,1,0,1:0:0:0:
320,0,401902,1,0,1:0:0:0:
448,0,401956,1,0,1:0:0:0:
64,0,402010,1,0,1:0:0:0:
192,0,402010,1,0,1:0:0:0:
320,0,402092,1,0,1:0:0:0:
192,0,402173,1,0,1:0:0:0:
320,0,402255,1,0,1:0:0:0:
448,0,402255,1,0,1:0:0:0:
64,0,402336,1,0,1:0:0:0:
192,0,402336,1,0,1:0:0:0:
320,0,402418,1,0,1:0:0:0:
64,0,402499,1,0,1:0:0:0:
192,0,402499,1,0,1:0:0:0:
448,0,402499,1,0,1:0:0:0:
320,0,402581,1,0,1:0:0:0:
64,0,402662,1,0,1:0:0:0:
192,0,402662,1,0,1:0:0:0:
320,0,402744,1,0,1:0:0:0:
448,0,402744,1,0,1:0:0:0:
192,0,402825,1,0,1:0:0:0:
64,0,402907,1,0,1:0:0:0:
320,0,402907,1,0,1:0:0:0:
448,0,402907,1,0,1:0:0:0:
192,0,402988,1,0,1:0:0:0:
320,0,403070,1,0,1:0:0:0:
448,0,403070,1,0,1:0:0:0:
64,0,403152,1,0,1:0:0:0:
192,0,403152,1,0,1:0:0:0:
320,0,403233,1,0,1:0:0:0:
448,0,403315,1,0,1:0:0:0:
64,0,403396,1,0,1:0:0:0:
192,0,403396,1,0,1:0:0:0:
320,0,403396,1,0,1:0:0:0:
448,0,403478,1,0,1:0:0:0:
192,0,403559,1,0,1:0:0:0:
64,0,403641,1,0,1:0:0:0:
448,0,403641,1,0,1:0:0:0:
192,0,403722,1,0,1:0:0:0:
320,0,403722,1,0,1:0:0:0:
64,0,403804,1,0,1:0:0:0:
192,0,403885,1,0,1:0:0:0:
320,0,403885,1,0,1:0:0:0:
448,0,403885,1,0,1:0:0:0:
64,0,403967,1,0,1:0:0:0:
320,0,404048,1,0,1:0:0:0:
64,0,404130,1,0,1:0:0:0:
448,0,404130,1,0,1:0:0:0:
192,0,404184,1,0,1:0:0:0:
320,0,404238,1,0,1:0:0:0:
448,0,404293,1,0,1:0:0:0:
64,0,404347,1,0,1:0:0:0:
192,0,404401,1,0,1:0:0:0:
320,0,404456,1,0,1:0:0:0:
192,0,404510,1,0,1:0:0:0:
448,0,404565,1,0,1:0:0:0:
320,0,404619,1,0,1:0:0:0:
192,0,404673,1,0,1:0:0:0:
64,0,404728,1,0,1:0:0:0:
448,0,404782,1,0,1:0:0:0:
320,0,404836,1,0,1:0:0:0:
192,0,404891,1,0,1:0:0:0:
64,0,404945,1,0,1:0:0:0:
448,0,404999,1,0,1:0:0:0:
320,0,405054,1,0,1:0:0:0:
64,0,405108,1,0,1:0:0:0:
192,0,405162,1,0,1:0:0:0:
320,0,405217,1,0,1:0:0:0:
448,0,405271,1,0,1:0:0:0:
64,0,405325,1,0,1:0:0:0:
192,0,405380,1,0,1:0:0:0:
320,0,405434,1,0,1:0:0:0:
448,0,405488,1,0,1:0:0:0:
64,0,405543,1,0,1:0:0:0:
192,0,405597,1,0,1:0:0:0:
320,0,405651,1,0,1:0:0:0:
448,0,405706,1,0,1:0:0:0:
192,0,405760,1,0,1:0:0:0:
320,0,405814,1,0,1:0:0:0:
64,0,405869,1,0,1:0:0:0:
192,0,405923,1,0,1:0:0:0:
320,0,405978,1,0,1:0:0:0:
448,0,406032,1,0,1:0:0:0:
320,0,406086,1,0,1:0:0:0:
192,0,406141,1,0,1:0:0:0:
64,0,406195,1,0,1:0:0:0:
448,0,406249,1,0,1:0:0:0:
320,0,406290,1,0,1:0:0:0:
192,0,406331,1,0,1:0:0:0:
64,0,406372,1,0,1:0:0:0:
448,0,406494,1,0,1:0:0:0:
320,0,406535,1,0,1:0:0:0:
192,0,406575,1,0,1:0:0:0:
64,0,406616,1,0,1:0:0:0:
448,0,406698,1,0,1:0:0:0:
320,0,406738,1,0,1:0:0:0:
192,0,406779,1,0,1:0:0:0:
64,0,406820,1,0,1:0:0:0:
448,0,406901,1,0,1:0:0:0:
320,0,406942,1,0,1:0:0:0:
192,0,406983,1,0,1:0:0:0:
64,0,407024,1,0,1:0:0:0:
448,0,407119,1,0,1:0:0:0:
320,0,407146,1,0,1:0:0:0:
192,0,407187,1,0,1:0:0:0:
64,0,407227,1,0,1:0:0:0:
448,0,407309,1,0,1:0:0:0:
320,0,407350,1,0,1:0:0:0:
192,0,407391,1,0,1:0:0:0:
64,0,407431,1,0,1:0:0:0:
448,0,407513,1,0,1:0:0:0:
320,0,407554,1,0,1:0:0:0:
192,0,407594,1,0,1:0:0:0:
64,0,407635,1,0,1:0:0:0:
320,0,407717,1,0,1:0:0:0:
64,0,407825,1,0,1:0:0:0:
448,0,407825,1,0,1:0:0:0:
192,0,407934,1,0,1:0:0:0:
320,0,407934,1,0,1:0:0:0:
320,0,408043,1,0,1:0:0:0:
448,0,408043,1,0,1:0:0:0:
64,0,408151,1,0,1:0:0:0:
192,0,408151,1,0,1:0:0:0:
320,0,408260,1,0,1:0:0:0:
448,0,408260,1,0,1:0:0:0:
64,0,408369,1,0,1:0:0:0:
192,0,408369,1,0,1:0:0:0:
320,0,408477,1,0,1:0:0:0:
448,0,408477,1,0,1:0:0:0:
64,0,408613,1,0,1:0:0:0:
192,0,408613,1,0,1:0:0:0:
320,0,408776,1,0,1:0:0:0:
448,0,408776,1,0,1:0:0:0:
64,0,408939,1,0,1:0:0:0:
192,0,408939,1,0,1:0:0:0:
320,0,409102,1,0,1:0:0:0:
448,0,409102,1,0,1:0:0:0:
64,0,409347,1,0,1:0:0:0:
192,0,409347,1,0,1:0:0:0:
320,0,409564,1,0,1:0:0:0:
448,0,409564,1,0,1:0:0:0:
64,0,409836,1,0,1:0:0:0:
192,0,409836,1,0,1:0:0:0:
320,0,409890,1,0,1:0:0:0:
448,0,409890,1,0,1:0:0:0:
64,0,410217,1,0,1:0:0:0:
192,0,410217,1,0,1:0:0:0:
320,0,410284,1,0,1:0:0:0:
448,0,410284,1,0,1:0:0:0:
64,0,410651,1,0,1:0:0:0:
192,0,410651,1,0,1:0:0:0:
320,0,410733,1,0,1:0:0:0:
448,0,410733,1,0,1:0:0:0:
64,0,410977,1,0,1:0:0:0:
64,0,411140,1,0,1:0:0:0:
192,0,411140,1,0,1:0:0:0:
320,0,411222,1,0,1:0:0:0:
448,0,411222,1,0,1:0:0:0:
192,0,411303,1,0,1:0:0:0:
320,0,411466,1,0,1:0:0:0:
192,0,411630,1,0,1:0:0:0:
448,0,411793,1,0,1:0:0:0:
320,0,411874,1,0,1:0:0:0:
64,0,412037,1,0,1:0:0:0:
448,0,412037,1,0,1:0:0:0:
64,0,413382,128,0,413586:0:0:0:0:
192,0,413382,128,0,413586:0:0:0:0:
320,0,413382,128,0,413586:0:0:0:0:
448,0,413382,128,0,413586:0:0:0:0:
64,0,413749,128,0,415542:0:0:0:0:
192,0,413749,128,0,415542:0:0:0:0:
320,0,413749,128,0,415542:0:0:0:0:
448,0,413749,128,0,415542:0:0:0:0:
