osu file format v14

[General]
AudioFilename: audio.mp3
AudioLeadIn: 0
PreviewTime: 53247
Countdown: 1
SampleSet: Soft
StackLeniency: 0.7
Mode: 3
LetterboxInBreaks: 0
SpecialStyle: 0
WidescreenStoryboard: 1

[Editor]
DistanceSpacing: 1
BeatDivisor: 4
GridSize: 4
TimelineZoom: 2.771999

[Metadata]
Title:ANGEL OF SALVATION
TitleUnicode:ANGEL OF SALVATION
Artist:Galneryus
ArtistUnicode:Galneryus
Creator:Bewww
Version:God of salvatioin
Source:
Tags:LIV MOON
BeatmapID:1716598
BeatmapSetID:470353

[Difficulty]
HPDrainRate:8.5
CircleSize:4
OverallDifficulty:8.5
ApproachRate:9
SliderMultiplier:1.4
SliderTickRate:1

[Events]
//Background and Video events
0,0,"kapyushon_mech_oruzhie_art_108924_1366x768.jpg",0,0
//Break Periods
//Storyboard Layer 0 (Background)
//Storyboard Layer 1 (Fail)
//Storyboard Layer 2 (Pass)
//Storyboard Layer 3 (Foreground)
//Storyboard Sound Samples

[TimingPoints]
11238,512.820512820513,4,2,1,20,1,0
11238,-68.9655172413793,4,2,1,20,0,0
17667,535.714285714286,4,2,1,20,1,0
17667,-65.7894736842105,4,2,1,20,0,0
20452,512.820512820513,4,2,1,20,1,0
20452,-68.9655172413793,4,2,1,20,0,0
26118,597.014925373134,4,2,1,20,1,0
26118,-59.1715976331361,4,2,1,20,0,0
29151,483.870967741935,4,2,2,35,1,0
29151,-72.992700729927,4,2,2,35,0,0
50414,352.941176470588,4,2,1,100,1,0
50414,-100,4,2,1,100,0,0
404778,368.098159509202,4,2,1,85,1,0
404778,-96.1538461538461,4,2,1,85,0,0
407726,379.746835443038,4,2,1,85,1,0
407726,-92.5925925925926,4,2,1,85,0,0
410897,361.44578313253,4,2,1,85,1,0
410897,-98.0392156862745,4,2,1,85,0,0

[Colours]
Combo1 : 129,207,218
Combo2 : 0,202,0
Combo3 : 18,124,255
Combo4 : 242,24,57
Combo5 : 255,208,66
Combo6 : 179,0,179

[HitObjects]
192,192,11750,128,0,13289:0:0:0:0:
320,192,13289,128,0,13545:0:0:0:0:
448,192,13545,128,0,13802:0:0:0:0:
64,192,13802,128,0,14314:0:0:0:0:
448,192,14314,128,0,14571:0:0:0:0:
320,192,14571,128,0,14827:0:0:0:0:
192,192,14827,128,0,15340:0:0:0:0:
64,192,15340,128,0,15596:0:0:0:0:
320,192,15596,128,0,15853:0:0:0:0:
192,192,15853,128,0,16366:0:0:0:0:
448,192,16366,128,0,17391:0:0:0:0:
64,192,17667,128,0,18068:0:0:0:0:
192,192,17667,128,0,18068:0:0:0:0:
192,192,18202,128,0,18604:0:0:0:0:
320,192,18202,128,0,18604:0:0:0:0:
64,192,18738,128,0,19140:0:0:0:0:
448,192,18738,128,0,19140:0:0:0:0:
192,192,19274,128,0,20077:0:0:0:0:
320,192,19274,128,0,20077:0:0:0:0:
448,192,20452,128,0,21862:0:0:0:0:
320,192,21862,128,0,22118:0:0:0:0:
192,192,22118,128,0,22439:0:0:0:0:
64,192,22439,128,0,23016:0:0:0:0:
448,192,23016,128,0,23528:0:0:0:0:
192,192,23016,128,0,23272:0:0:0:0:
320,192,23272,128,0,23528:0:0:0:0:
64,192,23528,128,0,24041:0:0:0:0:
192,192,24041,128,0,24554:0:0:0:0:
448,192,24041,128,0,24298:0:0:0:0:
64,192,24298,128,0,24554:0:0:0:0:
320,192,24554,128,0,25195:0:0:0:0:
64,192,25195,128,0,26118:0:0:0:0:
448,192,25195,128,0,26118:0:0:0:0:
192,192,26118,128,0,26565:0:0:0:0:
320,192,26118,128,0,26565:0:0:0:0:
64,192,26715,128,0,27162:0:0:0:0:
320,192,26715,128,0,27162:0:0:0:0:
192,192,27312,128,0,27759:0:0:0:0:
448,192,27312,128,0,27759:0:0:0:0:
64,192,27909,128,0,29151:0:0:0:0:
448,192,27909,128,0,29151:0:0:0:0:
320,192,29151,1,0,0:0:0:0:
192,192,29392,1,0,0:0:0:0:
320,192,29634,1,0,0:0:0:0:
192,192,29876,1,0,0:0:0:0:
320,192,30118,1,0,0:0:0:0:
192,192,30360,1,0,0:0:0:0:
320,192,30602,1,0,0:0:0:0:
192,192,30844,1,0,0:0:0:0:
64,192,31086,128,0,31328:0:0:0:0:
320,192,31086,1,0,0:0:0:0:
448,192,31328,1,0,0:0:0:0:
64,192,31570,128,0,32538:0:0:0:0:
320,192,31570,1,0,0:0:0:0:
448,192,31812,1,0,0:0:0:0:
320,192,32054,1,0,0:0:0:0:
448,192,32296,1,0,0:0:0:0:
192,192,32538,1,0,0:0:0:0:
320,192,32538,1,0,0:0:0:0:
448,192,32659,1,0,0:0:0:0:
320,192,32780,1,0,0:0:0:0:
448,192,32900,1,0,0:0:0:0:
192,192,33021,128,0,34957:0:0:0:0:
64,192,33021,128,0,33263:0:0:0:0:
320,192,33021,1,0,0:0:0:0:
320,192,33263,128,0,33505:0:0:0:0:
448,192,33263,1,0,0:0:0:0:
448,192,33505,128,0,33747:0:0:0:0:
64,192,33505,1,0,0:0:0:0:
320,192,33747,128,0,33989:0:0:0:0:
64,192,33747,1,0,0:0:0:0:
448,192,33989,128,0,34473:0:0:0:0:
64,192,33989,1,0,0:0:0:0:
64,192,34231,1,0,0:0:0:0:
320,192,34473,128,0,34715:0:0:0:0:
64,192,34473,1,0,0:0:0:0:
64,192,34715,128,0,34957:0:0:0:0:
448,192,34715,1,0,0:0:0:0:
448,192,34957,1,0,0:0:0:0:
320,192,34957,128,0,35199:0:0:0:0:
192,192,35199,1,0,0:0:0:0:
320,192,35441,128,0,36409:0:0:0:0:
64,192,35441,1,0,0:0:0:0:
192,192,35683,1,0,0:0:0:0:
64,192,35925,1,0,0:0:0:0:
192,192,36167,1,0,0:0:0:0:
64,192,36409,1,0,0:0:0:0:
448,192,36530,1,0,0:0:0:0:
192,192,36650,1,0,0:0:0:0:
320,192,36650,1,0,0:0:0:0:
448,192,36771,1,0,0:0:0:0:
64,192,36892,1,0,0:0:0:0:
320,192,36892,128,0,38828:0:0:0:0:
192,192,36892,128,0,37134:0:0:0:0:
64,192,37134,128,0,37376:0:0:0:0:
448,192,37134,1,0,0:0:0:0:
192,192,37376,128,0,37618:0:0:0:0:
448,192,37376,1,0,0:0:0:0:
448,192,37618,128,0,37860:0:0:0:0:
64,192,37618,1,0,0:0:0:0:
64,192,37860,128,0,38344:0:0:0:0:
192,192,37860,1,0,0:0:0:0:
448,192,38102,1,0,0:0:0:0:
192,192,38344,128,0,38586:0:0:0:0:
448,192,38344,1,0,0:0:0:0:
64,192,38586,1,0,0:0:0:0:
448,192,38586,128,0,38828:0:0:0:0:
64,192,38828,1,0,0:0:0:0:
192,192,38828,128,0,39070:0:0:0:0:
320,192,39070,1,0,0:0:0:0:
192,192,39312,128,0,40280:0:0:0:0:
448,192,39312,1,0,0:0:0:0:
320,192,39554,1,0,0:0:0:0:
448,192,39796,1,0,0:0:0:0:
320,192,40038,1,0,0:0:0:0:
448,192,40280,1,0,0:0:0:0:
320,192,40400,1,0,0:0:0:0:
64,192,40521,1,0,0:0:0:0:
192,192,40521,1,0,0:0:0:0:
320,192,40642,1,0,0:0:0:0:
448,192,40763,1,0,0:0:0:0:
64,192,40763,128,0,42699:0:0:0:0:
192,192,40763,128,0,41005:0:0:0:0:
320,192,41005,128,0,41247:0:0:0:0:
448,192,41005,1,0,0:0:0:0:
448,192,41247,128,0,41489:0:0:0:0:
192,192,41247,1,0,0:0:0:0:
320,192,41489,128,0,41731:0:0:0:0:
192,192,41489,1,0,0:0:0:0:
192,192,41731,128,0,42215:0:0:0:0:
448,192,41731,1,0,0:0:0:0:
448,192,41973,1,0,0:0:0:0:
448,192,42215,128,0,42457:0:0:0:0:
320,192,42215,1,0,0:0:0:0:
320,192,42457,1,0,0:0:0:0:
192,192,42457,128,0,42699:0:0:0:0:
448,192,42699,128,0,42941:0:0:0:0:
320,192,42699,1,0,0:0:0:0:
192,192,42941,1,0,0:0:0:0:
448,192,43183,128,0,44150:0:0:0:0:
320,192,43183,1,0,0:0:0:0:
192,192,43425,1,0,0:0:0:0:
320,192,43667,1,0,0:0:0:0:
192,192,43909,1,0,0:0:0:0:
320,192,44150,1,0,0:0:0:0:
192,192,44271,1,0,0:0:0:0:
64,192,44392,1,0,0:0:0:0:
448,192,44392,1,0,0:0:0:0:
320,192,44513,1,0,0:0:0:0:
192,192,44634,128,0,44876:0:0:0:0:
448,192,44634,1,0,0:0:0:0:
320,192,44876,1,0,0:0:0:0:
192,192,45118,128,0,46086:0:0:0:0:
448,192,45118,1,0,0:0:0:0:
320,192,45360,1,0,0:0:0:0:
448,192,45602,1,0,0:0:0:0:
320,192,45844,1,0,0:0:0:0:
448,192,46086,1,0,0:0:0:0:
320,192,46207,1,0,0:0:0:0:
64,192,46328,1,0,0:0:0:0:
448,192,46328,1,0,0:0:0:0:
192,192,46449,1,0,0:0:0:0:
64,192,46570,1,0,0:0:0:0:
320,192,46570,1,0,0:0:0:0:
64,192,46691,1,0,0:0:0:0:
320,192,46691,1,0,0:0:0:0:
448,192,46812,1,0,0:0:0:0:
192,192,46812,1,0,0:0:0:0:
320,192,47054,1,0,0:0:0:0:
192,192,47175,1,0,0:0:0:0:
64,192,47296,1,0,0:0:0:0:
448,192,47296,1,0,0:0:0:0:
320,192,47417,1,0,0:0:0:0:
192,192,47538,1,0,0:0:0:0:
448,192,47538,1,0,0:0:0:0:
192,192,47659,1,0,0:0:0:0:
448,192,47659,1,0,0:0:0:0:
320,192,47780,1,0,0:0:0:0:
64,192,47780,1,0,0:0:0:0:
192,192,48021,1,0,0:0:0:0:
320,192,48142,1,0,0:0:0:0:
448,192,48263,1,0,0:0:0:0:
64,192,48263,1,0,0:0:0:0:
192,192,48384,1,0,0:0:0:0:
320,192,48505,1,0,0:0:0:0:
448,192,48505,1,0,0:0:0:0:
320,192,48747,1,0,0:0:0:0:
448,192,48747,1,0,0:0:0:0:
64,192,48989,1,0,0:0:0:0:
192,192,48989,1,0,0:0:0:0:
64,192,49231,1,0,0:0:0:0:
320,192,49231,1,0,0:0:0:0:
448,192,49473,1,0,0:0:0:0:
64,192,49473,1,0,0:0:0:0:
64,192,49715,1,0,0:0:0:0:
448,192,49715,1,0,0:0:0:0:
192,192,49957,1,0,0:0:0:0:
448,192,49957,1,0,0:0:0:0:
64,192,50199,1,0,0:0:0:0:
320,192,50199,1,0,0:0:0:0:
192,192,50259,1,0,0:0:0:0:
448,192,50320,1,0,0:0:0:0:
192,192,50414,1,0,0:0:0:0:
64,192,50502,1,0,0:0:0:0:
448,192,50590,1,0,0:0:0:0:
320,192,50678,1,0,0:0:0:0:
64,192,50766,1,0,0:0:0:0:
448,192,50766,1,0,0:0:0:0:
192,192,50855,1,0,0:0:0:0:
64,192,50943,1,0,0:0:0:0:
192,192,51031,1,0,0:0:0:0:
320,192,51119,1,0,0:0:0:0:
448,192,51119,1,0,0:0:0:0:
192,192,51208,1,0,0:0:0:0:
64,192,51296,1,0,0:0:0:0:
448,192,51384,1,0,0:0:0:0:
192,192,51472,1,0,0:0:0:0:
320,192,51472,1,0,0:0:0:0:
64,192,51561,1,0,0:0:0:0:
192,192,51649,1,0,0:0:0:0:
320,192,51737,1,0,0:0:0:0:
448,192,51825,1,0,0:0:0:0:
64,192,51825,1,0,0:0:0:0:
320,192,51914,1,0,0:0:0:0:
192,192,52002,1,0,0:0:0:0:
64,192,52090,1,0,0:0:0:0:
192,192,52178,1,0,0:0:0:0:
320,192,52178,1,0,0:0:0:0:
448,192,52266,1,0,0:0:0:0:
320,192,52355,1,0,0:0:0:0:
192,192,52443,1,0,0:0:0:0:
448,192,52531,1,0,0:0:0:0:
320,192,52531,1,0,0:0:0:0:
64,192,52619,1,0,0:0:0:0:
320,192,52708,1,0,0:0:0:0:
192,192,52796,1,0,0:0:0:0:
64,192,52884,1,0,0:0:0:0:
448,192,52884,1,0,0:0:0:0:
320,192,52972,1,0,0:0:0:0:
64,192,53061,1,0,0:0:0:0:
192,192,53149,1,0,0:0:0:0:
320,192,53237,128,0,54296:0:0:0:0:
448,192,53237,1,0,0:0:0:0:
192,192,53325,1,0,0:0:0:0:
64,192,53414,1,0,0:0:0:0:
192,192,53502,1,0,0:0:0:0:
448,192,53590,1,0,0:0:0:0:
192,192,53678,1,0,0:0:0:0:
64,192,53766,1,0,0:0:0:0:
192,192,53855,1,0,0:0:0:0:
448,192,53943,1,0,0:0:0:0:
192,192,54031,1,0,0:0:0:0:
64,192,54119,1,0,0:0:0:0:
192,192,54208,1,0,0:0:0:0:
64,192,54296,128,0,54472:0:0:0:0:
448,192,54296,1,0,0:0:0:0:
192,192,54384,1,0,0:0:0:0:
320,192,54472,128,0,54649:0:0:0:0:
448,192,54472,1,0,0:0:0:0:
64,192,54561,1,0,0:0:0:0:
192,192,54649,128,0,55355:0:0:0:0:
448,192,54649,1,0,0:0:0:0:
320,192,54737,1,0,0:0:0:0:
64,192,54825,1,0,0:0:0:0:
320,192,54914,1,0,0:0:0:0:
448,192,55002,1,0,0:0:0:0:
320,192,55090,1,0,0:0:0:0:
64,192,55178,1,0,0:0:0:0:
320,192,55266,1,0,0:0:0:0:
320,192,55355,128,0,55708:0:0:0:0:
448,192,55355,1,0,0:0:0:0:
64,192,55443,1,0,0:0:0:0:
192,192,55531,1,0,0:0:0:0:
448,192,55619,1,0,0:0:0:0:
64,192,55708,128,0,55884:0:0:0:0:
192,192,55708,1,0,0:0:0:0:
320,192,55796,1,0,0:0:0:0:
192,192,55884,128,0,56061:0:0:0:0:
448,192,55884,1,0,0:0:0:0:
64,192,55972,1,0,0:0:0:0:
320,192,56061,128,0,57119:0:0:0:0:
448,192,56061,1,0,0:0:0:0:
64,192,56149,1,0,0:0:0:0:
192,192,56237,1,0,0:0:0:0:
448,192,56325,1,0,0:0:0:0:
192,192,56414,1,0,0:0:0:0:
64,192,56502,1,0,0:0:0:0:
192,192,56590,1,0,0:0:0:0:
448,192,56678,1,0,0:0:0:0:
192,192,56766,1,0,0:0:0:0:
64,192,56855,1,0,0:0:0:0:
192,192,56943,1,0,0:0:0:0:
448,192,57031,1,0,0:0:0:0:
64,192,57119,128,0,57296:0:0:0:0:
192,192,57119,1,0,0:0:0:0:
448,192,57208,1,0,0:0:0:0:
192,192,57296,128,0,57472:0:0:0:0:
320,192,57296,1,0,0:0:0:0:
448,192,57384,1,0,0:0:0:0:
64,192,57472,128,0,58178:0:0:0:0:
320,192,57472,1,0,0:0:0:0:
448,192,57561,1,0,0:0:0:0:
192,192,57649,1,0,0:0:0:0:
320,192,57737,1,0,0:0:0:0:
192,192,57825,1,0,0:0:0:0:
320,192,57913,1,0,0:0:0:0:
448,192,58002,1,0,0:0:0:0:
320,192,58090,1,0,0:0:0:0:
448,192,58178,1,0,0:0:0:0:
192,192,58178,1,0,0:0:0:0:
320,192,58266,1,0,0:0:0:0:
64,192,58355,1,0,0:0:0:0:
192,192,58355,1,0,0:0:0:0:
320,192,58443,1,0,0:0:0:0:
192,192,58531,1,0,0:0:0:0:
448,192,58531,1,0,0:0:0:0:
64,192,58619,1,0,0:0:0:0:
192,192,58708,1,0,0:0:0:0:
320,192,58708,1,0,0:0:0:0:
192,192,58796,1,0,0:0:0:0:
64,192,58796,1,0,0:0:0:0:
320,192,58884,1,0,0:0:0:0:
448,192,58884,128,0,59943:0:0:0:0:
192,192,58972,1,0,0:0:0:0:
64,192,59061,1,0,0:0:0:0:
320,192,59149,1,0,0:0:0:0:
192,192,59237,1,0,0:0:0:0:
64,192,59237,1,0,0:0:0:0:
320,192,59325,1,0,0:0:0:0:
192,192,59413,1,0,0:0:0:0:
64,192,59502,1,0,0:0:0:0:
320,192,59590,1,0,0:0:0:0:
192,192,59590,1,0,0:0:0:0:
64,192,59678,1,0,0:0:0:0:
192,192,59766,1,0,0:0:0:0:
64,192,59855,1,0,0:0:0:0:
320,192,59943,128,0,60119:0:0:0:0:
192,192,59943,1,0,0:0:0:0:
448,192,60031,1,0,0:0:0:0:
192,192,60119,128,0,60296:0:0:0:0:
64,192,60119,1,0,0:0:0:0:
320,192,60208,1,0,0:0:0:0:
64,192,60296,128,0,60649:0:0:0:0:
448,192,60296,1,0,0:0:0:0:
320,192,60384,1,0,0:0:0:0:
192,192,60472,1,0,0:0:0:0:
320,192,60561,1,0,0:0:0:0:
448,192,60649,1,0,0:0:0:0:
192,192,60649,1,0,0:0:0:0:
320,192,60737,1,0,0:0:0:0:
64,192,60825,1,0,0:0:0:0:
192,192,60825,1,0,0:0:0:0:
320,192,60913,1,0,0:0:0:0:
64,192,61002,128,0,61708:0:0:0:0:
448,192,61002,1,0,0:0:0:0:
192,192,61090,1,0,0:0:0:0:
320,192,61178,1,0,0:0:0:0:
448,192,61266,1,0,0:0:0:0:
320,192,61355,1,0,0:0:0:0:
192,192,61355,1,0,0:0:0:0:
448,192,61443,1,0,0:0:0:0:
192,192,61531,1,0,0:0:0:0:
320,192,61619,1,0,0:0:0:0:
448,192,61708,1,0,0:0:0:0:
192,192,61708,128,0,62061:0:0:0:0:
320,192,61796,1,0,0:0:0:0:
64,192,61884,1,0,0:0:0:0:
320,192,61972,1,0,0:0:0:0:
448,192,62061,1,0,0:0:0:0:
320,192,62149,1,0,0:0:0:0:
448,192,62237,1,0,0:0:0:0:
192,192,62237,1,0,0:0:0:0:
64,192,62325,1,0,0:0:0:0:
448,192,62413,128,0,62766:0:0:0:0:
192,192,62413,1,0,0:0:0:0:
320,192,62502,1,0,0:0:0:0:
192,192,62590,1,0,0:0:0:0:
64,192,62678,1,0,0:0:0:0:
320,192,62766,128,0,62943:0:0:0:0:
192,192,62766,1,0,0:0:0:0:
64,192,62855,1,0,0:0:0:0:
192,192,62943,128,0,63119:0:0:0:0:
448,192,63031,1,0,0:0:0:0:
320,192,63119,1,0,0:0:0:0:
64,192,63119,1,0,0:0:0:0:
192,192,63208,1,0,0:0:0:0:
448,192,63208,1,0,0:0:0:0:
64,192,63296,1,0,0:0:0:0:
320,192,63296,1,0,0:0:0:0:
192,192,63384,1,0,0:0:0:0:
448,192,63384,1,0,0:0:0:0:
320,192,63472,1,0,0:0:0:0:
64,192,63472,1,0,0:0:0:0:
192,192,63561,1,0,0:0:0:0:
448,192,63561,1,0,0:0:0:0:
320,192,63649,1,0,0:0:0:0:
64,192,63649,1,0,0:0:0:0:
192,192,63737,1,0,0:0:0:0:
448,192,63737,1,0,0:0:0:0:
320,192,63825,1,0,0:0:0:0:
64,192,63825,1,0,0:0:0:0:
192,192,63913,1,0,0:0:0:0:
320,192,64002,1,0,0:0:0:0:
448,192,64002,1,0,0:0:0:0:
64,192,64090,1,0,0:0:0:0:
192,192,64178,1,0,0:0:0:0:
320,192,64178,1,0,0:0:0:0:
448,192,64266,1,0,0:0:0:0:
320,192,64355,1,0,0:0:0:0:
64,192,64355,1,0,0:0:0:0:
192,192,64443,1,0,0:0:0:0:
64,192,64531,1,0,0:0:0:0:
448,192,64531,128,0,65590:0:0:0:0:
320,192,64619,1,0,0:0:0:0:
192,192,64708,1,0,0:0:0:0:
64,192,64796,1,0,0:0:0:0:
192,192,64884,1,0,0:0:0:0:
320,192,64884,1,0,0:0:0:0:
64,192,64972,1,0,0:0:0:0:
320,192,65061,1,0,0:0:0:0:
64,192,65149,1,0,0:0:0:0:
320,192,65237,1,0,0:0:0:0:
192,192,65237,1,0,0:0:0:0:
64,192,65325,1,0,0:0:0:0:
320,192,65413,1,0,0:0:0:0:
192,192,65502,1,0,0:0:0:0:
64,192,65590,128,0,65766:0:0:0:0:
320,192,65590,1,0,0:0:0:0:
192,192,65678,1,0,0:0:0:0:
448,192,65766,128,0,65943:0:0:0:0:
320,192,65766,1,0,0:0:0:0:
192,192,65855,1,0,0:0:0:0:
192,192,65943,128,0,66649:0:0:0:0:
64,192,65943,1,0,0:0:0:0:
448,192,66031,1,0,0:0:0:0:
320,192,66119,1,0,0:0:0:0:
64,192,66208,1,0,0:0:0:0:
320,192,66296,1,0,0:0:0:0:
448,192,66296,1,0,0:0:0:0:
64,192,66384,1,0,0:0:0:0:
448,192,66472,1,0,0:0:0:0:
320,192,66561,1,0,0:0:0:0:
448,192,66649,128,0,67002:0:0:0:0:
64,192,66649,1,0,0:0:0:0:
192,192,66737,1,0,0:0:0:0:
320,192,66825,1,0,0:0:0:0:
64,192,66913,1,0,0:0:0:0:
320,192,67002,128,0,67178:0:0:0:0:
192,192,67002,1,0,0:0:0:0:
64,192,67090,1,0,0:0:0:0:
192,192,67178,128,0,67355:0:0:0:0:
448,192,67178,1,0,0:0:0:0:
64,192,67266,1,0,0:0:0:0:
448,192,67355,128,0,68413:0:0:0:0:
320,192,67355,1,0,0:0:0:0:
192,192,67443,1,0,0:0:0:0:
64,192,67531,1,0,0:0:0:0:
320,192,67619,1,0,0:0:0:0:
64,192,67708,1,0,0:0:0:0:
192,192,67708,1,0,0:0:0:0:
320,192,67796,1,0,0:0:0:0:
64,192,67884,1,0,0:0:0:0:
320,192,67972,1,0,0:0:0:0:
64,192,68061,1,0,0:0:0:0:
192,192,68061,1,0,0:0:0:0:
320,192,68149,1,0,0:0:0:0:
192,192,68237,1,0,0:0:0:0:
64,192,68325,1,0,0:0:0:0:
192,192,68413,128,0,68590:0:0:0:0:
320,192,68413,1,0,0:0:0:0:
448,192,68502,1,0,0:0:0:0:
64,192,68590,128,0,68766:0:0:0:0:
320,192,68590,1,0,0:0:0:0:
448,192,68678,1,0,0:0:0:0:
320,192,68766,128,0,70178:0:0:0:0:
192,192,68766,1,0,0:0:0:0:
448,192,68855,1,0,0:0:0:0:
192,192,68943,1,0,0:0:0:0:
64,192,69031,1,0,0:0:0:0:
192,192,69119,1,0,0:0:0:0:
448,192,69119,1,0,0:0:0:0:
64,192,69208,1,0,0:0:0:0:
192,192,69296,1,0,0:0:0:0:
448,192,69384,1,0,0:0:0:0:
64,192,69472,1,0,0:0:0:0:
192,192,69472,1,0,0:0:0:0:
448,192,69561,1,0,0:0:0:0:
192,192,69649,1,0,0:0:0:0:
448,192,69737,1,0,0:0:0:0:
64,192,69825,1,0,0:0:0:0:
448,192,69913,1,0,0:0:0:0:
192,192,70002,1,0,0:0:0:0:
448,192,70090,1,0,0:0:0:0:
64,192,70178,1,0,0:0:0:0:
192,192,70178,1,0,0:0:0:0:
320,192,70355,1,0,0:0:0:0:
448,192,70355,1,0,0:0:0:0:
64,192,70531,1,0,0:0:0:0:
448,192,70531,1,0,0:0:0:0:
192,192,70531,1,0,0:0:0:0:
320,192,70619,1,0,0:0:0:0:
64,192,70708,1,0,0:0:0:0:
448,192,70708,1,0,0:0:0:0:
192,192,70796,1,0,0:0:0:0:
64,192,70884,1,0,0:0:0:0:
448,192,70884,1,0,0:0:0:0:
320,192,70884,1,0,0:0:0:0:
64,192,71061,1,0,0:0:0:0:
192,192,71061,1,0,0:0:0:0:
448,192,71061,1,0,0:0:0:0:
192,192,71237,1,0,0:0:0:0:
320,192,71237,1,0,0:0:0:0:
448,192,71237,1,0,0:0:0:0:
320,192,71413,1,0,0:0:0:0:
192,192,71413,1,0,0:0:0:0:
64,192,71413,1,0,0:0:0:0:
448,192,71502,1,0,0:0:0:0:
320,192,71590,1,0,0:0:0:0:
192,192,71590,1,0,0:0:0:0:
64,192,71678,1,0,0:0:0:0:
320,192,71766,1,0,0:0:0:0:
448,192,71766,1,0,0:0:0:0:
64,192,71943,1,0,0:0:0:0:
192,192,71943,1,0,0:0:0:0:
320,192,71943,1,0,0:0:0:0:
448,192,72031,1,0,0:0:0:0:
320,192,72119,1,0,0:0:0:0:
64,192,72119,1,0,0:0:0:0:
192,192,72208,1,0,0:0:0:0:
320,192,72296,1,0,0:0:0:0:
64,192,72296,1,0,0:0:0:0:
448,192,72296,1,0,0:0:0:0:
192,192,72472,1,0,0:0:0:0:
320,192,72472,1,0,0:0:0:0:
448,192,72472,1,0,0:0:0:0:
64,192,72649,1,0,0:0:0:0:
192,192,72649,1,0,0:0:0:0:
320,192,72649,1,0,0:0:0:0:
192,192,72825,1,0,0:0:0:0:
448,192,72825,1,0,0:0:0:0:
320,192,72913,1,0,0:0:0:0:
192,192,73002,1,0,0:0:0:0:
448,192,73002,1,0,0:0:0:0:
64,192,73002,1,0,0:0:0:0:
320,192,73090,1,0,0:0:0:0:
192,192,73178,1,0,0:0:0:0:
64,192,73266,1,0,0:0:0:0:
448,192,73355,1,0,0:0:0:0:
192,192,73355,1,0,0:0:0:0:
320,192,73443,1,0,0:0:0:0:
192,192,73531,1,0,0:0:0:0:
64,192,73531,1,0,0:0:0:0:
320,192,73619,1,0,0:0:0:0:
192,192,73708,1,0,0:0:0:0:
64,192,73708,1,0,0:0:0:0:
320,192,73796,1,0,0:0:0:0:
448,192,73884,1,0,0:0:0:0:
192,192,73884,1,0,0:0:0:0:
64,192,73972,1,0,0:0:0:0:
192,192,74061,1,0,0:0:0:0:
320,192,74061,1,0,0:0:0:0:
448,192,74149,1,0,0:0:0:0:
64,192,74149,1,0,0:0:0:0:
320,192,74237,1,0,0:0:0:0:
192,192,74237,1,0,0:0:0:0:
64,192,74325,1,0,0:0:0:0:
448,192,74325,1,0,0:0:0:0:
192,192,74413,1,0,0:0:0:0:
320,192,74413,1,0,0:0:0:0:
448,192,74502,1,0,0:0:0:0:
320,192,74590,1,0,0:0:0:0:
192,192,74590,1,0,0:0:0:0:
64,192,74678,1,0,0:0:0:0:
192,192,74766,1,0,0:0:0:0:
448,192,74766,1,0,0:0:0:0:
320,192,74855,1,0,0:0:0:0:
64,192,74855,1,0,0:0:0:0:
192,192,74943,1,0,0:0:0:0:
448,192,74943,1,0,0:0:0:0:
64,192,75031,1,0,0:0:0:0:
320,192,75031,1,0,0:0:0:0:
192,192,75119,128,0,75472:0:0:0:0:
448,192,75119,128,0,75296:0:0:0:0:
320,192,75472,1,0,0:0:0:0:
448,192,75472,1,0,0:0:0:0:
64,192,75561,1,0,0:0:0:0:
192,192,75561,1,0,0:0:0:0:
320,192,75649,1,0,0:0:0:0:
448,192,75649,1,0,0:0:0:0:
64,192,75737,1,0,0:0:0:0:
192,192,75737,1,0,0:0:0:0:
320,192,75825,1,0,0:0:0:0:
448,192,75825,1,0,0:0:0:0:
192,192,75913,1,0,0:0:0:0:
64,192,76002,1,0,0:0:0:0:
448,192,76002,1,0,0:0:0:0:
320,192,76090,1,0,0:0:0:0:
192,192,76178,128,0,76531:0:0:0:0:
64,192,76178,1,0,0:0:0:0:
448,192,76266,1,0,0:0:0:0:
320,192,76355,1,0,0:0:0:0:
64,192,76443,1,0,0:0:0:0:
448,192,76531,128,0,76884:0:0:0:0:
320,192,76531,1,0,0:0:0:0:
64,192,76619,1,0,0:0:0:0:
320,192,76708,1,0,0:0:0:0:
192,192,76796,1,0,0:0:0:0:
320,192,76884,128,0,77237:0:0:0:0:
64,192,76884,1,0,0:0:0:0:
192,192,76972,1,0,0:0:0:0:
448,192,77061,1,0,0:0:0:0:
192,192,77149,1,0,0:0:0:0:
64,192,77237,128,0,77590:0:0:0:0:
448,192,77237,1,0,0:0:0:0:
192,192,77325,1,0,0:0:0:0:
320,192,77413,1,0,0:0:0:0:
448,192,77413,1,0,0:0:0:0:
192,192,77502,1,0,0:0:0:0:
448,192,77590,1,0,0:0:0:0:
320,192,77590,128,0,77766:0:0:0:0:
192,192,77678,1,0,0:0:0:0:
448,192,77766,128,0,78119:0:0:0:0:
64,192,77766,1,0,0:0:0:0:
192,192,77855,1,0,0:0:0:0:
64,192,77943,1,0,0:0:0:0:
192,192,78031,1,0,0:0:0:0:
320,192,78119,128,0,78472:0:0:0:0:
64,192,78119,1,0,0:0:0:0:
192,192,78208,1,0,0:0:0:0:
64,192,78296,1,0,0:0:0:0:
192,192,78384,1,0,0:0:0:0:
448,192,78472,128,0,78649:0:0:0:0:
192,192,78561,1,0,0:0:0:0:
64,192,78649,128,0,79002:0:0:0:0:
320,192,78649,1,0,0:0:0:0:
448,192,78737,1,0,0:0:0:0:
320,192,78825,1,0,0:0:0:0:
192,192,78913,1,0,0:0:0:0:
320,192,79002,1,0,0:0:0:0:
448,192,79002,128,0,79178:0:0:0:0:
192,192,79090,1,0,0:0:0:0:
320,192,79178,128,0,79531:0:0:0:0:
64,192,79178,1,0,0:0:0:0:
192,192,79266,1,0,0:0:0:0:
64,192,79355,1,0,0:0:0:0:
192,192,79443,1,0,0:0:0:0:
448,192,79531,128,0,79884:0:0:0:0:
64,192,79619,1,0,0:0:0:0:
320,192,79708,1,0,0:0:0:0:
192,192,79708,1,0,0:0:0:0:
64,192,79796,1,0,0:0:0:0:
192,192,79884,128,0,80061:0:0:0:0:
320,192,79884,1,0,0:0:0:0:
448,192,79972,1,0,0:0:0:0:
64,192,80061,128,0,80943:0:0:0:0:
320,192,80061,1,0,0:0:0:0:
448,192,80149,1,0,0:0:0:0:
192,192,80237,1,0,0:0:0:0:
320,192,80325,1,0,0:0:0:0:
192,192,80413,1,0,0:0:0:0:
448,192,80413,1,0,0:0:0:0:
320,192,80502,1,0,0:0:0:0:
448,192,80590,1,0,0:0:0:0:
320,192,80678,1,0,0:0:0:0:
192,192,80766,1,0,0:0:0:0:
448,192,80766,1,0,0:0:0:0:
320,192,80943,1,0,0:0:0:0:
448,192,80943,1,0,0:0:0:0:
64,192,81119,1,0,0:0:0:0:
192,192,81119,1,0,0:0:0:0:
320,192,81208,1,0,0:0:0:0:
448,192,81296,1,0,0:0:0:0:
192,192,81296,1,0,0:0:0:0:
64,192,81384,1,0,0:0:0:0:
320,192,81472,1,0,0:0:0:0:
448,192,81472,1,0,0:0:0:0:
192,192,81561,1,0,0:0:0:0:
64,192,81649,1,0,0:0:0:0:
448,192,81649,1,0,0:0:0:0:
320,192,81737,1,0,0:0:0:0:
192,192,81825,1,0,0:0:0:0:
64,192,81825,128,0,82002:0:0:0:0:
448,192,81913,1,0,0:0:0:0:
320,192,82002,1,0,0:0:0:0:
192,192,82002,1,0,0:0:0:0:
64,192,82090,1,0,0:0:0:0:
320,192,82178,128,0,82355:0:0:0:0:
448,192,82178,1,0,0:0:0:0:
192,192,82266,1,0,0:0:0:0:
64,192,82355,1,0,0:0:0:0:
448,192,82355,1,0,0:0:0:0:
192,192,82355,128,0,82531:0:0:0:0:
320,192,82443,1,0,0:0:0:0:
448,192,82531,1,0,0:0:0:0:
64,192,82531,1,0,0:0:0:0:
192,192,82619,1,0,0:0:0:0:
448,192,82708,1,0,0:0:0:0:
320,192,82708,1,0,0:0:0:0:
192,192,82796,1,0,0:0:0:0:
64,192,82796,1,0,0:0:0:0:
320,192,82884,1,0,0:0:0:0:
448,192,82884,128,0,83237:0:0:0:0:
192,192,82972,1,0,0:0:0:0:
64,192,83061,1,0,0:0:0:0:
320,192,83061,1,0,0:0:0:0:
192,192,83149,1,0,0:0:0:0:
320,192,83237,128,0,83413:0:0:0:0:
64,192,83237,1,0,0:0:0:0:
192,192,83325,1,0,0:0:0:0:
64,192,83413,128,0,83943:0:0:0:0:
448,192,83413,1,0,0:0:0:0:
192,192,83502,1,0,0:0:0:0:
448,192,83590,1,0,0:0:0:0:
320,192,83590,1,0,0:0:0:0:
192,192,83678,1,0,0:0:0:0:
448,192,83766,1,0,0:0:0:0:
192,192,83855,1,0,0:0:0:0:
448,192,83943,1,0,0:0:0:0:
192,192,84031,1,0,0:0:0:0:
448,192,84119,1,0,0:0:0:0:
320,192,84119,1,0,0:0:0:0:
64,192,84119,1,0,0:0:0:0:
64,192,84296,1,0,0:0:0:0:
192,192,84296,1,0,0:0:0:0:
448,192,84296,1,0,0:0:0:0:
320,192,84384,1,0,0:0:0:0:
64,192,84472,1,0,0:0:0:0:
448,192,84472,1,0,0:0:0:0:
192,192,84561,1,0,0:0:0:0:
64,192,84649,1,0,0:0:0:0:
448,192,84649,1,0,0:0:0:0:
320,192,84737,1,0,0:0:0:0:
192,192,84825,1,0,0:0:0:0:
448,192,84825,1,0,0:0:0:0:
320,192,84913,1,0,0:0:0:0:
64,192,85002,1,0,0:0:0:0:
192,192,85002,1,0,0:0:0:0:
320,192,85090,1,0,0:0:0:0:
192,192,85178,1,0,0:0:0:0:
448,192,85178,1,0,0:0:0:0:
320,192,85266,1,0,0:0:0:0:
192,192,85355,1,0,0:0:0:0:
448,192,85355,1,0,0:0:0:0:
64,192,85443,1,0,0:0:0:0:
448,192,85531,1,0,0:0:0:0:
192,192,85531,1,0,0:0:0:0:
320,192,85619,1,0,0:0:0:0:
64,192,85708,1,0,0:0:0:0:
448,192,85708,1,0,0:0:0:0:
192,192,85796,1,0,0:0:0:0:
320,192,85884,1,0,0:0:0:0:
64,192,85884,1,0,0:0:0:0:
448,192,85972,1,0,0:0:0:0:
448,192,86061,1,0,0:0:0:0:
64,192,86061,1,0,0:0:0:0:
320,192,86149,1,0,0:0:0:0:
192,192,86237,1,0,0:0:0:0:
448,192,86237,1,0,0:0:0:0:
64,192,86325,1,0,0:0:0:0:
64,192,86413,1,0,0:0:0:0:
448,192,86413,1,0,0:0:0:0:
192,192,86502,1,0,0:0:0:0:
320,192,86590,1,0,0:0:0:0:
64,192,86590,1,0,0:0:0:0:
448,192,86678,1,0,0:0:0:0:
448,192,86766,1,0,0:0:0:0:
320,192,86855,1,0,0:0:0:0:
192,192,86943,1,0,0:0:0:0:
448,192,86943,1,0,0:0:0:0:
64,192,87031,1,0,0:0:0:0:
64,192,87119,1,0,0:0:0:0:
192,192,87119,1,0,0:0:0:0:
320,192,87208,1,0,0:0:0:0:
64,192,87296,1,0,0:0:0:0:
448,192,87296,1,0,0:0:0:0:
192,192,87384,1,0,0:0:0:0:
64,192,87472,128,0,87825:0:0:0:0:
320,192,87472,1,0,0:0:0:0:
448,192,87472,1,0,0:0:0:0:
192,192,87561,1,0,0:0:0:0:
448,192,87649,1,0,0:0:0:0:
320,192,87737,1,0,0:0:0:0:
192,192,87825,128,0,88178:0:0:0:0:
448,192,87825,1,0,0:0:0:0:
320,192,87913,1,0,0:0:0:0:
64,192,88002,1,0,0:0:0:0:
320,192,88090,1,0,0:0:0:0:
448,192,88178,128,0,88531:0:0:0:0:
64,192,88178,1,0,0:0:0:0:
320,192,88266,1,0,0:0:0:0:
64,192,88355,1,0,0:0:0:0:
192,192,88443,1,0,0:0:0:0:
64,192,88531,128,0,88884:0:0:0:0:
320,192,88531,1,0,0:0:0:0:
192,192,88619,1,0,0:0:0:0:
448,192,88708,1,0,0:0:0:0:
192,192,88796,1,0,0:0:0:0:
320,192,88884,128,0,89061:0:0:0:0:
448,192,88884,1,0,0:0:0:0:
64,192,88972,1,0,0:0:0:0:
192,192,89061,128,0,89237:0:0:0:0:
448,192,89061,1,0,0:0:0:0:
64,192,89149,1,0,0:0:0:0:
320,192,89237,1,0,0:0:0:0:
448,192,89237,1,0,0:0:0:0:
64,192,89325,1,0,0:0:0:0:
192,192,89413,128,0,89766:0:0:0:0:
320,192,89413,1,0,0:0:0:0:
448,192,89502,1,0,0:0:0:0:
64,192,89590,1,0,0:0:0:0:
320,192,89590,1,0,0:0:0:0:
448,192,89678,1,0,0:0:0:0:
64,192,89766,128,0,89943:0:0:0:0:
320,192,89766,1,0,0:0:0:0:
448,192,89855,1,0,0:0:0:0:
320,192,89943,128,0,90296:0:0:0:0:
192,192,89943,1,0,0:0:0:0:
448,192,90031,1,0,0:0:0:0:
192,192,90119,1,0,0:0:0:0:
64,192,90208,1,0,0:0:0:0:
192,192,90296,128,0,90472:0:0:0:0:
448,192,90296,1,0,0:0:0:0:
64,192,90384,1,0,0:0:0:0:
448,192,90472,128,0,90825:0:0:0:0:
320,192,90472,1,0,0:0:0:0:
64,192,90561,1,0,0:0:0:0:
192,192,90649,1,0,0:0:0:0:
320,192,90649,1,0,0:0:0:0:
64,192,90737,1,0,0:0:0:0:
192,192,90825,128,0,91178:0:0:0:0:
320,192,90825,1,0,0:0:0:0:
64,192,90913,1,0,0:0:0:0:
320,192,91002,1,0,0:0:0:0:
448,192,91002,1,0,0:0:0:0:
64,192,91090,1,0,0:0:0:0:
320,192,91178,1,0,0:0:0:0:
320,192,91266,1,0,0:0:0:0:
448,192,91355,128,0,92061:0:0:0:0:
64,192,91355,1,0,0:0:0:0:
192,192,91443,1,0,0:0:0:0:
320,192,91531,1,0,0:0:0:0:
64,192,91531,1,0,0:0:0:0:
192,192,91619,1,0,0:0:0:0:
320,192,91708,1,0,0:0:0:0:
64,192,91708,1,0,0:0:0:0:
192,192,91796,1,0,0:0:0:0:
320,192,91884,5,0,0:0:0:0:
64,192,91884,1,0,0:0:0:0:
192,192,91972,1,0,0:0:0:0:
320,192,92061,1,0,0:0:0:0:
64,192,92061,1,0,0:0:0:0:
64,192,92149,1,0,0:0:0:0:
448,192,92237,1,0,0:0:0:0:
192,192,92237,1,0,0:0:0:0:
320,192,92325,1,0,0:0:0:0:
64,192,92413,5,0,0:0:0:0:
192,192,92413,1,0,0:0:0:0:
320,192,92502,1,0,0:0:0:0:
448,192,92502,1,0,0:0:0:0:
192,192,92590,1,0,0:0:0:0:
64,192,92590,1,0,0:0:0:0:
320,192,92678,1,0,0:0:0:0:
448,192,92678,1,0,0:0:0:0:
192,192,92766,1,0,0:0:0:0:
64,192,92766,1,0,0:0:0:0:
320,192,92855,1,0,0:0:0:0:
448,192,92943,128,0,93119:0:0:0:0:
64,192,92943,1,0,0:0:0:0:
192,192,93031,1,0,0:0:0:0:
64,192,93119,1,0,0:0:0:0:
320,192,93119,1,0,0:0:0:0:
192,192,93208,1,0,0:0:0:0:
448,192,93296,128,0,93472:0:0:0:0:
320,192,93296,1,0,0:0:0:0:
64,192,93384,1,0,0:0:0:0:
320,192,93472,128,0,93649:0:0:0:0:
192,192,93472,1,0,0:0:0:0:
448,192,93561,1,0,0:0:0:0:
64,192,93649,128,0,94002:0:0:0:0:
192,192,93649,1,0,0:0:0:0:
448,192,93737,1,0,0:0:0:0:
320,192,93825,1,0,0:0:0:0:
192,192,93825,1,0,0:0:0:0:
448,192,93913,1,0,0:0:0:0:
192,192,94002,1,0,0:0:0:0:
448,192,94090,1,0,0:0:0:0:
192,192,94178,128,0,94531:0:0:0:0:
320,192,94178,1,0,0:0:0:0:
64,192,94266,1,0,0:0:0:0:
320,192,94355,1,0,0:0:0:0:
448,192,94443,1,0,0:0:0:0:
320,192,94531,1,0,0:0:0:0:
64,192,94531,1,0,0:0:0:0:
192,192,94619,1,0,0:0:0:0:
64,192,94708,128,0,95061:0:0:0:0:
320,192,94708,1,0,0:0:0:0:
192,192,94796,1,0,0:0:0:0:
320,192,94884,1,0,0:0:0:0:
448,192,94884,1,0,0:0:0:0:
192,192,94972,1,0,0:0:0:0:
320,192,95061,1,0,0:0:0:0:
448,192,95149,1,0,0:0:0:0:
320,192,95237,1,0,0:0:0:0:
64,192,95237,1,0,0:0:0:0:
192,192,95325,1,0,0:0:0:0:
64,192,95413,1,0,0:0:0:0:
320,192,95413,1,0,0:0:0:0:
448,192,95413,1,0,0:0:0:0:
64,192,95590,1,0,0:0:0:0:
192,192,95590,1,0,0:0:0:0:
448,192,95590,1,0,0:0:0:0:
320,192,95590,128,0,96296:0:0:0:0:
192,192,95855,1,0,0:0:0:0:
64,192,96075,1,0,0:0:0:0:
192,192,96296,128,0,97002:0:0:0:0:
64,192,96296,1,0,0:0:0:0:
448,192,96296,1,0,0:0:0:0:
320,192,96561,1,0,0:0:0:0:
448,192,96781,1,0,0:0:0:0:
64,192,97002,1,0,0:0:0:0:
448,192,97002,1,0,0:0:0:0:
320,192,97090,1,0,0:0:0:0:
192,192,97178,1,0,0:0:0:0:
64,192,97178,1,0,0:0:0:0:
448,192,97266,1,0,0:0:0:0:
64,192,97355,1,0,0:0:0:0:
320,192,97355,1,0,0:0:0:0:
192,192,97443,1,0,0:0:0:0:
448,192,97531,1,0,0:0:0:0:
320,192,97531,1,0,0:0:0:0:
64,192,97619,1,0,0:0:0:0:
192,192,97708,1,0,0:0:0:0:
448,192,97708,1,0,0:0:0:0:
64,192,97796,1,0,0:0:0:0:
320,192,97796,1,0,0:0:0:0:
192,192,97884,1,0,0:0:0:0:
448,192,97884,1,0,0:0:0:0:
320,192,97972,1,0,0:0:0:0:
64,192,97972,1,0,0:0:0:0:
192,192,98061,1,0,0:0:0:0:
448,192,98061,1,0,0:0:0:0:
320,192,98149,1,0,0:0:0:0:
64,192,98149,1,0,0:0:0:0:
192,192,98237,1,0,0:0:0:0:
448,192,98237,1,0,0:0:0:0:
64,192,98325,1,0,0:0:0:0:
320,192,98325,1,0,0:0:0:0:
64,192,98413,1,0,0:0:0:0:
192,192,98413,1,0,0:0:0:0:
320,192,98413,1,0,0:0:0:0:
448,192,98413,1,0,0:0:0:0:
64,192,98590,1,0,0:0:0:0:
64,192,98678,1,0,0:0:0:0:
320,192,98766,1,0,0:0:0:0:
448,192,98766,1,0,0:0:0:0:
192,192,98855,1,0,0:0:0:0:
448,192,98943,1,0,0:0:0:0:
448,192,99031,1,0,0:0:0:0:
192,192,99119,1,0,0:0:0:0:
64,192,99119,1,0,0:0:0:0:
448,192,99208,1,0,0:0:0:0:
320,192,99296,1,0,0:0:0:0:
320,192,99384,1,0,0:0:0:0:
448,192,99472,1,0,0:0:0:0:
192,192,99472,1,0,0:0:0:0:
64,192,99561,1,0,0:0:0:0:
192,192,99649,1,0,0:0:0:0:
192,192,99737,1,0,0:0:0:0:
64,192,99825,1,0,0:0:0:0:
320,192,99825,1,0,0:0:0:0:
448,192,100002,1,0,0:0:0:0:
320,192,100090,1,0,0:0:0:0:
64,192,100178,1,0,0:0:0:0:
448,192,100178,1,0,0:0:0:0:
192,192,100266,1,0,0:0:0:0:
64,192,100355,1,0,0:0:0:0:
448,192,100355,1,0,0:0:0:0:
448,192,100443,1,0,0:0:0:0:
192,192,100531,1,0,0:0:0:0:
320,192,100531,1,0,0:0:0:0:
448,192,100619,1,0,0:0:0:0:
64,192,100708,1,0,0:0:0:0:
64,192,100796,1,0,0:0:0:0:
192,192,100884,1,0,0:0:0:0:
320,192,100884,1,0,0:0:0:0:
64,192,100972,1,0,0:0:0:0:
448,192,100972,1,0,0:0:0:0:
192,192,101061,1,0,0:0:0:0:
320,192,101061,1,0,0:0:0:0:
64,192,101149,1,0,0:0:0:0:
448,192,101149,1,0,0:0:0:0:
64,192,101237,1,0,0:0:0:0:
192,192,101237,1,0,0:0:0:0:
448,192,101237,1,0,0:0:0:0:
320,192,101237,1,0,0:0:0:0:
192,192,101413,1,0,0:0:0:0:
192,192,101502,1,0,0:0:0:0:
320,192,101590,1,0,0:0:0:0:
448,192,101590,1,0,0:0:0:0:
320,192,101766,1,0,0:0:0:0:
320,192,101855,1,0,0:0:0:0:
64,192,101943,1,0,0:0:0:0:
192,192,101943,1,0,0:0:0:0:
64,192,102119,1,0,0:0:0:0:
64,192,102208,1,0,0:0:0:0:
320,192,102296,1,0,0:0:0:0:
448,192,102296,1,0,0:0:0:0:
192,192,102472,1,0,0:0:0:0:
320,192,102472,1,0,0:0:0:0:
192,192,102561,1,0,0:0:0:0:
64,192,102649,1,0,0:0:0:0:
448,192,102649,1,0,0:0:0:0:
320,192,102693,1,0,0:0:0:0:
192,192,102737,1,0,0:0:0:0:
64,192,102781,1,0,0:0:0:0:
320,192,102825,1,0,0:0:0:0:
192,192,102825,1,0,0:0:0:0:
448,192,102869,1,0,0:0:0:0:
320,192,102913,1,0,0:0:0:0:
192,192,102958,1,0,0:0:0:0:
64,192,103002,1,0,0:0:0:0:
320,192,103002,1,0,0:0:0:0:
448,192,103002,128,0,103178:0:0:0:0:
192,192,103090,1,0,0:0:0:0:
320,192,103178,128,0,103884:0:0:0:0:
64,192,103178,1,0,0:0:0:0:
192,192,103266,1,0,0:0:0:0:
448,192,103355,1,0,0:0:0:0:
64,192,103355,1,0,0:0:0:0:
192,192,103443,1,0,0:0:0:0:
64,192,103531,1,0,0:0:0:0:
448,192,103531,1,0,0:0:0:0:
192,192,103619,1,0,0:0:0:0:
448,192,103708,1,0,0:0:0:0:
64,192,103708,1,0,0:0:0:0:
192,192,103796,1,0,0:0:0:0:
448,192,103884,1,0,0:0:0:0:
64,192,103884,1,0,0:0:0:0:
192,192,103972,1,0,0:0:0:0:
320,192,104061,1,0,0:0:0:0:
448,192,104061,1,0,0:0:0:0:
64,192,104237,1,0,0:0:0:0:
192,192,104237,1,0,0:0:0:0:
320,192,104325,1,0,0:0:0:0:
448,192,104325,1,0,0:0:0:0:
192,192,104413,1,0,0:0:0:0:
320,192,104413,1,0,0:0:0:0:
320,192,104590,1,0,0:0:0:0:
448,192,104590,1,0,0:0:0:0:
192,192,104678,1,0,0:0:0:0:
64,192,104678,1,0,0:0:0:0:
192,192,104766,1,0,0:0:0:0:
320,192,104766,1,0,0:0:0:0:
64,192,104943,1,0,0:0:0:0:
448,192,104943,1,0,0:0:0:0:
192,192,105031,1,0,0:0:0:0:
320,192,105031,1,0,0:0:0:0:
64,192,105119,1,0,0:0:0:0:
192,192,105119,1,0,0:0:0:0:
320,192,105296,1,0,0:0:0:0:
448,192,105296,1,0,0:0:0:0:
448,192,105384,1,0,0:0:0:0:
320,192,105384,1,0,0:0:0:0:
64,192,105472,1,0,0:0:0:0:
192,192,105472,1,0,0:0:0:0:
448,192,105472,1,0,0:0:0:0:
320,192,105561,1,0,0:0:0:0:
64,192,105649,1,0,0:0:0:0:
192,192,105737,1,0,0:0:0:0:
320,192,105825,1,0,0:0:0:0:
448,192,105825,1,0,0:0:0:0:
64,192,105913,1,0,0:0:0:0:
320,192,106002,1,0,0:0:0:0:
448,192,106090,1,0,0:0:0:0:
320,192,106178,1,0,0:0:0:0:
192,192,106178,1,0,0:0:0:0:
448,192,106266,1,0,0:0:0:0:
192,192,106355,1,0,0:0:0:0:
320,192,106443,1,0,0:0:0:0:
64,192,106531,1,0,0:0:0:0:
192,192,106531,1,0,0:0:0:0:
448,192,106531,1,0,0:0:0:0:
320,192,106708,1,0,0:0:0:0:
448,192,106884,128,0,107590:0:0:0:0:
64,192,106884,1,0,0:0:0:0:
320,192,106884,1,0,0:0:0:0:
192,192,106884,1,0,0:0:0:0:
192,192,107061,1,0,0:0:0:0:
64,192,107237,1,0,0:0:0:0:
192,192,107325,1,0,0:0:0:0:
320,192,107413,1,0,0:0:0:0:
192,192,107502,1,0,0:0:0:0:
64,192,107590,128,0,108296:0:0:0:0:
320,192,107590,1,0,0:0:0:0:
192,192,107590,1,0,0:0:0:0:
320,192,107766,1,0,0:0:0:0:
448,192,107943,1,0,0:0:0:0:
192,192,108031,1,0,0:0:0:0:
320,192,108119,1,0,0:0:0:0:
448,192,108208,1,0,0:0:0:0:
320,192,108296,128,0,109002:0:0:0:0:
192,192,108296,1,0,0:0:0:0:
448,192,108296,1,0,0:0:0:0:
192,192,108472,1,0,0:0:0:0:
64,192,108649,1,0,0:0:0:0:
448,192,108649,1,0,0:0:0:0:
192,192,108825,1,0,0:0:0:0:
64,192,109002,1,0,0:0:0:0:
448,192,109002,1,0,0:0:0:0:
192,192,109046,1,0,0:0:0:0:
320,192,109090,1,0,0:0:0:0:
448,192,109134,1,0,0:0:0:0:
64,192,109178,1,0,0:0:0:0:
192,192,109222,1,0,0:0:0:0:
448,192,109266,1,0,0:0:0:0:
320,192,109311,1,0,0:0:0:0:
192,192,109355,1,0,0:0:0:0:
64,192,109355,1,0,0:0:0:0:
320,192,109443,1,0,0:0:0:0:
448,192,109443,1,0,0:0:0:0:
64,192,109531,1,0,0:0:0:0:
192,192,109531,1,0,0:0:0:0:
320,192,109619,1,0,0:0:0:0:
448,192,109619,1,0,0:0:0:0:
64,192,109708,1,0,0:0:0:0:
192,192,109708,1,0,0:0:0:0:
320,192,109796,1,0,0:0:0:0:
448,192,109884,1,0,0:0:0:0:
320,192,109972,1,0,0:0:0:0:
320,192,110061,1,0,0:0:0:0:
192,192,110061,1,0,0:0:0:0:
448,192,110061,128,0,110413:0:0:0:0:
64,192,110149,1,0,0:0:0:0:
192,192,110237,1,0,0:0:0:0:
320,192,110325,1,0,0:0:0:0:
192,192,110413,1,0,0:0:0:0:
320,192,110413,128,0,110590:0:0:0:0:
448,192,110502,1,0,0:0:0:0:
64,192,110590,128,0,110943:0:0:0:0:
192,192,110590,1,0,0:0:0:0:
448,192,110678,1,0,0:0:0:0:
192,192,110766,1,0,0:0:0:0:
320,192,110766,1,0,0:0:0:0:
448,192,110855,1,0,0:0:0:0:
192,192,110943,128,0,111119:0:0:0:0:
320,192,110943,1,0,0:0:0:0:
64,192,111031,1,0,0:0:0:0:
448,192,111119,128,0,111472:0:0:0:0:
320,192,111119,1,0,0:0:0:0:
192,192,111208,1,0,0:0:0:0:
64,192,111296,1,0,0:0:0:0:
192,192,111384,1,0,0:0:0:0:
320,192,111472,1,0,0:0:0:0:
64,192,111472,1,0,0:0:0:0:
448,192,111561,1,0,0:0:0:0:
192,192,111561,1,0,0:0:0:0:
320,192,111649,1,0,0:0:0:0:
448,192,111649,128,0,112178:0:0:0:0:
192,192,111737,1,0,0:0:0:0:
64,192,111825,1,0,0:0:0:0:
320,192,111825,1,0,0:0:0:0:
192,192,111913,1,0,0:0:0:0:
64,192,112002,1,0,0:0:0:0:
320,192,112002,1,0,0:0:0:0:
192,192,112090,1,0,0:0:0:0:
64,192,112178,1,0,0:0:0:0:
320,192,112178,1,0,0:0:0:0:
192,192,112266,1,0,0:0:0:0:
64,192,112355,1,0,0:0:0:0:
448,192,112355,1,0,0:0:0:0:
192,192,112443,1,0,0:0:0:0:
320,192,112531,1,0,0:0:0:0:
