osu file format v14

[General]
AudioFilename: audio.mp3
AudioLeadIn: 0
PreviewTime: 53247
Countdown: 1
SampleSet: Soft
StackLeniency: 0.7
Mode: 0
LetterboxInBreaks: 0
WidescreenStoryboard: 1

[Editor]
Bookmarks: 34953,43179,43663,53953,63835,70188,73012,75835,80071,81482,87129,98423,106896,107602,108308,109720,119602,122955,128061,129472,131943,133531,133708,139178,140766,141825,142531,143590,145002,149237,150649,157708,159825,180296,201472,224061,225296,228296,248061,248766,250884,262178,277708,284766,298884,303119,304531,308061,315825,320061,321472,324296,327119,335590,341237,344061,345472,355355,356766,368061,390649,401943,404766,410766,438661,451367
DistanceSpacing: 1.1
BeatDivisor: 4
GridSize: 4
TimelineZoom: 1.272

[Metadata]
Title:ANGEL OF SALVATION
TitleUnicode:ANGEL OF SALVATION
Artist:Galneryus
ArtistUnicode:Galneryus
Creator:Bewww
Version:ANGEL DIMENSION
Source:
Tags:LIV MOON
BeatmapID:1005640
BeatmapSetID:470353

[Difficulty]
HPDrainRate:6
CircleSize:4.5
OverallDifficulty:7.5
ApproachRate:9
SliderMultiplier:1
SliderTickRate:1

[Events]
//Background and Video events
0,0,"kapyushon_mech_oruzhie_art_108924_1366x768.jpg",0,0
//Break Periods
2,29004,30486
2,157908,159225
//Storyboard Layer 0 (Background)
//Storyboard Layer 1 (Fail)
//Storyboard Layer 2 (Pass)
//Storyboard Layer 3 (Foreground)
//Storyboard Sound Samples

[TimingPoints]
11238,512.820512820513,4,2,1,20,1,0
17667,535.714285714286,4,2,1,20,1,0
19274,-100,4,2,1,15,0,0
20452,512.820512820513,4,2,1,20,1,0
25067,-66.6666666666667,4,2,1,20,0,0
26118,597.014925373134,4,2,1,20,1,0
26715,-100,4,2,1,20,0,0
27312,-100,4,2,1,20,0,0
27909,-100,4,2,1,20,0,0
28804,-100,4,2,1,10,0,0
29151,483.870967741935,4,2,2,35,1,0
34953,-83.3333333333333,4,2,2,35,0,0
38828,-71.4285714285714,4,2,2,35,0,0
41731,-133.333333333333,4,2,2,35,0,0
42699,-66.6666666666667,4,2,2,35,0,0
43183,-125,4,2,2,35,0,0
43667,-66.6666666666667,4,2,2,35,0,0
44150,-66.6666666666667,4,2,2,45,0,0
45118,-133.333333333333,4,2,2,55,0,0
46086,-133.333333333333,4,2,1,60,0,0
46570,-57.1428571428571,4,2,1,75,0,0
48505,-57.1428571428571,4,2,1,85,0,0
50414,352.941176470588,4,2,1,100,1,0
53237,-66.6666666666667,4,2,1,85,0,0
54296,-66.6666666666667,4,2,2,85,0,0
54472,-66.6666666666667,4,2,1,85,0,0
54649,-100,4,2,1,85,0,0
56061,-66.6666666666667,4,2,1,85,0,0
75119,-50,4,2,1,85,0,0
75472,-100,4,2,1,85,0,0
75825,-76.9230769230769,4,2,1,85,0,0
76178,-76.9230769230769,4,1,2,85,0,0
81472,-66.6666666666667,4,1,2,85,0,0
123119,-66.6666666666667,4,2,1,85,0,1
123825,-57.1428571428571,4,2,1,85,0,1
125237,-100,4,2,1,85,0,1
125943,-57.1428571428571,4,2,1,85,0,1
128413,-76.9230769230769,4,2,1,85,0,1
129472,-57.1428571428571,4,2,1,85,0,1
130884,-100,4,2,1,85,0,1
131237,-57.1428571428571,4,2,1,85,0,1
131943,-76.9230769230769,4,2,1,85,0,1
135119,-57.1428571428571,4,2,1,85,0,1
139178,-100,4,2,1,85,0,1
140766,-66.6666666666667,4,2,1,85,0,1
146061,-66.6666666666667,4,2,1,85,0,0
150649,-76.9230769230769,4,2,1,85,0,0
180649,-76.9230769230769,4,2,1,85,0,0
201472,-66.6666666666667,4,2,1,85,0,0
227590,-66.6666666666667,4,2,1,85,0,1
228296,-57.1428571428571,4,2,1,85,0,1
229708,-100,4,2,1,85,0,1
230413,-57.1428571428571,4,2,1,85,0,1
232884,-76.9230769230769,4,2,1,85,0,1
233943,-57.1428571428571,4,2,1,85,0,1
243649,-100,4,2,1,85,0,1
244531,-66.6666666666667,4,2,1,85,0,1
250531,-66.6666666666667,4,2,1,85,0,0
256178,-76.9230769230769,4,2,1,85,0,0
262178,-66.6666666666667,4,2,1,85,0,0
279119,-100,4,2,1,85,0,0
281943,-57.1428571428571,4,2,1,85,0,0
287590,-66.6666666666667,4,2,1,85,0,0
303119,-57.1428571428571,4,2,1,85,0,0
311237,-100,4,2,1,85,0,0
313355,-100,4,2,1,85,0,0
314061,-57.1428571428571,4,2,1,85,0,0
344237,-100,4,2,1,85,0,0
344413,-100,4,2,1,85,0,0
345472,-57.1428571428571,4,2,1,85,0,1
346884,-100,4,2,1,85,0,1
347413,-57.1428571428571,4,2,1,85,0,1
349972,-66.6666666666667,4,2,1,85,0,1
356766,-66.6666666666667,4,2,1,85,0,1
369472,-100,4,2,1,85,0,1
370178,-57.1428571428571,4,2,1,85,0,1
372649,-76.9230769230769,4,2,1,85,0,1
375119,-57.1428571428571,4,2,1,85,0,1
383413,-66.6666666666667,4,2,1,85,0,1
390296,-66.6666666666667,4,2,1,85,0,0
401943,-100,4,2,1,85,0,0
404778,368.098159509202,4,2,1,85,1,0
407726,379.746835443038,4,2,1,85,1,0
410897,361.44578313253,4,2,1,85,1,0
441258,-100,4,2,1,50,0,0
442704,-100,4,2,1,40,0,0
445520,-142.857142857143,4,2,1,30,0,0
446680,-142.857142857143,4,2,1,20,0,0
447764,-142.857142857143,4,2,1,15,0,0
448487,-142.857142857143,4,2,1,10,0,0

[Colours]
Combo1 : 129,207,218
Combo2 : 0,202,0
Combo3 : 18,124,255
Combo4 : 242,24,57
Combo5 : 255,208,66
Combo6 : 179,0,179

[HitObjects]
76,292,11750,6,0,B|36:272|4:232|8:176|52:144|96:136|140:156|144:196|112:220|112:220|120:232|136:232,1,300
256,152,13545,1,0,0:0:0:0:
256,44,13802,5,2,0:0:0:0:
152,192,14314,1,2,0:0:0:0:
368,192,14827,1,2,0:0:0:0:
256,238,15340,6,0,L|256:291,2,50,2|0|0,0:0|0:1|0:0,0:0:0:0:
350,147,16366,2,0,B|285:132|256:115|256:115|229:131|148:148,1,200,2|0,0:0|0:0,0:0:0:0:
44,232,17667,6,0,L|116:226,1,50,2|0,0:2|0:0,0:0:0:0:
143,303,18202,2,0,L|195:319,1,50,2|0,0:0|0:0,0:0:0:0:
232,240,18738,2,0,L|280:228,1,50,2|0,0:0|0:0,0:0:0:0:
396,272,19274,2,0,P|404:216|380:168,1,100,2|0,0:0|0:0,0:0:0:0:
44,192,20452,2,0,B|136:212|172:128|172:128|208:48|304:80,1,300
256,228,22246,1,0,0:0:0:0:
256,228,22503,1,2,0:0:0:0:
152,192,23016,5,2,0:0:0:0:
256,340,23272,1,4,0:1:0:0:
368,192,23528,1,2,0:0:0:0:
256,148,24041,2,0,L|256:96,2,50,2|4|0,0:0|0:1|0:0,0:0:0:0:
330,250,25067,6,0,B|285:253|256:270|256:270|229:254|184:249,1,150.000005722046,2|0,0:0|0:0,0:0:0:0:
396,158,26118,6,0,L|324:158,1,50,2|0,0:2|0:0,0:0:0:0:
256,48,26715,2,0,L|256:112,1,50,2|0,0:2|0:0,0:0:0:0:
116,158,27312,2,0,L|188:158,1,50,2|0,0:2|0:0,0:0:0:0:
332,336,27909,2,0,P|257:342|182:334,1,150,2|0,0:2|0:1,0:0:0:0:
96,338,31086,5,2,0:1:0:0:
96,338,31570,2,0,B|119:295|119:295|161:256,1,100,2|0,0:1|0:1,0:0:0:0:
289,198,32538,1,2,0:1:0:0:
313,191,32659,1,0,0:0:0:0:
337,185,32780,1,0,0:0:0:0:
360,178,32900,1,0,0:0:0:0:
382,167,33021,2,2,B|403:143|406:103,1,50,2|0,0:1|0:3,0:3:0:0:
468,204,33505,2,0,B|447:228|444:268,1,50,2|0,0:3|0:0,0:0:0:0:
383,317,33989,2,0,P|329:325|280:312,1,100,2|4,0:3|1:0,0:0:0:0:
195,72,34715,5,0,0:0:0:0:
112,144,34957,2,0,P|108:176|116:207,1,59.9999981689454,2|0,0:1|0:0,0:0:0:0:
177,280,35441,2,0,P|116:300|56:288,1,119.999996337891,2|4,0:1|0:1,0:0:0:0:
238,204,36409,5,2,0:1:0:0:
256,192,36530,1,0,0:0:0:0:
273,179,36650,1,0,0:0:0:0:
281,158,36771,1,0,0:0:0:0:
287,137,36892,2,0,L|297:54,1,59.9999981689454,2|0,0:1|0:0,0:0:0:0:
217,0,37376,2,0,L|206:82,1,59.9999981689454,2|0,0:3|0:0,0:0:0:0:
31,137,37860,2,0,P|90:128|149:136,1,119.999996337891,2|4,0:3|0:1,0:0:0:0:
324,316,38586,5,0,0:0:0:0:
324,316,38828,2,0,B|287:318|287:318|242:334,1,69.9999978637696,2|0,0:1|0:0,0:0:0:0:
168,356,39312,2,0,P|151:285|169:222,1,139.999995727539,2|4,0:1|0:1,0:0:0:0:
299,84,40280,2,0,L|332:73,4,34.9999989318848,2|0|0|0|2,0:3|0:0|0:0|0:0|0:3,0:0:0:0:
80,32,41005,5,4,0:1:0:0:
200,152,41247,1,2,0:1:0:0:
72,228,41489,1,4,0:1:0:0:
140,308,41731,2,0,B|187:310|187:310|215:308,1,75.0000028610231,2|0,0:1|0:0,0:0:0:0:
409,295,42457,5,0,0:0:0:0:
409,295,42699,2,0,P|404:256|373:229,1,75.0000028610231,2|0,0:1|0:0,0:0:0:0:
161,153,43183,2,0,P|168:196|200:224,1,80,2|0,0:1|0:0,0:0:0:0:
398,156,44150,5,8,0:1:0:0:
395,145,44271,1,0,0:0:0:0:
391,134,44392,1,4,0:1:0:0:
386,123,44513,1,0,0:0:0:0:
380,113,44634,2,0,B|348:81|299:90,1,75.0000028610231,2|0,0:1|0:0,0:0:0:0:
132,271,45118,2,0,B|164:303|213:294,1,75.0000028610231,2|0,0:1|0:0,0:0:0:0:
475,101,46086,5,10,0:3:0:0:
470,119,46207,1,0,0:0:0:0:
467,137,46328,1,4,0:1:0:0:
462,155,46449,1,0,0:0:0:0:
458,172,46570,1,4,0:0:0:0:
400,329,46812,1,4,0:1:0:0:
321,93,47054,5,10,0:3:0:0:
316,75,47175,1,0,0:0:0:0:
311,58,47296,1,4,0:1:0:0:
307,41,47417,1,0,0:0:0:0:
302,23,47538,1,4,0:0:0:0:
209,195,47780,1,0,0:1:0:0:
46,225,48021,5,10,0:3:0:0:
43,239,48142,1,0,0:0:0:0:
39,256,48263,1,4,0:1:0:0:
35,273,48384,1,0,0:0:0:0:
33,288,48505,2,0,L|13:379,1,87.500000834465,12|4,0:1|0:1,0:0:0:0:
177,126,48989,5,8,0:0:0:0:
355,261,49231,1,0,0:0:0:0:
135,333,49473,1,0,0:0:0:0:
251,85,49715,1,0,0:0:0:0:
303,345,49957,1,8,0:0:0:0:
368,37,50199,5,0,0:0:0:0:
129,146,50414,2,0,L|237:184,1,100,4|0,0:0|0:0,0:0:0:0:
438,250,51119,2,0,L|330:288,1,100,4|0,0:0|0:0,0:0:0:0:
223,327,51825,5,8,0:0:0:0:
192,325,51914,1,0,0:0:0:0:
164,314,52002,1,0,0:0:0:0:
137,299,52090,1,0,0:0:0:0:
114,278,52178,1,8,0:0:0:0:
97,249,52266,1,0,0:0:0:0:
96,220,52355,1,0,0:0:0:0:
112,194,52443,1,0,0:0:0:0:
138,179,52531,5,8,0:0:0:0:
167,174,52619,1,0,0:0:0:0:
195,182,52708,1,0,0:0:0:0:
223,191,52796,1,0,0:0:0:0:
252,191,52884,1,8,0:0:0:0:
281,186,52972,1,0,0:0:0:0:
309,176,53061,1,8,0:1:0:0:
336,165,53149,1,0,0:0:0:0:
362,156,53237,6,0,P|397:147|439:148,1,75.0000028610231,8|0,0:0|0:0,0:0:0:0:
314,78,53590,2,0,P|277:69|239:74,1,75.0000028610231
136,208,53943,2,0,P|128:168|137:133,1,75.0000028610231
256,248,54296,5,2,0:1:0:0:
256,248,54472,1,4,0:1:0:0:
347,190,54649,2,0,P|394:171|455:166,1,100,2|0,0:2|0:0,0:0:0:0:
504,246,55178,1,0,0:0:0:0:
432,320,55355,1,0,0:0:0:0:
328,176,55531,5,0,0:0:0:0:
288,88,55708,1,0,0:0:0:0:
204,120,55884,1,0,0:0:0:0:
172,200,56061,2,0,P|168:123|124:58,1,150.000005722046,2|0,0:0|0:0,0:0:0:0:
68,164,56590,1,0,0:0:0:0:
8,256,56766,1,0,0:0:0:0:
76,332,56943,1,0,0:0:0:0:
236,204,57119,5,0,0:0:0:0:
307,276,57296,1,0,0:0:0:0:
307,276,57472,2,0,B|388:289|388:289,1,75.0000028610231,2|0,0:0|0:0,0:0:0:0:
493,226,57825,2,0,B|500:228|419:215,1,75.0000028610231
489,37,58178,1,0,0:0:0:0:
492,74,58266,1,0,0:0:0:0:
476,106,58355,1,0,0:0:0:0:
447,130,58443,1,0,0:0:0:0:
412,145,58531,5,0,0:0:0:0:
374,146,58619,1,0,0:0:0:0:
339,129,58708,1,0,0:0:0:0:
312,102,58796,1,0,0:0:0:0:
287,82,58884,2,0,P|218:63|152:104,1,150.000005722046,2|0,0:0|0:0,0:0:0:0:
232,152,59413,1,0,0:0:0:0:
154,285,59590,6,0,L|140:199,1,75.0000028610231
56,88,59943,2,0,L|67:29,2,37.5000014305115,8|0|0,0:1|0:0|0:0,0:0:0:0:
32,172,60296,2,0,P|105:188|194:160,1,150.000005722046,2|0,0:0|0:0,0:0:0:0:
280,36,60825,1,4,0:1:0:0:
280,36,61002,2,0,P|296:109|268:198,1,150.000005722046,2|0,0:0|0:0,0:0:0:0:
108,328,61708,5,0,0:0:0:0:
216,360,61884,1,0,0:0:0:0:
320,316,62061,1,0,0:0:0:0:
428,280,62237,5,0,0:0:0:0:
320,316,62413,1,0,0:0:0:0:
212,276,62590,1,0,0:0:0:0:
280,184,62766,5,0,0:0:0:0:
280,184,62943,1,0,0:0:0:0:
73,179,63119,5,8,0:0:0:0:
40,159,63208,1,0,0:0:0:0:
20,126,63296,1,0,0:0:0:0:
25,91,63384,1,0,0:0:0:0:
46,60,63472,1,0,0:0:0:0:
79,43,63561,1,0,0:0:0:0:
116,46,63649,1,0,0:0:0:0:
143,70,63737,1,0,0:0:0:0:
156,105,63825,5,8,0:0:0:0:
141,139,63913,1,0,0:0:0:0:
114,166,64002,1,0,0:0:0:0:
73,179,64090,1,0,0:0:0:0:
44,203,64178,1,0,0:0:0:0:
28,236,64266,1,0,0:0:0:0:
37,272,64355,1,0,0:0:0:0:
67,294,64443,1,0,0:0:0:0:
103,295,64531,6,0,L|198:282,1,75.0000028610231,8|0,0:0|0:0,0:0:0:0:
263,152,64884,2,0,L|168:165,1,75.0000028610231
92,60,65237,2,0,P|118:85|166:99,1,75.0000028610231,8|0,0:0|0:0,0:0:0:0:
336,184,65590,2,0,P|298:215|260:226,1,75.0000028610231
75,247,65943,5,8,0:0:0:0:
199,163,66119,1,0,0:0:0:0:
148,304,66296,1,0,0:0:0:0:
96,163,66472,1,0,0:0:0:0:
245,82,66649,5,8,0:0:0:0:
255,86,66737,1,0,0:0:0:0:
264,92,66825,1,0,0:0:0:0:
273,97,66913,1,0,0:0:0:0:
281,104,67002,1,0,0:0:0:0:
288,112,67090,1,0,0:0:0:0:
295,120,67178,1,0,0:0:0:0:
302,127,67266,1,0,0:0:0:0:
310,135,67355,6,0,P|330:168|339:211,1,75.0000028610231,8|0,0:0|0:0,0:0:0:0:
312,340,67708,2,0,P|323:305|346:276,1,75.0000028610231
474,205,68061,2,0,P|434:211|403:230,1,75.0000028610231,8|0,0:0|0:0,0:0:0:0:
312,340,68413,1,0,0:0:0:0:
246,234,68590,1,0,0:0:0:0:
246,234,68678,1,0,0:0:0:0:
246,234,68766,2,0,P|223:164|247:90,1,150.000005722046,8|0,0:0|0:0,0:0:0:0:
244,93,69296,1,0,0:0:0:0:
313,310,69472,5,8,0:0:0:0:
338,303,69561,1,0,0:0:0:0:
363,295,69649,1,0,0:0:0:0:
388,288,69737,1,0,0:0:0:0:
405,268,69825,1,0,0:0:0:0:
418,245,69913,1,0,0:0:0:0:
431,222,70002,1,0,0:0:0:0:
442,198,70090,1,0,0:0:0:0:
453,174,70178,2,0,L|486:99,1,75.0000028610231,8|0,0:0|0:0,0:0:0:0:
483,105,70531,1,0,0:0:0:0:
319,241,70708,5,0,0:0:0:0:
319,241,70796,1,0,0:0:0:0:
319,241,70884,1,8,0:0:0:0:
166,130,71061,1,0,0:0:0:0:
345,72,71237,1,0,0:0:0:0:
253,274,71413,5,0,0:0:0:0:
253,274,71502,1,0,0:0:0:0:
253,274,71590,2,0,L|233:358,1,75.0000028610231,8|0,0:0|0:0,0:0:0:0:
236,347,71943,1,0,0:0:0:0:
183,215,72119,6,0,L|143:226,2,37.5000014305115,0|0|8,0:0|0:0|0:0,0:0:0:0:
356,164,72472,1,0,0:0:0:0:
193,64,72649,1,0,0:0:0:0:
373,13,72825,5,0,0:0:0:0:
405,22,72913,1,0,0:0:0:0:
432,41,73002,1,8,0:0:0:0:
454,66,73090,1,0,0:0:0:0:
471,94,73178,5,0,0:0:0:0:
478,126,73266,1,0,0:0:0:0:
472,159,73355,1,8,0:0:0:0:
450,184,73443,1,0,0:0:0:0:
422,202,73531,1,0,0:0:0:0:
388,208,73619,1,0,0:0:0:0:
355,198,73708,5,8,0:0:0:0:
329,175,73796,1,0,0:0:0:0:
309,147,73884,1,0,0:0:0:0:
289,119,73972,1,0,0:0:0:0:
264,95,74061,1,8,0:0:0:0:
236,76,74149,1,0,0:0:0:0:
203,68,74237,1,0,0:0:0:0:
170,78,74325,1,0,0:0:0:0:
149,104,74413,5,8,0:0:0:0:
143,137,74502,1,0,0:0:0:0:
154,168,74590,1,4,0:1:0:0:
181,188,74678,1,0,0:0:0:0:
214,190,74766,1,8,0:0:0:0:
245,177,74855,1,2,0:0:0:0:
271,156,74943,1,0,0:0:0:0:
294,131,75031,1,0,0:0:0:0:
312,98,75119,6,0,P|341:57|403:39,1,100,0|4,0:0|0:1,0:0:0:0:
476,128,75472,2,0,B|488:170|488:170|453:189|457:232,1,100,2|0,0:2|0:0,0:0:0:0:
465,330,76178,6,0,P|428:329|389:312,1,64.9999970245363,0|4,0:0|0:0,0:0:0:0:
348,260,76443,1,0,0:0:0:0:
348,260,76531,2,0,P|352:225|343:189,1,64.9999970245363,0|4,0:0|0:1,0:0:0:0:
240,288,76884,1,0,0:0:0:0:
340,364,77061,1,4,0:0:0:0:
468,228,77237,5,8,0:1:0:0:
468,228,77325,1,0,0:0:0:0:
468,228,77413,2,0,P|471:187|462:149,2,64.9999970245363,4|0|4,0:1|0:0|0:1,0:0:0:0:
412,308,77943,1,0,0:0:0:0:
320,280,78119,1,4,0:0:0:0:
388,212,78296,1,0,0:0:0:0:
320,280,78472,1,4,0:1:0:0:
320,280,78561,1,0,0:0:0:0:
320,280,78649,6,0,P|315:314|296:342,1,64.9999970245363,8|4,0:1|0:0,0:0:0:0:
200,176,79002,1,0,0:0:0:0:
118,221,79178,2,4,P|115:145|151:93,1,129.999994049073,4|4,0:1|0:1,0:1:0:0:
264,164,79708,2,0,P|228:176|198:172,1,64.9999970245363
268,72,80061,5,2,0:0:0:0:
268,72,80149,1,0,0:0:0:0:
268,72,80237,1,4,0:0:0:0:
408,152,80413,1,2,0:0:0:0:
408,152,80502,1,0,0:0:0:0:
408,152,80590,1,4,0:0:0:0:
370,296,80766,1,2,0:0:0:0:
340,292,80855,1,0,0:0:0:0:
315,274,80943,1,4,0:0:0:0:
296,251,81031,1,0,0:0:0:0:
298,221,81119,1,2,0:0:0:0:
315,197,81208,1,0,0:0:0:0:
340,182,81296,1,0,0:0:0:0:
367,173,81384,1,0,0:0:0:0:
398,162,81472,6,0,P|423:144|437:95,1,75.0000028610231,2|4,0:0|0:1,0:0:0:0:
340,80,81825,1,0,0:0:0:0:
385,284,82002,1,4,0:1:0:0:
385,284,82090,1,0,0:0:0:0:
385,284,82178,2,0,L|395:322,2,37.5000014305115,0|0|4,0:0|0:0|0:1,0:0:0:0:
292,204,82531,2,0,P|255:209|215:201,1,75.0000028610231,0|4,0:0|0:1,0:0:0:0:
386,128,82884,5,0,0:0:0:0:
421,138,82972,1,0,0:0:0:0:
448,163,83061,1,0,0:0:0:0:
458,198,83149,1,0,0:0:0:0:
457,235,83237,1,0,0:0:0:0:
445,270,83325,1,0,0:0:0:0:
414,291,83413,1,0,0:0:0:0:
376,298,83502,1,0,0:0:0:0:
340,287,83590,5,2,0:0:0:0:
312,261,83678,1,0,0:0:0:0:
304,224,83766,1,0,0:0:0:0:
285,190,83855,1,0,0:0:0:0:
259,162,83943,1,0,0:0:0:0:
222,151,84031,1,0,0:0:0:0:
184,154,84119,1,0,0:0:0:0:
149,168,84208,1,0,0:0:0:0:
124,195,84296,1,0,0:0:0:0:
200,304,84472,5,4,0:0:0:0:
348,200,84649,1,0,0:0:0:0:
252,180,84825,1,4,0:0:0:0:
252,180,85002,2,0,L|178:209,1,75.0000028610231,0|4,0:0|0:0,0:0:0:0:
258,267,85266,1,0,0:0:0:0:
258,267,85354,2,0,L|329:288,1,75.0000028610231,0|4,0:0|0:0,0:0:0:0:
478,124,85708,5,2,0:0:0:0:
472,87,85796,1,0,0:0:0:0:
465,51,85884,1,4,0:0:0:0:
435,216,86061,5,2,0:0:0:0:
426,253,86149,1,0,0:0:0:0:
415,289,86237,1,4,0:0:0:0:
388,82,86413,5,2,0:0:0:0:
377,47,86502,1,0,0:0:0:0:
364,12,86590,1,4,0:0:0:0:
347,192,86766,5,2,0:0:0:0:
311,196,86855,1,0,0:0:0:0:
275,200,86943,1,4,0:0:0:0:
239,204,87031,1,0,0:0:0:0:
203,208,87119,1,2,0:0:0:0:
0,146,87472,6,0,P|38:146|72:124,1,75.0000028610231,0|4,0:0|0:0,0:0:0:0:
131,40,87737,1,0,0:0:0:0:
131,40,87825,2,0,P|173:29|206:36,1,75.0000028610231,0|4,0:0|0:0,0:0:0:0:
272,114,88178,1,0,0:0:0:0:
149,193,88355,1,4,0:0:0:0:
58,79,88531,1,0,0:0:0:0:
58,79,88619,1,0,0:0:0:0:
58,79,88708,2,0,P|33:41|25:-1,2,75.0000028610231,4|0|4,0:0|0:0|0:0,0:0:0:0:
172,152,89237,1,0,0:0:0:0:
300,108,89413,2,0,L|298:191,1,75.0000028610231,4|0,0:0|0:0,0:0:0:0:
476,296,89766,5,4,0:0:0:0:
476,296,89943,2,0,L|511:213,1,75.0000028610231,0|4,0:0|0:0,0:0:0:0:
400,224,90296,1,0,0:0:0:0:
400,224,90472,2,0,L|387:133,1,75.0000028610231,4|0,0:0|0:0,0:0:0:0:
496,36,90825,2,0,P|472:80|451:91,1,75.0000028610231,4|0,0:0|0:0,0:0:0:0:
324,36,91178,1,4,0:0:0:0:
192,168,91355,5,0,0:0:0:0:
197,185,91443,1,0,0:0:0:0:
203,202,91531,1,4,0:0:0:0:
352,124,91708,1,0,0:0:0:0:
357,107,91796,1,0,0:0:0:0:
363,90,91884,1,4,0:0:0:0:
308,212,92061,1,0,0:0:0:0:
315,229,92149,1,0,0:0:0:0:
321,246,92237,1,0,0:0:0:0:
329,262,92325,1,0,0:0:0:0:
334,279,92413,1,0,0:0:0:0:
341,296,92502,1,0,0:0:0:0:
348,312,92590,1,4,0:0:0:0:
192,244,92766,5,0,0:0:0:0:
276,69,92943,1,4,0:0:0:0:
140,116,93119,1,0,0:0:0:0:
340,189,93296,1,4,0:0:0:0:
340,189,93384,1,0,0:0:0:0:
340,189,93472,2,0,P|380:207|424:208,1,75.0000028610231,0|4,0:0|0:0,0:0:0:0:
507,141,93825,1,0,0:0:0:0:
406,93,94002,1,4,0:0:0:0:
208,46,94178,5,2,0:0:0:0:
171,39,94266,1,0,0:0:0:0:
133,45,94355,1,0,0:0:0:0:
97,56,94443,1,0,0:0:0:0:
65,76,94531,1,0,0:0:0:0:
33,97,94619,1,0,0:0:0:0:
13,129,94708,1,4,0:0:0:0:
42,150,94796,5,2,0:0:0:0:
80,163,94884,1,0,0:0:0:0:
120,154,94972,1,0,0:0:0:0:
156,134,95061,1,0,0:0:0:0:
196,125,95149,1,0,0:0:0:0:
235,129,95237,1,0,0:0:0:0:
271,148,95325,1,0,0:0:0:0:
303,173,95413,1,4,0:0:0:0:
333,201,95502,1,0,0:0:0:0:
354,229,95590,6,0,P|417:273|489:234,1,150.000005722046,2|0,0:0|0:0,0:0:0:0:
249,196,96119,1,4,0:0:0:0:
249,196,96296,2,0,P|185:151|113:190,1,150.000005722046
367,102,96825,1,4,0:0:0:0:
501,331,97002,5,2,0:0:0:0:
467,346,97090,1,0,0:0:0:0:
431,357,97178,1,0,0:0:0:0:
393,355,97266,1,0,0:0:0:0:
355,348,97355,1,0,0:0:0:0:
322,328,97443,1,0,0:0:0:0:
301,296,97531,1,0,0:0:0:0:
307,259,97619,1,0,0:0:0:0:
339,239,97708,5,2,0:0:0:0:
375,231,97796,1,0,0:0:0:0:
409,216,97884,1,0,0:0:0:0:
442,200,97972,1,0,0:0:0:0:
474,180,98061,1,0,0:0:0:0:
482,143,98149,1,0,0:0:0:0:
469,107,98237,1,4,0:0:0:0:
439,84,98325,1,0,0:0:0:0:
404,71,98413,6,0,L|327:55,1,75.0000028610231
283,127,98766,2,0,L|357:143,1,75.0000028610231
310,215,99119,2,0,L|233:199,1,75.0000028610231
188,271,99472,2,0,L|262:287,1,75.0000028610231
67,332,99825,5,2,0:0:0:0:
67,332,99913,1,0,0:0:0:0:
67,332,100002,1,0,0:0:0:0:
6,151,100178,1,0,0:0:0:0:
151,219,100355,1,0,0:0:0:0:
151,219,100443,1,0,0:0:0:0:
151,219,100531,1,0,0:0:0:0:
74,40,100708,1,0,0:0:0:0:
218,146,100884,6,0,P|256:150|297:145,1,75.0000028610231
385,147,101237,2,0,B|436:196|360:253|407:298,1,150.000005722046
149,271,101766,1,0,0:0:0:0:
149,271,101943,2,0,B|149:249|158:235|158:235|149:218|149:193,1,75.0000028610231
252,76,102296,1,0,0:0:0:0:
346,232,102472,5,0,0:0:0:0:
375,118,102649,1,2,0:0:0:0:
382,92,102737,1,0,0:0:0:0:
390,67,102825,1,4,0:0:0:0:
346,232,103002,5,0,0:0:0:0:
223,185,103178,1,2,0:0:0:0:
188,169,103266,1,0,0:0:0:0:
153,153,103355,1,0,0:0:0:0:
120,135,103443,1,0,0:0:0:0:
86,118,103531,1,4,0:0:0:0:
52,101,103619,1,0,0:0:0:0:
19,81,103708,1,0,0:0:0:0:
256,60,103884,1,4,0:0:0:0:
182,255,104061,6,0,P|165:302|140:338,1,75.0000028610231
336,255,104413,2,0,P|353:302|378:338,1,75.0000028610231
182,255,104766,2,0,P|133:266|89:264,1,75.0000028610231
334,255,105119,2,0,P|382:266|426:264,1,75.0000028610231
382,187,105472,6,0,P|399:118|384:42,1,150.000005722046,2|0,0:0|0:0,0:0:0:0:
128,41,106002,1,4,0:0:0:0:
128,41,106178,2,0,P|112:114|130:187,1,150.000005722046
258,313,106708,5,4,0:0:0:0:
133,281,106884,1,2,0:0:0:0:
115,274,106972,1,0,0:0:0:0:
96,268,107061,1,0,0:0:0:0:
78,262,107149,1,0,0:0:0:0:
60,256,107237,1,0,0:0:0:0:
258,313,107413,5,0,0:0:0:0:
180,186,107590,1,2,0:0:0:0:
166,163,107678,1,0,0:0:0:0:
152,140,107767,1,4,0:0:0:0:
140,116,107855,1,0,0:0:0:0:
128,92,107943,1,0,0:0:0:0:
258,313,108119,5,0,0:0:0:0:
287,157,108296,1,2,0:0:0:0:
295,124,108384,1,0,0:0:0:0:
302,90,108472,1,4,0:0:0:0:
310,57,108561,1,0,0:0:0:0:
318,24,108649,1,0,0:0:0:0:
258,313,108825,5,0,0:0:0:0:
383,109,109002,1,2,0:0:0:0:
425,139,109090,1,0,0:0:0:0:
445,187,109179,1,4,0:0:0:0:
425,235,109267,1,0,0:0:0:0:
376,254,109355,1,0,0:0:0:0:
329,227,109443,1,0,0:0:0:0:
310,179,109531,1,4,0:0:0:0:
337,135,109619,1,0,0:0:0:0:
383,109,109708,6,0,P|419:102|465:111,1,75.0000028610231,2|0,0:0|0:0,0:0:0:0:
269,242,110061,2,0,P|233:249|187:240,1,75.0000028610231
232,144,110413,1,0,0:0:0:0:
174,342,110590,1,0,0:0:0:0:
174,342,110766,1,0,0:0:0:0:
56,232,110943,1,0,0:0:0:0:
304,172,111119,5,0,0:0:0:0:
304,172,111207,1,0,0:0:0:0:
304,172,111296,1,0,0:0:0:0:
173,247,111472,1,0,0:0:0:0:
375,296,111649,1,0,0:0:0:0:
375,296,111737,1,0,0:0:0:0:
375,296,111825,2,0,P|409:312|446:321,1,75.0000028610231
230,310,112178,2,0,P|189:324|140:330,1,75.0000028610231
222,115,112531,5,0,0:0:0:0:
342,211,112708,1,0,0:0:0:0:
178,251,112884,1,0,0:0:0:0:
178,251,113061,1,0,0:0:0:0:
145,49,113237,5,0,0:0:0:0:
145,49,113325,1,0,0:0:0:0:
145,49,113414,1,0,0:0:0:0:
36,152,113590,1,0,0:0:0:0:
159,298,113767,1,0,0:0:0:0:
159,298,113855,1,0,0:0:0:0:
159,298,113943,2,0,B|176:313|169:331|169:331|181:348|177:369,1,75.0000028610231
40,289,114296,5,0,0:0:0:0:
166,208,114472,2,0,B|142:148|142:148|164:65,1,150.000005722046
296,220,115002,5,0,0:0:0:0:
228,144,115178,1,0,0:0:0:0:
427,83,115355,2,0,L|443:7,1,75.0000028610231
347,83,115708,2,0,L|363:7,1,75.0000028610231
267,83,116061,2,0,L|283:7,1,75.0000028610231
187,83,116413,2,0,L|203:7,1,75.0000028610231
11,220,116766,6,0,L|27:296,1,75.0000028610231
91,220,117119,2,0,L|107:296,1,75.0000028610231
171,220,117472,2,0,L|187:296,1,75.0000028610231
251,220,117825,6,0,L|267:296,1,75.0000028610231
448,296,118178,2,0,B|417:341|417:341|309:350,1,150.000005722046
382,236,118708,1,0,0:0:0:0:
382,236,118884,2,0,B|413:191|413:191|521:182,1,150.000005722046
427,61,119590,5,0,0:0:0:0:
388,31,119678,1,0,0:0:0:0:
341,16,119766,1,0,0:0:0:0:
292,25,119855,1,0,0:0:0:0:
250,50,119943,1,0,0:0:0:0:
228,93,120031,1,0,0:0:0:0:
202,134,120119,1,0,0:0:0:0:
162,163,120208,1,0,0:0:0:0:
153,210,120296,1,0,0:0:0:0:
173,254,120384,1,0,0:0:0:0:
219,269,120472,1,0,0:0:0:0:
266,255,120561,1,0,0:0:0:0:
312,272,120649,1,0,0:0:0:0:
336,316,120737,1,0,0:0:0:0:
308,356,120825,1,0,0:0:0:0:
174,364,121002,5,0,0:0:0:0:
424,270,121178,1,0,0:0:0:0:
162,163,121355,1,0,0:0:0:0:
358,142,121531,1,0,0:0:0:0:
395,137,121619,1,0,0:0:0:0:
432,132,121708,1,0,0:0:0:0:
275,35,121884,1,0,0:0:0:0:
428,266,122061,1,0,0:0:0:0:
240,158,122237,5,0,0:0:0:0:
240,158,122325,1,0,0:0:0:0:
240,158,122413,2,0,L|227:117,2,37.5000014305115
87,258,122766,2,0,L|-4:288,1,75.0000028610231
115,109,123119,5,0,0:0:0:0:
133,67,123208,1,0,0:0:0:0:
170,37,123296,1,0,0:0:0:0:
216,31,123384,1,0,0:0:0:0:
257,35,123472,1,0,0:0:0:0:
294,59,123561,1,0,0:0:0:0:
321,94,123649,1,0,0:0:0:0:
329,137,123737,1,0,0:0:0:0:
315,187,123825,5,0,0:0:0:0:
280,226,123913,1,0,0:0:0:0:
228,237,124002,1,0,0:0:0:0:
179,216,124090,1,0,0:0:0:0:
133,190,124178,1,0,0:0:0:0:
82,182,124266,1,0,0:0:0:0:
37,210,124355,1,0,0:0:0:0:
15,257,124443,1,0,0:0:0:0:
24,308,124531,1,0,0:0:0:0:
62,343,124619,1,0,0:0:0:0:
118,354,124708,1,0,0:0:0:0:
172,339,124796,1,0,0:0:0:0:
192,287,124884,1,0,0:0:0:0:
190,234,124972,1,0,0:0:0:0:
164,187,125061,1,0,0:0:0:0:
117,162,125149,1,0,0:0:0:0:
66,147,125237,6,0,L|41:184,7,25
34,117,125943,1,0,0:0:0:0:
47,66,126031,1,0,0:0:0:0:
91,38,126119,1,0,0:0:0:0:
143,40,126208,1,0,0:0:0:0:
181,71,126296,1,0,0:0:0:0:
200,124,126384,1,0,0:0:0:0:
172,168,126472,1,0,0:0:0:0:
124,188,126561,1,0,0:0:0:0:
92,228,126649,6,0,B|92:254|92:254|120:311,1,87.500000834465
244,368,126913,1,0,0:0:0:0:
244,368,127002,2,0,B|244:342|244:342|214:282,1,87.500000834465
92,228,127355,1,0,0:0:0:0:
222,132,127531,1,0,0:0:0:0:
348,262,127708,1,0,0:0:0:0:
348,262,127884,2,0,B|386:314|386:314|441:291|501:318,1,175.00000166893
425,217,128413,6,0,L|460:159,1,64.9999970245363
256,308,128766,2,0,L|256:376,1,64.9999970245363
87,217,129119,2,0,L|52:159,1,64.9999970245363
210,22,129472,5,0,0:0:0:0:
249,49,129561,1,0,0:0:0:0:
296,53,129649,1,0,0:0:0:0:
342,41,129737,1,0,0:0:0:0:
389,33,129825,1,0,0:0:0:0:
434,47,129913,1,0,0:0:0:0:
474,73,130002,1,0,0:0:0:0:
498,114,130090,1,0,0:0:0:0:
488,161,130178,1,0,0:0:0:0:
463,202,130266,1,0,0:0:0:0:
420,225,130355,1,0,0:0:0:0:
372,218,130443,1,0,0:0:0:0:
328,197,130531,1,0,0:0:0:0:
292,164,130619,1,0,0:0:0:0:
254,132,130708,1,0,0:0:0:0:
207,120,130796,1,0,0:0:0:0:
163,128,130884,6,0,L|147:106,3,25
140,151,131237,1,0,0:0:0:0:
107,180,131325,1,0,0:0:0:0:
63,173,131413,1,0,0:0:0:0:
41,134,131502,1,0,0:0:0:0:
45,90,131590,1,0,0:0:0:0:
70,54,131678,1,0,0:0:0:0:
109,35,131766,1,0,0:0:0:0:
153,33,131855,1,0,0:0:0:0:
185,47,131943,1,0,0:0:0:0:
210,72,132031,1,0,0:0:0:0:
233,99,132119,1,0,0:0:0:0:
263,117,132208,1,0,0:0:0:0:
298,118,132296,6,0,L|381:93,1,64.9999970245363
215,277,132649,2,0,L|153:259,1,64.9999970245363
347,235,133002,2,0,L|372:318,1,64.9999970245363
180,150,133355,2,0,L|161:88,1,64.9999970245363
204,267,133708,5,2,0:0:0:0:
221,301,133796,1,0,0:0:0:0:
242,333,133884,1,0,0:0:0:0:
271,358,133972,1,0,0:0:0:0:
308,370,134061,1,0,0:0:0:0:
346,370,134149,1,0,0:0:0:0:
384,361,134237,1,0,0:0:0:0:
416,340,134325,1,0,0:0:0:0:
440,309,134413,1,0,0:0:0:0:
458,274,134502,1,0,0:0:0:0:
464,235,134590,1,0,0:0:0:0:
459,196,134678,1,0,0:0:0:0:
442,160,134766,1,0,0:0:0:0:
419,128,134855,1,0,0:0:0:0:
384,110,134943,1,0,0:0:0:0:
346,101,135031,1,0,0:0:0:0:
304,111,135119,6,0,P|256:129|208:134,1,87.500000834465
44,128,135472,2,0,P|92:110|140:105,1,87.500000834465
204,240,135825,2,0,P|162:228|125:205,1,87.500000834465
256,124,136178,1,0,0:0:0:0:
304,284,136355,1,0,0:0:0:0:
304,284,136531,6,0,P|376:300|434:226,1,175.00000166893
227,100,137061,1,0,0:0:0:0:
227,100,137149,1,0,0:0:0:0:
227,100,137237,1,0,0:0:0:0:
185,309,137414,5,0,0:0:0:0:
70,262,137590,1,0,0:0:0:0:
185,309,137766,1,0,0:0:0:0:
285,193,137943,2,0,L|390:167,1,87.500000834465
242,77,138296,1,0,0:0:0:0:
147,153,138472,2,0,L|34:187,1,87.500000834465
285,193,138825,2,0,P|309:225|360:243,1,87.500000834465
361,156,139178,1,0,0:0:0:0:
325,18,139355,6,0,L|358:65,1,50
512,102,139708,2,0,L|440:114,1,50
361,156,140061,1,0,0:0:0:0:
143,264,140237,5,0,0:0:0:0:
224,173,140413,1,0,0:0:0:0:
173,76,140590,1,0,0:0:0:0:
80,152,140766,2,0,P|40:168|4:168,1,75.0000028610231
143,264,141119,2,0,P|183:280|219:280,1,75.0000028610231
203,199,141384,1,0,0:0:0:0:
203,199,141472,2,0,B|217:178|217:178|217:142|217:142|225:130,1,75.0000028610231
372,298,141825,5,0,0:0:0:0:
417,281,141913,1,0,0:0:0:0:
455,250,142002,1,0,0:0:0:0:
466,202,142090,1,0,0:0:0:0:
454,154,142178,5,0,0:0:0:0:
417,121,142266,1,0,0:0:0:0:
372,100,142355,1,0,0:0:0:0:
320,101,142443,1,0,0:0:0:0:
272,112,142531,2,0,B|242:114|242:114|194:137,1,75.0000028610231
40,236,142884,2,0,B|70:234|70:234|118:211,1,75.0000028610231
128,96,143237,1,0,0:0:0:0:
188,244,143413,1,0,0:0:0:0:
244,95,143590,5,0,0:0:0:0:
275,53,143678,1,0,0:0:0:0:
322,30,143766,1,0,0:0:0:0:
374,25,143855,1,0,0:0:0:0:
423,41,143943,1,0,0:0:0:0:
465,72,144031,1,0,0:0:0:0:
486,119,144119,1,0,0:0:0:0:
489,171,144208,1,0,0:0:0:0:
474,221,144296,1,0,0:0:0:0:
436,258,144384,1,0,0:0:0:0:
383,260,144472,1,0,0:0:0:0:
332,243,144561,1,0,0:0:0:0:
286,217,144649,1,0,0:0:0:0:
260,173,144737,1,0,0:0:0:0:
269,123,144825,1,0,0:0:0:0:
305,88,144913,1,0,0:0:0:0:
345,117,145002,5,0,0:0:0:0:
364,165,145090,1,0,0:0:0:0:
351,215,145178,1,0,0:0:0:0:
321,258,145266,1,0,0:0:0:0:
276,286,145355,1,0,0:0:0:0:
225,300,145443,1,0,0:0:0:0:
175,284,145531,1,0,0:0:0:0:
142,242,145619,1,0,0:0:0:0:
148,192,145708,1,0,0:0:0:0:
184,156,145796,1,0,0:0:0:0:
232,164,145884,1,0,0:0:0:0:
332,283,146061,5,0,0:0:0:0:
512,179,146237,1,0,0:0:0:0:
476,317,146413,1,0,0:0:0:0:
414,196,146590,1,0,0:0:0:0:
404,179,146678,1,0,0:0:0:0:
394,162,146766,1,0,0:0:0:0:
385,144,146855,1,0,0:0:0:0:
376,127,146943,2,0,L|393:94,2,37.5000014305115
268,280,147296,5,0,0:0:0:0:
108,180,147472,1,0,0:0:0:0:
168,4,147648,1,0,0:0:0:0:
228,180,147825,1,0,0:0:0:0:
234,197,147913,1,0,0:0:0:0:
240,214,148001,1,0,0:0:0:0:
246,231,148090,1,0,0:0:0:0:
251,248,148178,2,0,L|235:305,2,37.5000014305115
351,182,148531,6,0,B|399:174|422:147,1,75.0000028610231
412,296,148884,2,0,B|371:289|342:262,1,75.0000028610231
344,104,149237,1,0,0:0:0:0:
344,104,149325,1,0,0:0:0:0:
344,104,149413,1,0,0:0:0:0:
179,229,149590,1,0,0:0:0:0:
97,94,149766,1,0,0:0:0:0:
97,94,149855,1,0,0:0:0:0:
97,94,149943,1,0,0:0:0:0:
256,20,150119,5,0,0:0:0:0:
256,200,150296,2,0,L|256:280,1,75.0000028610231
152,324,150649,1,0,0:0:0:0:
128,308,150737,1,0,0:0:0:0:
104,290,150825,1,0,0:0:0:0:
81,272,150913,1,0,0:0:0:0:
58,253,151002,1,0,0:0:0:0:
34,235,151090,1,0,0:0:0:0:
59,220,151178,5,0,0:0:0:0:
84,206,151266,1,0,0:0:0:0:
109,191,151355,1,0,0:0:0:0:
135,179,151443,1,0,0:0:0:0:
161,167,151531,1,0,0:0:0:0:
381,110,151708,5,0,0:0:0:0:
283,51,151884,1,0,0:0:0:0:
255,190,152061,2,0,B|242:234|242:234|216:259,1,64.9999970245363
255,190,152413,2,0,B|299:203|299:203|324:229,1,64.9999970245363
258,191,152766,2,0,B|214:178|214:178|189:152,1,64.9999970245363
254,45,153119,5,0,0:0:0:0:
391,182,153296,1,0,0:0:0:0:
254,320,153472,1,0,0:0:0:0:
116,181,153649,1,0,0:0:0:0:
254,320,153825,1,0,0:0:0:0:
391,181,154002,1,0,0:0:0:0:
258,70,154178,5,0,0:0:0:0:
219,52,154266,1,0,0:0:0:0:
176,49,154355,1,0,0:0:0:0:
134,53,154443,1,0,0:0:0:0:
97,73,154531,1,0,0:0:0:0:
69,104,154619,1,0,0:0:0:0:
51,142,154708,1,0,0:0:0:0:
45,183,154796,1,0,0:0:0:0:
51,224,154884,5,0,0:0:0:0:
80,253,154972,1,0,0:0:0:0:
118,272,155061,1,0,0:0:0:0:
160,269,155149,1,0,0:0:0:0:
193,243,155237,1,0,0:0:0:0:
224,214,155325,1,0,0:0:0:0:
247,179,155413,1,0,0:0:0:0:
257,137,155502,1,0,0:0:0:0:
286,107,155590,1,0,0:0:0:0:
325,92,155678,1,0,0:0:0:0:
367,92,155766,1,0,0:0:0:0:
408,100,155855,1,0,0:0:0:0:
443,122,155943,1,0,0:0:0:0:
466,156,156031,1,0,0:0:0:0:
475,197,156119,1,0,0:0:0:0:
467,238,156208,1,0,0:0:0:0:
454,278,156296,5,0,0:0:0:0:
428,311,156384,1,0,0:0:0:0:
393,335,156472,1,0,0:0:0:0:
350,341,156561,1,0,0:0:0:0:
311,323,156649,1,0,0:0:0:0:
283,290,156737,1,0,0:0:0:0:
281,247,156825,1,0,0:0:0:0:
304,211,156913,1,0,0:0:0:0:
343,193,157002,1,0,0:0:0:0:
384,184,157090,1,0,0:0:0:0:
420,162,157178,1,0,0:0:0:0:
447,129,157266,1,0,0:0:0:0:
453,86,157355,1,0,0:0:0:0:
435,47,157443,1,0,0:0:0:0:
397,27,157531,1,0,0:0:0:0:
355,22,157619,1,0,0:0:0:0:
313,31,157708,1,0,0:0:0:0:
256,272,159825,5,8,0:0:0:0:
128,192,160002,1,0,0:0:0:0:
256,112,160178,1,2,0:0:0:0:
380,196,160355,1,0,0:0:0:0:
256,192,160531,2,0,L|256:336,1,129.999994049073
90,345,161237,6,0,L|159:343,1,64.9999970245363,8|4,0:0|0:0,0:0:0:0:
255,263,161502,1,0,0:0:0:0:
255,263,161590,2,0,L|189:266,1,64.9999970245363
12,191,161943,5,8,0:0:0:0:
229,132,162208,1,0,0:0:0:0:
330,332,162472,1,0,0:0:0:0:
115,235,162649,5,8,0:0:0:0:
113,219,162737,1,0,0:0:0:0:
111,203,162825,1,4,0:0:0:0:
110,188,162913,1,0,0:0:0:0:
108,172,163002,2,0,L|100:105,1,64.9999970245363,2|0,0:0|0:0,0:0:0:0:
12,80,163355,6,0,P|64:36|152:28,1,129.999994049073
307,119,164061,1,2,0:0:0:0:
307,119,164413,2,0,B|332:140|332:140|438:148,1,129.999994049073,2|8,0:0|0:0,0:0:0:0:
176,192,165119,5,0,0:0:0:0:
256,62,165296,1,0,0:0:0:0:
336,192,165472,1,0,0:0:0:0:
256,316,165649,1,0,0:0:0:0:
256,192,165825,1,0,0:0:0:0:
256,62,166178,2,0,L|256:219,1,129.999994049073
127,102,166884,6,0,L|108:164,1,64.9999970245363
135,246,167149,1,0,0:0:0:0:
135,246,167237,2,0,L|69:290,1,64.9999970245363
215,335,167590,2,0,P|285:315|336:335,1,129.999994049073
336,335,168119,5,0,0:0:0:0:
215,335,168296,1,0,0:0:0:0:
276,240,168472,1,0,0:0:0:0:
336,335,168649,5,0,0:0:0:0:
336,335,168737,1,0,0:0:0:0:
336,335,168825,1,0,0:0:0:0:
336,335,168913,1,0,0:0:0:0:
336,335,169002,2,0,P|391:318|414:247,1,129.999994049073
256,192,169708,1,0,0:0:0:0:
181,192,170061,2,0,P|226:111|330:192,1,259.999988098145
265,297,171119,6,0,P|228:294|186:306,1,64.9999970245363
140,244,171384,1,0,0:0:0:0:
140,244,171472,2,0,L|124:168,1,64.9999970245363
256,84,171825,2,0,B|268:164|268:164|352:136|446:172,1,259.999988098145
256,272,172884,5,0,0:0:0:0:
142,136,173237,2,0,P|83:111|83:53,1,129.999994049073
171,24,173943,1,0,0:0:0:0:
135,166,174296,1,0,0:0:0:0:
132,183,174384,1,0,0:0:0:0:
129,200,174472,1,0,0:0:0:0:
125,217,174561,1,0,0:0:0:0:
121,234,174649,1,0,0:0:0:0:
388,315,175002,5,0,0:0:0:0:
356,307,175090,1,0,0:0:0:0:
324,299,175178,1,0,0:0:0:0:
292,291,175266,1,0,0:0:0:0:
262,283,175355,2,0,L|195:267,1,64.9999970245363
173,129,175708,5,0,0:0:0:0:
52,101,175884,1,0,0:0:0:0:
173,129,176061,2,0,L|243:145,1,64.9999970245363
337,228,176413,5,0,0:0:0:0:
370,348,176589,1,0,0:0:0:0:
337,228,176766,2,0,L|322:161,1,64.9999970245363
237,86,177119,5,0,0:0:0:0:
221,78,177208,1,0,0:0:0:0:
203,75,177296,1,0,0:0:0:0:
185,78,177384,1,0,0:0:0:0:
169,85,177472,2,0,P|107:103|41:81,1,129.999994049073
343,299,178178,2,0,P|405:281|471:303,1,129.999994049073
176,268,178884,5,0,0:0:0:0:
176,268,178972,1,0,0:0:0:0:
176,268,179061,1,0,0:0:0:0:
336,116,179237,5,0,0:0:0:0:
336,116,179325,1,0,0:0:0:0:
336,116,179414,1,0,0:0:0:0:
168,112,179590,5,0,0:0:0:0:
352,280,179766,1,0,0:0:0:0:
168,112,179943,1,0,0:0:0:0:
352,280,180119,1,0,0:0:0:0:
256,192,180296,1,0,0:0:0:0:
349,132,180649,6,0,L|428:139,1,64.9999970245363
511,225,181002,1,0,0:0:0:0:
391,300,181178,1,0,0:0:0:0:
391,300,181355,2,0,P|379:263|378:230,1,64.9999970245363
258,122,181708,6,0,L|253:213,1,64.9999970245363
260,28,182061,1,0,0:0:0:0:
254,186,182237,2,0,P|306:225|380:225,1,129.999994049073
338,98,182766,1,0,0:0:0:0:
175,174,182943,5,0,0:0:0:0:
175,174,183119,2,0,P|145:191|105:197,1,64.9999970245363
218,249,183472,1,0,0:0:0:0:
283,187,183649,2,0,P|287:150|272:111,1,64.9999970245363
136,72,184002,2,0,L|201:79,1,64.9999970245363
218,249,184355,1,0,0:0:0:0:
279,123,184531,2,0,P|345:117|433:127,1,129.999994049073
327,16,185061,5,0,0:0:0:0:
202,141,185413,1,0,0:0:0:0:
255,222,185590,1,0,0:0:0:0:
167,263,185766,1,0,0:0:0:0:
233,334,185943,1,0,0:0:0:0:
340,283,186296,5,0,0:0:0:0:
192,168,186472,1,0,0:0:0:0:
192,168,186649,2,0,P|189:131|199:84,1,64.9999970245363
397,155,187002,1,0,0:0:0:0:
265,270,187178,1,0,0:0:0:0:
243,343,187355,2,0,P|305:336|340:284,1,129.999994049073
372,112,187884,1,0,0:0:0:0:
423,243,188237,1,0,0:0:0:0:
347,203,188413,1,0,0:0:0:0:
263,212,188590,1,0,0:0:0:0:
263,212,188766,6,0,L|177:224,1,64.9999970245363
100,284,189119,2,0,L|180:292,1,64.9999970245363
263,212,189472,2,0,B|268:178|261:141,1,64.9999970245363
176,76,189825,1,0,0:0:0:0:
123,201,190002,1,0,0:0:0:0:
262,147,190178,1,0,0:0:0:0:
262,147,190355,2,0,L|353:131,1,64.9999970245363
470,186,190708,5,0,0:0:0:0:
282,73,191061,1,0,0:0:0:0:
176,76,191237,1,0,0:0:0:0:
87,139,191413,1,0,0:0:0:0:
69,238,191590,1,0,0:0:0:0:
484,264,191943,5,0,0:0:0:0:
364,339,192119,1,0,0:0:0:0:
364,339,192296,2,0,P|352:302|351:269,1,64.9999970245363
266,128,192649,2,0,P|261:169|272:215,1,64.9999970245363
352,200,193002,2,0,P|417:201|478:239,1,129.999994049073
300,344,193531,1,0,0:0:0:0:
261,257,193707,5,0,0:0:0:0:
261,257,193884,2,0,L|265:173,1,64.9999970245363
424,92,194237,1,0,0:0:0:0:
489,156,194413,2,0,L|409:175,1,64.9999970245363
332,338,194766,2,0,L|401:350,1,64.9999970245363
264,270,195031,1,0,0:0:0:0:
264,270,195119,2,0,L|183:256,1,64.9999970245363
332,338,195472,6,0,P|355:272|336:196,1,129.999994049073
264,270,196002,1,0,0:0:0:0:
239,175,196178,1,0,0:0:0:0:
320,122,196354,1,0,0:0:0:0:
406,166,196531,1,0,0:0:0:0:
397,263,196708,1,0,0:0:0:0:
307,324,196884,5,0,0:0:0:0:
204,343,197061,1,0,0:0:0:0:
231,236,197237,1,0,0:0:0:0:
411,339,197590,2,0,L|488:347,1,64.9999970245363
301,279,197943,5,0,0:0:0:0:
301,279,198119,1,0,0:0:0:0:
409,174,198296,1,0,0:0:0:0:
409,174,198473,1,0,0:0:0:0:
238,115,198649,2,0,P|203:107|161:105,1,64.9999970245363
212,194,199002,2,0,P|273:207|334:245,1,129.999994049073
251,289,199531,1,0,0:0:0:0:
212,194,199708,2,0,L|215:121,1,64.9999970245363
106,143,200061,5,0,0:0:0:0:
106,143,200237,1,0,0:0:0:0:
388,175,200413,1,0,0:0:0:0:
388,175,200590,1,0,0:0:0:0:
444,65,200766,6,0,L|519:41,1,64.9999970245363
169,155,201119,2,0,L|97:141,1,64.9999970245363
268,90,201472,5,0,0:0:0:0:
320,99,201561,1,0,0:0:0:0:
362,130,201649,1,0,0:0:0:0:
387,175,201737,1,0,0:0:0:0:
388,227,201825,1,0,0:0:0:0:
370,276,201913,1,0,0:0:0:0:
323,301,202002,5,0,0:0:0:0:
270,297,202090,1,0,0:0:0:0:
229,263,202178,1,0,0:0:0:0:
211,213,202266,1,0,0:0:0:0:
222,161,202355,1,0,0:0:0:0:
232,109,202443,1,0,0:0:0:0:
212,60,202531,1,0,0:0:0:0:
166,34,202619,1,0,0:0:0:0:
124,36,202708,1,0,0:0:0:0:
76,58,202796,1,0,0:0:0:0:
42,92,202884,6,0,P|40:122|77:165,1,75.0000028610231
176,122,203237,2,0,P|198:151|197:188,1,75.0000028610231
303,181,203590,2,0,P|301:211|338:254,1,75.0000028610231
421,205,203943,2,0,P|443:234|442:271,1,75.0000028610231
328,365,204296,5,0,0:0:0:0:
328,365,204384,1,0,0:0:0:0:
328,365,204473,1,0,0:0:0:0:
241,238,204649,1,0,0:0:0:0:
383,136,204826,1,0,0:0:0:0:
383,136,204914,1,0,0:0:0:0:
383,136,205002,1,0,0:0:0:0:
259,78,205179,1,0,0:0:0:0:
259,78,205355,2,0,P|221:82|180:77,1,75.0000028610231
106,298,205708,6,0,P|85:222|108:144,1,150.000005722046
344,192,206237,1,0,0:0:0:0:
344,192,206414,2,0,B|345:212|333:224|333:224|345:236|345:264,1,75.0000028610231
208,180,206766,1,0,0:0:0:0:
277,368,206943,1,0,0:0:0:0:
296,175,207120,5,0,0:0:0:0:
296,175,207208,1,0,0:0:0:0:
296,175,207296,1,0,0:0:0:0:
456,259,207473,1,0,0:0:0:0:
333,283,207649,1,0,0:0:0:0:
300,291,207737,1,0,0:0:0:0:
267,299,207826,1,0,0:0:0:0:
234,306,207914,1,0,0:0:0:0:
201,313,208002,1,0,0:0:0:0:
168,320,208090,1,0,0:0:0:0:
134,328,208179,1,0,0:0:0:0:
185,203,208355,1,0,0:0:0:0:
185,203,208532,6,0,P|202:156|227:120,1,75.0000028610231
320,98,208884,2,0,P|303:145|278:181,1,75.0000028610231
181,171,209237,2,0,P|202:125|230:91,1,75.0000028610231
289,202,209590,2,0,P|267:247|239:281,1,75.0000028610231
174,323,209943,6,0,P|105:340|29:321,1,150.000005722046
183,176,210473,1,0,0:0:0:0:
183,176,210649,2,0,P|255:192|327:175,1,150.000005722046
256,35,211178,5,0,0:0:0:0:
352,61,211354,1,0,0:0:0:0:
370,68,211442,1,0,0:0:0:0:
389,74,211531,1,0,0:0:0:0:
407,80,211619,1,0,0:0:0:0:
425,86,211707,1,0,0:0:0:0:
256,35,211883,5,0,0:0:0:0:
335,140,212060,1,0,0:0:0:0:
351,161,212148,1,0,0:0:0:0:
367,182,212237,1,0,0:0:0:0:
382,205,212325,1,0,0:0:0:0:
396,228,212413,1,0,0:0:0:0:
256,35,212589,5,0,0:0:0:0:
270,183,212766,1,0,0:0:0:0:
271,215,212854,1,0,0:0:0:0:
275,250,212943,1,0,0:0:0:0:
278,284,213031,1,0,0:0:0:0:
280,318,213119,1,0,0:0:0:0:
256,35,213295,5,0,0:0:0:0:
61,118,213472,1,0,0:0:0:0:
78,146,213560,1,0,0:0:0:0:
98,173,213649,1,0,0:0:0:0:
128,186,213737,1,0,0:0:0:0:
161,184,213825,1,0,0:0:0:0:
186,161,213913,1,0,0:0:0:0:
213,141,214001,1,0,0:0:0:0:
244,129,214089,1,0,0:0:0:0:
277,134,214178,6,0,P|313:143|354:166,1,75.0000028610231
438,211,214531,2,0,P|406:228|377:265,1,75.0000028610231
456,288,214883,1,0,0:0:0:0:
288,212,215060,1,0,0:0:0:0:
432,112,215236,1,0,0:0:0:0:
348,372,215413,1,0,0:0:0:0:
192,292,215589,5,0,0:0:0:0:
192,292,215677,1,0,0:0:0:0:
192,292,215766,1,0,0:0:0:0:
105,157,215942,1,0,0:0:0:0:
22,264,216119,1,0,0:0:0:0:
22,264,216207,1,0,0:0:0:0:
22,264,216295,2,0,P|61:277|111:277,1,75.0000028610231
248,197,216649,2,0,P|209:184|159:184,1,75.0000028610231
264,320,217001,5,0,0:0:0:0:
380,244,217178,1,0,0:0:0:0:
248,197,217354,1,0,0:0:0:0:
264,320,217531,1,0,0:0:0:0:
487,235,217707,5,0,0:0:0:0:
487,235,217795,1,0,0:0:0:0:
487,235,217884,1,0,0:0:0:0:
416,120,218061,1,0,0:0:0:0:
324,272,218237,1,0,0:0:0:0:
324,272,218325,1,0,0:0:0:0:
324,272,218413,2,0,B|344:312|324:352,1,75.0000028610231
202,300,218766,1,0,0:0:0:0:
192,176,218943,2,0,P|162:239|206:302,1,150.000005722046
248,229,219472,5,0,0:0:0:0:
385,194,219648,1,0,0:0:0:0:
385,194,219825,2,0,L|400:120,1,75.0000028610231
314,45,220178,1,0,0:0:0:0:
238,137,220355,1,0,0:0:0:0:
238,137,220531,2,0,P|201:145|157:134,1,75.0000028610231
203,69,220884,5,0,0:0:0:0:
314,178,221061,1,0,0:0:0:0:
314,178,221236,2,0,P|323:217|312:269,1,75.0000028610231
246,225,221590,1,0,0:0:0:0:
398,159,221766,1,0,0:0:0:0:
398,159,221942,2,0,P|430:138|438:87,1,75.0000028610231
296,88,222295,6,0,P|256:90|214:82,1,75.0000028610231
161,41,222649,2,0,P|213:88|191:163,1,150.000005722046
141,109,223178,1,0,0:0:0:0:
141,109,223355,2,0,P|89:156|111:231,1,150.000005722046
327,354,224061,5,0,0:0:0:0:
371,349,224149,1,0,0:0:0:0:
414,335,224237,1,0,0:0:0:0:
449,307,224325,1,0,0:0:0:0:
477,272,224413,1,0,0:0:0:0:
484,227,224502,1,0,0:0:0:0:
473,183,224590,1,0,0:0:0:0:
448,145,224678,1,0,0:0:0:0:
414,114,224766,1,0,0:0:0:0:
369,105,224855,5,0,0:0:0:0:
326,119,224943,1,0,0:0:0:0:
291,147,225031,1,0,0:0:0:0:
276,189,225119,1,0,0:0:0:0:
257,230,225208,1,0,0:0:0:0:
224,260,225296,1,0,0:0:0:0:
112,345,225472,5,0,0:0:0:0:
186,138,225649,1,0,0:0:0:0:
0,191,225825,1,0,0:0:0:0:
224,260,226002,1,0,0:0:0:0:
244,268,226090,1,0,0:0:0:0:
264,276,226178,1,0,0:0:0:0:
106,220,226355,5,0,0:0:0:0:
179,52,226531,1,0,0:0:0:0:
339,141,226708,1,0,0:0:0:0:
339,141,226796,1,0,0:0:0:0:
339,141,226884,2,0,P|366:164|412:173,1,75.0000028610231
416,68,227237,1,0,0:0:0:0:
304,244,227413,1,0,0:0:0:0:
105,123,227590,5,0,0:0:0:0:
64,141,227678,1,0,0:0:0:0:
35,175,227766,1,0,0:0:0:0:
28,219,227855,1,0,0:0:0:0:
37,262,227943,1,0,0:0:0:0:
66,295,228031,1,0,0:0:0:0:
108,308,228119,1,0,0:0:0:0:
153,305,228208,1,0,0:0:0:0:
196,275,228296,1,0,0:0:0:0:
247,260,228384,1,0,0:0:0:0:
298,273,228473,1,0,0:0:0:0:
335,309,228561,1,0,0:0:0:0:
376,340,228649,5,0,0:0:0:0:
426,332,228737,1,0,0:0:0:0:
467,299,228826,1,0,0:0:0:0:
485,249,228914,1,0,0:0:0:0:
475,197,229002,1,0,0:0:0:0:
447,152,229090,1,0,0:0:0:0:
403,121,229179,1,0,0:0:0:0:
350,119,229267,1,0,0:0:0:0:
305,146,229355,1,0,0:0:0:0:
279,191,229443,1,0,0:0:0:0:
290,242,229532,1,0,0:0:0:0:
328,280,229620,1,0,0:0:0:0:
376,308,229708,6,0,L|371:344,7,25
414,300,230414,1,0,0:0:0:0:
457,271,230502,1,0,0:0:0:0:
478,223,230590,1,0,0:0:0:0:
460,173,230679,1,0,0:0:0:0:
421,137,230767,1,0,0:0:0:0:
369,130,230855,1,0,0:0:0:0:
320,152,230943,1,0,0:0:0:0:
270,168,231032,1,0,0:0:0:0:
218,179,231120,6,0,B|167:161|116:192,1,87.500000834465
81,248,231384,1,0,0:0:0:0:
81,248,231473,2,0,B|51:278|0:269,1,87.500000834465
21,175,231826,1,0,0:0:0:0:
159,282,232002,1,0,0:0:0:0:
218,179,232179,1,0,0:0:0:0:
154,77,232355,2,0,B|192:25|192:25|247:48|307:21,1,175.00000166893
385,158,232884,6,0,L|420:100,1,64.9999970245363
256,228,233237,2,0,L|256:296,1,64.9999970245363
127,158,233590,2,0,L|92:100,1,64.9999970245363
270,164,233943,5,0,0:0:0:0:
315,190,234032,1,0,0:0:0:0:
352,226,234120,1,0,0:0:0:0:
350,278,234208,1,0,0:0:0:0:
320,321,234296,1,0,0:0:0:0:
275,348,234384,1,0,0:0:0:0:
223,337,234473,1,0,0:0:0:0:
175,314,234561,1,0,0:0:0:0:
123,306,234649,1,0,0:0:0:0:
82,273,234737,1,0,0:0:0:0:
62,223,234826,1,0,0:0:0:0:
77,173,234914,1,0,0:0:0:0:
121,145,235002,1,0,0:0:0:0:
172,155,235090,1,0,0:0:0:0:
216,183,235179,1,0,0:0:0:0:
267,173,235267,1,0,0:0:0:0:
311,150,235355,6,0,P|348:125|365:75,1,87.500000834465
220,100,235708,1,0,0:0:0:0:
300,256,236061,1,0,0:0:0:0:
156,205,236413,6,0,L|103:200,1,43.7500004172325
351,159,236766,2,0,L|398:153,1,43.7500004172325
186,272,237119,2,0,L|141:297,1,43.7500004172325
279,126,237472,2,0,L|297:84,1,43.7500004172325
321,295,237825,2,0,L|327:339,1,43.7500004172325
17,256,238179,5,0,0:0:0:0:
40,287,238267,1,0,0:0:0:0:
75,303,238355,1,0,0:0:0:0:
113,297,238443,1,0,0:0:0:0:
140,268,238532,1,0,0:0:0:0:
175,252,238619,1,0,0:0:0:0:
213,259,238708,1,0,0:0:0:0:
247,278,238796,1,0,0:0:0:0:
271,308,238884,5,0,0:0:0:0:
305,329,238973,1,0,0:0:0:0:
343,319,239061,1,0,0:0:0:0:
364,285,239149,1,0,0:0:0:0:
389,254,239237,1,0,0:0:0:0:
430,244,239326,1,0,0:0:0:0:
462,221,239414,1,0,0:0:0:0:
473,183,239502,1,0,0:0:0:0:
480,144,239590,6,0,L|495:56,1,87.500000834465
287,188,239943,2,0,P|238:190|193:153,1,87.500000834465
177,36,240296,1,0,0:0:0:0:
370,155,240472,1,0,0:0:0:0:
204,284,240649,1,0,0:0:0:0:
263,114,240825,2,0,P|326:82|423:115,1,175.00000166893
355,240,241355,2,0,P|344:305|437:296,1,175.00000166893
499,182,241884,5,0,0:0:0:0:
306,116,242061,1,0,0:0:0:0:
240,292,242237,1,0,0:0:0:0:
239,291,242413,2,0,P|197:282|165:253,1,87.500000834465
281,181,242766,1,0,0:0:0:0:
281,181,242943,2,0,P|334:204|353:225,1,87.500000834465
258,378,243296,2,0,L|239:284,1,87.500000834465
353,225,243649,1,0,0:0:0:0:
282,47,243825,2,0,P|281:98|277:149,1,100
235,278,244531,6,0,P|196:285|155:302,1,75.0000028610231
88,224,244796,1,0,0:0:0:0:
88,224,244884,2,0,P|49:217|8:200,1,75.0000028610231
193,51,245237,2,0,P|196:102|275:154,1,150.000005722046
392,16,245766,1,0,0:0:0:0:
512,155,245943,2,0,P|509:206|468:242,1,75.0000028610231
237,323,246296,5,0,0:0:0:0:
278,306,246384,1,0,0:0:0:0:
294,264,246472,1,0,0:0:0:0:
269,225,246561,1,0,0:0:0:0:
233,197,246649,1,0,0:0:0:0:
209,158,246737,1,0,0:0:0:0:
222,115,246825,1,0,0:0:0:0:
260,92,246913,1,0,0:0:0:0:
304,80,247002,6,0,P|345:71|387:53,1,75.0000028610231
234,7,247355,2,0,P|193:16|151:34,1,75.0000028610231
162,28,247619,1,0,0:0:0:0:
161,27,247708,1,0,0:0:0:0:
208,236,247884,1,0,0:0:0:0:
303,120,248061,5,0,0:0:0:0:
332,85,248149,1,0,0:0:0:0:
375,68,248237,1,0,0:0:0:0:
418,77,248325,1,0,0:0:0:0:
457,98,248413,1,0,0:0:0:0:
484,134,248502,1,0,0:0:0:0:
477,178,248590,1,0,0:0:0:0:
458,212,248678,1,0,0:0:0:0:
426,244,248766,1,0,0:0:0:0:
402,282,248855,1,0,0:0:0:0:
395,326,248943,1,0,0:0:0:0:
363,357,249031,1,0,0:0:0:0:
319,368,249119,1,0,0:0:0:0:
276,353,249208,1,0,0:0:0:0:
236,331,249296,1,0,0:0:0:0:
191,325,249384,1,0,0:0:0:0:
148,344,249472,5,0,0:0:0:0:
104,332,249561,1,0,0:0:0:0:
72,299,249649,1,0,0:0:0:0:
54,257,249737,1,0,0:0:0:0:
64,213,249825,1,0,0:0:0:0:
100,187,249913,1,0,0:0:0:0:
145,192,250002,1,0,0:0:0:0:
163,233,250090,1,0,0:0:0:0:
198,260,250178,1,0,0:0:0:0:
238,240,250266,1,0,0:0:0:0:
283,245,250355,1,0,0:0:0:0:
356,141,250531,5,0,0:0:0:0:
435,251,250708,1,0,0:0:0:0:
299,34,250884,5,0,0:0:0:0:
297,19,250972,1,0,0:0:0:0:
295,3,251061,1,0,0:0:0:0:
216,73,251237,1,0,0:0:0:0:
218,88,251325,1,0,0:0:0:0:
220,104,251414,1,0,0:0:0:0:
154,170,251590,1,0,0:0:0:0:
156,185,251678,1,0,0:0:0:0:
158,201,251767,1,0,0:0:0:0:
171,360,251943,5,0,0:0:0:0:
28,245,252119,1,0,0:0:0:0:
234,207,252296,5,0,0:0:0:0:
248,204,252384,1,0,0:0:0:0:
262,202,252472,1,0,0:0:0:0:
309,126,252649,1,0,0:0:0:0:
323,123,252737,1,0,0:0:0:0:
337,121,252825,1,0,0:0:0:0:
376,48,253002,1,0,0:0:0:0:
390,45,253090,1,0,0:0:0:0:
404,43,253178,1,0,0:0:0:0:
494,60,253355,5,0,0:0:0:0:
309,126,253531,1,0,0:0:0:0:
399,289,253708,6,0,L|430:352,2,37.5000014305115
300,195,254061,1,0,0:0:0:0:
340,341,254237,2,0,L|371:404,2,37.5000014305115
245,243,254590,1,0,0:0:0:0:
140,310,254766,2,0,P|93:314|51:303,1,75.0000028610231
295,293,255119,5,0,0:0:0:0:
330,280,255208,1,0,0:0:0:0:
364,264,255296,1,0,0:0:0:0:
389,236,255384,1,0,0:0:0:0:
404,202,255472,1,0,0:0:0:0:
405,164,255561,1,0,0:0:0:0:
386,131,255649,1,0,0:0:0:0:
352,113,255737,1,0,0:0:0:0:
314,113,255825,1,0,0:0:0:0:
279,128,255913,1,0,0:0:0:0:
253,156,256002,1,0,0:0:0:0:
320,212,256178,5,0,0:0:0:0:
164,144,256355,1,0,0:0:0:0:
268,28,256531,2,0,L|338:18,1,64.9999970245363
476,100,256884,2,0,L|406:110,1,64.9999970245363
255,221,257237,2,0,L|325:211,1,64.9999970245363
184,312,257590,1,0,0:0:0:0:
184,312,257766,1,0,0:0:0:0:
184,312,257943,2,0,L|153:243,1,64.9999970245363
332,200,258296,2,0,L|363:131,1,64.9999970245363
256,24,258649,5,0,0:0:0:0:
256,72,258737,1,0,0:0:0:0:
256,120,258825,1,0,0:0:0:0:
256,168,258913,1,0,0:0:0:0:
256,216,259002,1,0,0:0:0:0:
256,264,259090,1,0,0:0:0:0:
256,312,259178,1,0,0:0:0:0:
344,268,259355,5,0,0:0:0:0:
384,256,259443,1,0,0:0:0:0:
424,244,259531,1,0,0:0:0:0:
464,228,259619,1,0,0:0:0:0:
424,216,259708,1,0,0:0:0:0:
384,204,259796,1,0,0:0:0:0:
344,192,259884,1,0,0:0:0:0:
304,180,259972,1,0,0:0:0:0:
268,156,260061,1,0,0:0:0:0:
252,116,260149,1,0,0:0:0:0:
260,76,260237,1,0,0:0:0:0:
292,48,260325,1,0,0:0:0:0:
332,40,260413,1,0,0:0:0:0:
376,40,260502,1,0,0:0:0:0:
416,56,260590,1,0,0:0:0:0:
444,88,260678,1,0,0:0:0:0:
456,128,260766,5,0,0:0:0:0:
444,168,260855,1,0,0:0:0:0:
420,204,260943,1,0,0:0:0:0:
384,224,261031,1,0,0:0:0:0:
344,228,261119,1,0,0:0:0:0:
304,220,261208,1,0,0:0:0:0:
268,196,261296,1,0,0:0:0:0:
248,160,261384,1,0,0:0:0:0:
220,128,261472,1,0,0:0:0:0:
180,116,261561,1,0,0:0:0:0:
140,128,261649,1,0,0:0:0:0:
104,152,261737,1,0,0:0:0:0:
88,192,261825,1,0,0:0:0:0:
92,232,261913,1,0,0:0:0:0:
116,268,262002,1,0,0:0:0:0:
256,301,262178,6,0,L|265:351,2,37.5000014305115
332,233,262531,1,0,0:0:0:0:
237,188,262708,1,0,0:0:0:0:
171,275,262884,2,0,P|142:301|103:312,1,75.0000028610231
109,312,263149,1,0,0:0:0:0:
109,312,263237,1,0,0:0:0:0:
104,172,263413,5,0,0:0:0:0:
124,139,263502,1,0,0:0:0:0:
153,115,263590,1,0,0:0:0:0:
192,104,263678,1,0,0:0:0:0:
229,105,263766,1,0,0:0:0:0:
264,118,263855,1,0,0:0:0:0:
294,140,263943,1,0,0:0:0:0:
323,163,264031,1,0,0:0:0:0:
356,178,264119,5,0,0:0:0:0:
393,179,264208,1,0,0:0:0:0:
425,160,264296,1,0,0:0:0:0:
445,128,264384,1,0,0:0:0:0:
438,91,264472,1,0,0:0:0:0:
414,61,264561,1,0,0:0:0:0:
376,55,264649,1,0,0:0:0:0:
344,66,264737,1,0,0:0:0:0:
315,90,264825,1,0,0:0:0:0:
119,91,265002,5,0,0:0:0:0:
277,241,265178,1,0,0:0:0:0:
277,241,265266,1,0,0:0:0:0:
277,241,265355,1,0,0:0:0:0:
315,90,265531,1,0,0:0:0:0:
185,178,265708,1,0,0:0:0:0:
160,194,265796,1,0,0:0:0:0:
134,209,265884,1,0,0:0:0:0:
109,225,265972,1,0,0:0:0:0:
82,240,266061,1,0,0:0:0:0:
340,120,266237,5,0,0:0:0:0:
256,272,266413,1,0,0:0:0:0:
172,120,266590,1,0,0:0:0:0:
256,272,266766,5,0,0:0:0:0:
281,299,266855,1,0,0:0:0:0:
315,313,266943,1,0,0:0:0:0:
352,309,267031,1,0,0:0:0:0:
381,285,267119,1,0,0:0:0:0:
397,250,267208,1,0,0:0:0:0:
386,214,267296,1,0,0:0:0:0:
358,188,267384,1,0,0:0:0:0:
358,150,267472,1,0,0:0:0:0:
383,121,267561,1,0,0:0:0:0:
417,106,267649,1,0,0:0:0:0:
274,70,267825,6,0,L|241:37,2,37.5000014305115
436,172,268178,1,0,0:0:0:0:
223,237,268355,1,0,0:0:0:0:
223,237,268443,1,0,0:0:0:0:
223,237,268531,2,0,P|204:272|161:300,2,75.0000028610231
229,48,269061,5,0,0:0:0:0:
201,28,269149,1,0,0:0:0:0:
167,22,269237,1,0,0:0:0:0:
133,26,269325,1,0,0:0:0:0:
102,39,269413,1,0,0:0:0:0:
73,58,269502,1,0,0:0:0:0:
50,83,269590,1,0,0:0:0:0:
32,111,269678,1,0,0:0:0:0:
27,144,269766,5,0,0:0:0:0:
34,177,269855,1,0,0:0:0:0:
56,202,269943,1,0,0:0:0:0:
90,215,270031,1,0,0:0:0:0:
117,202,270119,1,0,0:0:0:0:
144,182,270208,1,0,0:0:0:0:
176,172,270296,1,0,0:0:0:0:
208,181,270384,1,0,0:0:0:0:
232,204,270472,1,0,0:0:0:0:
327,319,270649,5,0,0:0:0:0:
210,139,270825,1,0,0:0:0:0:
327,319,271002,1,0,0:0:0:0:
379,138,271178,2,0,L|401:100,2,37.5000014305115
318,74,271443,1,0,0:0:0:0:
318,74,271531,2,0,P|299:45|292:4,1,75.0000028610231
454,205,271884,5,0,0:0:0:0:
426,224,271972,1,0,0:0:0:0:
409,251,272061,1,0,0:0:0:0:
411,284,272149,1,0,0:0:0:0:
392,312,272237,1,0,0:0:0:0:
361,330,272325,1,0,0:0:0:0:
327,327,272413,5,0,0:0:0:0:
301,303,272502,1,0,0:0:0:0:
293,270,272590,1,0,0:0:0:0:
306,238,272678,1,0,0:0:0:0:
320,207,272766,5,0,0:0:0:0:
320,172,272855,1,0,0:0:0:0:
307,140,272943,1,0,0:0:0:0:
287,112,273031,1,0,0:0:0:0:
262,88,273119,1,0,0:0:0:0:
233,68,273208,1,0,0:0:0:0:
200,57,273296,1,0,0:0:0:0:
127,212,273472,6,0,L|111:260,2,37.5000014305115
228,123,273825,1,0,0:0:0:0:
238,90,273913,1,0,0:0:0:0:
247,57,274002,1,0,0:0:0:0:
316,267,274178,2,0,L|328:315,2,37.5000014305115
159,147,274531,1,0,0:0:0:0:
132,126,274619,1,0,0:0:0:0:
104,105,274708,1,0,0:0:0:0:
298,112,274884,5,0,0:0:0:0:
331,108,274972,1,0,0:0:0:0:
364,104,275061,1,0,0:0:0:0:
397,101,275149,1,0,0:0:0:0:
430,96,275237,1,0,0:0:0:0:
177,20,275413,5,0,0:0:0:0:
265,193,275590,1,0,0:0:0:0:
279,223,275678,1,0,0:0:0:0:
293,253,275766,1,0,0:0:0:0:
309,282,275855,1,0,0:0:0:0:
322,312,275943,1,0,0:0:0:0:
468,148,276119,5,0,0:0:0:0:
225,274,276296,1,0,0:0:0:0:
183,289,276384,1,0,0:0:0:0:
140,303,276472,1,0,0:0:0:0:
97,287,276561,1,0,0:0:0:0:
55,270,276649,1,0,0:0:0:0:
388,266,276825,5,0,0:0:0:0:
299,80,277002,2,0,L|324:37,2,37.5000014305115
235,45,277355,2,0,L|216:6,2,37.5000014305115
217,145,277708,5,0,0:0:0:0:
199,186,277796,1,0,0:0:0:0:
181,227,277884,1,0,0:0:0:0:
164,268,277972,1,0,0:0:0:0:
142,307,278061,1,0,0:0:0:0:
289,310,278237,1,0,0:0:0:0:
72,205,278413,1,0,0:0:0:0:
72,205,278502,1,0,0:0:0:0:
72,205,278590,1,0,0:0:0:0:
317,124,278766,1,0,0:0:0:0:
317,124,278855,1,0,0:0:0:0:
317,124,278943,1,0,0:0:0:0:
446,194,279119,5,0,0:0:0:0:
458,216,279208,1,0,0:0:0:0:
466,239,279296,1,0,0:0:0:0:
468,263,279384,1,0,0:0:0:0:
460,286,279472,1,0,0:0:0:0:
443,304,279561,1,0,0:0:0:0:
424,320,279649,1,0,0:0:0:0:
401,329,279737,1,0,0:0:0:0:
377,337,279825,2,0,L|381:373,4,25
352,332,280266,1,0,0:0:0:0:
331,318,280355,1,0,0:0:0:0:
312,300,280443,1,0,0:0:0:0:
292,283,280531,5,0,0:0:0:0:
267,279,280619,1,0,0:0:0:0:
242,283,280708,1,0,0:0:0:0:
218,292,280796,1,0,0:0:0:0:
193,286,280884,1,0,0:0:0:0:
172,271,280972,1,0,0:0:0:0:
151,256,281061,1,0,0:0:0:0:
135,236,281149,1,0,0:0:0:0:
121,215,281237,2,0,L|95:226,4,25
121,189,281678,1,0,0:0:0:0:
128,165,281766,1,0,0:0:0:0:
143,144,281855,1,0,0:0:0:0:
162,126,281943,6,0,P|203:104|250:105,1,87.500000834465
348,159,282208,1,0,0:0:0:0:
348,159,282296,2,0,L|397:129,2,43.7500004172325
262,348,282649,2,0,P|275:306|266:253,1,87.500000834465
174,204,282913,1,0,0:0:0:0:
174,204,283002,2,0,L|126:166,2,43.7500004172325
344,228,283355,6,0,L|436:220,1,87.500000834465
161,120,283708,2,0,L|64:108,1,87.500000834465
277,271,284061,2,0,L|298:360,1,87.500000834465
277,113,284413,2,0,L|298:24,1,87.500000834465
356,133,284766,5,0,0:0:0:0:
360,145,284855,1,0,0:0:0:0:
364,157,284943,1,0,0:0:0:0:
260,81,285119,1,0,0:0:0:0:
256,69,285208,1,0,0:0:0:0:
252,57,285296,1,0,0:0:0:0:
233,184,285472,1,0,0:0:0:0:
237,196,285561,1,0,0:0:0:0:
241,208,285649,1,0,0:0:0:0:
104,78,285825,1,0,0:0:0:0:
100,66,285914,1,0,0:0:0:0:
96,54,286002,1,0,0:0:0:0:
299,142,286178,5,0,0:0:0:0:
310,146,286267,1,0,0:0:0:0:
322,151,286355,1,0,0:0:0:0:
99,239,286531,1,0,0:0:0:0:
88,243,286620,1,0,0:0:0:0:
76,248,286708,1,0,0:0:0:0:
241,183,286884,5,0,0:0:0:0:
421,248,287061,1,0,0:0:0:0:
364,123,287237,1,0,0:0:0:0:
291,301,287413,1,0,0:0:0:0:
85,244,287590,6,0,L|35:253,2,37.5000014305115
181,118,287943,1,0,0:0:0:0:
204,272,288120,1,0,0:0:0:0:
204,272,288296,2,0,P|240:289|293:277,1,75.0000028610231
274,286,288561,1,0,0:0:0:0:
274,286,288649,1,0,0:0:0:0:
238,172,288825,5,0,0:0:0:0:
250,144,288914,1,0,0:0:0:0:
271,123,289002,1,0,0:0:0:0:
299,113,289090,1,0,0:0:0:0:
328,115,289178,1,0,0:0:0:0:
355,128,289267,1,0,0:0:0:0:
375,149,289355,1,0,0:0:0:0:
381,178,289443,1,0,0:0:0:0:
373,206,289531,5,0,0:0:0:0:
354,230,289620,1,0,0:0:0:0:
326,241,289708,1,0,0:0:0:0:
296,239,289796,1,0,0:0:0:0:
270,223,289884,1,0,0:0:0:0:
249,200,289973,1,0,0:0:0:0:
246,170,290061,1,0,0:0:0:0:
261,144,290149,1,0,0:0:0:0:
283,124,290237,1,0,0:0:0:0:
383,137,290414,5,0,0:0:0:0:
129,234,290590,1,0,0:0:0:0:
129,234,290678,1,0,0:0:0:0:
129,234,290767,1,0,0:0:0:0:
262,361,290943,1,0,0:0:0:0:
230,177,291120,1,0,0:0:0:0:
224,147,291208,1,0,0:0:0:0:
217,118,291296,1,0,0:0:0:0:
212,89,291384,1,0,0:0:0:0:
205,59,291473,1,0,0:0:0:0:
72,2,291649,5,0,0:0:0:0:
278,62,291825,1,0,0:0:0:0:
128,161,292002,1,0,0:0:0:0:
336,208,292178,5,0,0:0:0:0:
348,243,292267,1,0,0:0:0:0:
344,281,292355,1,0,0:0:0:0:
326,313,292443,1,0,0:0:0:0:
293,331,292532,1,0,0:0:0:0:
256,338,292620,1,0,0:0:0:0:
218,334,292708,1,0,0:0:0:0:
187,311,292796,1,0,0:0:0:0:
166,280,292885,1,0,0:0:0:0:
160,242,292973,1,0,0:0:0:0:
177,207,293061,1,0,0:0:0:0:
85,56,293237,6,0,L|78:18,2,37.5000014305115
214,136,293590,1,0,0:0:0:0:
81,257,293767,1,0,0:0:0:0:
81,257,293855,1,0,0:0:0:0:
81,257,293943,2,0,P|48:279|-4:283,2,75.0000028610231
221,57,294473,5,0,0:0:0:0:
248,36,294561,1,0,0:0:0:0:
284,28,294649,1,0,0:0:0:0:
321,33,294737,1,0,0:0:0:0:
355,48,294825,1,0,0:0:0:0:
384,72,294914,1,0,0:0:0:0:
394,107,295002,1,0,0:0:0:0:
406,142,295090,1,0,0:0:0:0:
441,154,295178,5,0,0:0:0:0:
455,188,295267,1,0,0:0:0:0:
486,212,295355,1,0,0:0:0:0:
505,244,295443,1,0,0:0:0:0:
492,279,295531,1,0,0:0:0:0:
462,302,295620,1,0,0:0:0:0:
427,316,295708,1,0,0:0:0:0:
392,301,295796,1,0,0:0:0:0:
365,274,295884,1,0,0:0:0:0:
185,65,296061,5,0,0:0:0:0:
294,222,296237,1,0,0:0:0:0:
185,65,296414,1,0,0:0:0:0:
102,181,296590,2,0,L|54:185,2,37.5000014305115
196,200,296855,1,0,0:0:0:0:
196,200,296943,2,0,P|215:229|222:270,1,75.0000028610231
71,293,297296,5,0,0:0:0:0:
83,328,297384,1,0,0:0:0:0:
108,355,297473,1,0,0:0:0:0:
140,372,297561,1,0,0:0:0:0:
177,368,297649,1,0,0:0:0:0:
211,352,297737,1,0,0:0:0:0:
242,332,297825,1,0,0:0:0:0:
278,323,297914,1,0,0:0:0:0:
315,327,298002,5,0,0:0:0:0:
351,318,298090,1,0,0:0:0:0:
383,298,298178,1,0,0:0:0:0:
405,267,298267,1,0,0:0:0:0:
405,229,298355,1,0,0:0:0:0:
392,193,298443,1,0,0:0:0:0:
402,157,298531,1,0,0:0:0:0:
426,128,298620,1,0,0:0:0:0:
430,90,298708,1,0,0:0:0:0:
206,221,298884,6,0,P|194:261|170:301,1,75.0000028610231
178,289,299149,1,0,0:0:0:0:
178,289,299237,1,0,0:0:0:0:
31,188,299413,1,0,0:0:0:0:
176,72,299590,2,0,L|208:32,6,37.5000014305115
243,153,300296,6,0,P|277:160|329:150,1,75.0000028610231
317,155,300561,1,0,0:0:0:0:
317,155,300649,1,0,0:0:0:0:
212,17,300825,1,0,0:0:0:0:
85,160,301002,2,0,L|58:185,6,37.5000014305115
215,252,301708,6,0,L|315:268,1,75.0000028610231
289,263,301972,1,0,0:0:0:0:
289,263,302061,1,0,0:0:0:0:
173,372,302237,1,0,0:0:0:0:
82,272,302413,2,0,L|-18:256,1,75.0000028610231
7,260,302677,1,0,0:0:0:0:
7,260,302766,1,0,0:0:0:0:
155,104,302943,1,0,0:0:0:0:
263,286,303119,5,0,0:0:0:0:
284,314,303208,1,0,0:0:0:0:
305,341,303296,1,0,0:0:0:0:
332,363,303384,1,0,0:0:0:0:
370,355,303472,1,0,0:0:0:0:
405,342,303561,1,0,0:0:0:0:
437,328,303649,1,0,0:0:0:0:
468,313,303737,1,0,0:0:0:0:
440,292,303825,5,0,0:0:0:0:
409,275,303913,1,0,0:0:0:0:
377,259,304002,1,0,0:0:0:0:
345,244,304090,1,0,0:0:0:0:
312,230,304178,1,0,0:0:0:0:
344,217,304266,1,0,0:0:0:0:
377,204,304355,1,0,0:0:0:0:
409,191,304443,1,0,0:0:0:0:
445,180,304531,6,0,P|461:135|469:92,1,87.500000834465
468,95,304796,1,0,0:0:0:0:
468,95,304884,1,0,0:0:0:0:
303,197,305061,1,0,0:0:0:0:
191,35,305237,1,0,0:0:0:0:
298,72,305413,5,0,0:0:0:0:
293,102,305502,1,0,0:0:0:0:
277,128,305590,1,0,0:0:0:0:
248,139,305678,1,0,0:0:0:0:
214,139,305766,1,0,0:0:0:0:
179,145,305855,1,0,0:0:0:0:
145,154,305943,1,0,0:0:0:0:
117,175,306031,5,0,0:0:0:0:
99,205,306119,1,0,0:0:0:0:
100,240,306208,1,0,0:0:0:0:
122,266,306296,1,0,0:0:0:0:
156,271,306384,1,0,0:0:0:0:
185,252,306472,1,0,0:0:0:0:
202,221,306561,1,0,0:0:0:0:
192,187,306649,1,0,0:0:0:0:
166,162,306737,5,0,0:0:0:0:
134,147,306825,1,0,0:0:0:0:
99,139,306913,1,0,0:0:0:0:
70,118,307002,1,0,0:0:0:0:
63,83,307090,1,0,0:0:0:0:
80,52,307178,1,0,0:0:0:0:
108,31,307266,1,0,0:0:0:0:
143,29,307355,1,0,0:0:0:0:
243,147,307531,5,0,0:0:0:0:
71,282,307708,1,0,0:0:0:0:
97,304,307796,1,0,0:0:0:0:
129,316,307884,1,0,0:0:0:0:
163,311,307972,1,0,0:0:0:0:
197,318,308061,1,0,0:0:0:0:
432,361,308237,1,0,0:0:0:0:
338,249,308413,5,0,0:0:0:0:
315,222,308502,1,0,0:0:0:0:
283,206,308590,1,0,0:0:0:0:
248,199,308678,1,0,0:0:0:0:
214,210,308766,2,0,P|174:218|126:205,1,87.500000834465
288,135,309119,2,0,P|328:127|375:139,1,87.500000834465
187,102,309472,2,0,P|179:62|191:14,1,87.500000834465
330,221,309825,2,0,P|338:261|325:308,1,87.500000834465
102,319,310178,5,0,0:0:0:0:
81,285,310266,1,0,0:0:0:0:
66,248,310355,1,0,0:0:0:0:
73,209,310443,1,0,0:0:0:0:
93,175,310531,1,0,0:0:0:0:
241,265,310708,1,0,0:0:0:0:
148,62,310884,5,0,0:0:0:0:
148,62,310972,1,0,0:0:0:0:
148,62,311061,1,0,0:0:0:0:
93,175,311237,5,0,0:0:0:0:
128,192,311325,1,0,0:0:0:0:
167,193,311413,1,0,0:0:0:0:
206,185,311502,1,0,0:0:0:0:
238,162,311590,1,0,0:0:0:0:
258,128,311678,1,0,0:0:0:0:
271,90,311766,1,0,0:0:0:0:
283,52,311855,1,0,0:0:0:0:
311,25,311943,5,0,0:0:0:0:
347,11,312031,1,0,0:0:0:0:
386,12,312119,1,0,0:0:0:0:
423,23,312208,1,0,0:0:0:0:
456,43,312296,1,0,0:0:0:0:
471,79,312384,1,0,0:0:0:0:
467,118,312472,1,0,0:0:0:0:
439,146,312561,1,0,0:0:0:0:
400,153,312649,5,0,0:0:0:0:
362,142,312737,1,0,0:0:0:0:
323,135,312825,1,0,0:0:0:0:
286,148,312913,1,0,0:0:0:0:
251,163,313002,2,0,L|223:139,3,25
241,194,313355,1,0,0:0:0:0:
246,232,313443,1,0,0:0:0:0:
276,256,313531,1,0,0:0:0:0:
316,250,313619,1,0,0:0:0:0:
350,228,313708,2,0,L|366:260,3,25
392,215,314061,5,0,0:0:0:0:
431,212,314149,1,0,0:0:0:0:
469,218,314237,1,0,0:0:0:0:
497,245,314325,1,0,0:0:0:0:
508,282,314413,1,0,0:0:0:0:
493,319,314502,1,0,0:0:0:0:
466,347,314590,1,0,0:0:0:0:
434,370,314678,1,0,0:0:0:0:
394,369,314766,1,0,0:0:0:0:
355,357,314855,1,0,0:0:0:0:
321,336,314943,5,0,0:0:0:0:
293,307,315031,1,0,0:0:0:0:
289,267,315119,1,0,0:0:0:0:
305,230,315208,1,0,0:0:0:0:
337,207,315296,1,0,0:0:0:0:
373,192,315384,1,0,0:0:0:0:
403,167,315472,1,0,0:0:0:0:
425,133,315561,1,0,0:0:0:0:
426,93,315649,1,0,0:0:0:0:
394,69,315737,1,0,0:0:0:0:
353,51,315825,6,0,P|306:41|256:38,1,87.500000834465
227,112,316178,2,0,P|180:102|130:99,1,87.500000834465
92,168,316443,1,0,0:0:0:0:
92,168,316531,2,0,P|45:158|-5:155,1,87.500000834465
195,225,316884,6,0,P|242:215|292:212,1,87.500000834465
488,203,317237,1,0,0:0:0:0:
488,203,317325,1,0,0:0:0:0:
488,203,317413,1,0,0:0:0:0:
313,304,317590,1,0,0:0:0:0:
430,141,317766,1,0,0:0:0:0:
406,341,317943,1,0,0:0:0:0:
406,341,318031,1,0,0:0:0:0:
406,341,318119,1,0,0:0:0:0:
327,261,318296,2,0,L|266:269,1,43.7500004172325
152,332,318472,2,0,L|213:340,1,43.7500004172325
196,192,318649,6,0,P|184:148|196:100,1,87.500000834465
312,156,319002,2,0,P|324:200|312:248,1,87.500000834465
196,192,319355,1,0,0:0:0:0:
372,72,319531,1,0,0:0:0:0:
451,256,319708,1,0,0:0:0:0:
196,192,319884,1,0,0:0:0:0:
451,256,320061,5,0,0:0:0:0:
478,295,320149,1,0,0:0:0:0:
478,342,320237,1,0,0:0:0:0:
444,372,320325,1,0,0:0:0:0:
396,372,320413,1,0,0:0:0:0:
361,342,320502,1,0,0:0:0:0:
332,303,320590,5,0,0:0:0:0:
290,279,320678,1,0,0:0:0:0:
240,280,320766,1,0,0:0:0:0:
192,268,320855,1,0,0:0:0:0:
155,236,320943,1,0,0:0:0:0:
144,189,321031,1,0,0:0:0:0:
160,143,321119,1,0,0:0:0:0:
195,110,321208,1,0,0:0:0:0:
238,88,321296,1,0,0:0:0:0:
285,86,321384,1,0,0:0:0:0:
331,96,321472,6,0,P|377:118|428:120,1,87.500000834465
310,178,321825,2,0,P|264:200|213:202,1,87.500000834465
207,120,322090,1,0,0:0:0:0:
207,120,322178,2,0,P|168:85|148:38,1,87.500000834465
24,200,322531,1,0,0:0:0:0:
36,241,322619,1,0,0:0:0:0:
64,274,322708,1,0,0:0:0:0:
102,295,322796,1,0,0:0:0:0:
143,308,322884,2,0,P|185:314|235:307,1,87.500000834465
432,164,323237,5,0,0:0:0:0:
400,133,323325,1,0,0:0:0:0:
360,115,323413,1,0,0:0:0:0:
316,108,323502,1,0,0:0:0:0:
274,121,323590,2,0,P|227:155|209:182,1,87.500000834465
293,206,323943,1,0,0:0:0:0:
196,37,324119,1,0,0:0:0:0:
405,63,324296,5,0,0:0:0:0:
440,95,324384,1,0,0:0:0:0:
453,141,324472,1,0,0:0:0:0:
430,184,324561,1,0,0:0:0:0:
384,198,324649,1,0,0:0:0:0:
339,178,324737,1,0,0:0:0:0:
305,143,324825,1,0,0:0:0:0:
290,97,324913,1,0,0:0:0:0:
262,57,325002,1,0,0:0:0:0:
221,31,325090,1,0,0:0:0:0:
173,39,325178,1,0,0:0:0:0:
139,73,325266,1,0,0:0:0:0:
123,118,325355,1,0,0:0:0:0:
141,162,325443,1,0,0:0:0:0:
186,176,325531,1,0,0:0:0:0:
222,145,325619,1,0,0:0:0:0:
247,103,325708,5,0,0:0:0:0:
273,142,325796,1,0,0:0:0:0:
294,184,325884,1,0,0:0:0:0:
289,231,325972,1,0,0:0:0:0:
264,273,326061,1,0,0:0:0:0:
225,301,326149,1,0,0:0:0:0:
177,304,326237,1,0,0:0:0:0:
133,283,326325,1,0,0:0:0:0:
104,244,326413,2,0,P|92:201|130:127,1,131.250001251698
109,112,326766,2,0,P|66:124|24:106,1,87.500000834465
243,4,327119,6,0,P|252:46|256:90,1,87.500000834465
120,250,327472,1,0,0:0:0:0:
146,214,327561,1,0,0:0:0:0:
183,191,327649,1,0,0:0:0:0:
225,180,327737,1,0,0:0:0:0:
267,189,327825,2,0,P|311:206|350:241,1,87.500000834465
397,86,328178,6,0,P|359:109|317:117,1,87.500000834465
144,141,328531,1,0,0:0:0:0:
144,141,328619,1,0,0:0:0:0:
144,141,328708,1,0,0:0:0:0:
335,233,328884,1,0,0:0:0:0:
152,296,329060,1,0,0:0:0:0:
243,56,329237,1,0,0:0:0:0:
243,56,329325,1,0,0:0:0:0:
243,56,329413,1,0,0:0:0:0:
412,112,329590,6,0,L|455:106,1,43.7500004172325
340,168,329766,2,0,L|297:174,1,43.7500004172325
432,208,329943,2,0,P|442:253|460:293,1,87.500000834465
296,174,330296,6,0,P|248:170|208:180,1,87.500000834465
67,240,330649,1,0,0:0:0:0:
210,179,330825,1,0,0:0:0:0:
67,240,331002,1,0,0:0:0:0:
136,112,331178,1,0,0:0:0:0:
67,240,331355,5,0,0:0:0:0:
44,282,331443,1,0,0:0:0:0:
58,327,331531,1,0,0:0:0:0:
94,358,331619,1,0,0:0:0:0:
141,353,331707,1,0,0:0:0:0:
178,322,331796,1,0,0:0:0:0:
178,274,331884,1,0,0:0:0:0:
200,231,331972,1,0,0:0:0:0:
240,204,332060,5,0,0:0:0:0:
287,215,332149,1,0,0:0:0:0:
316,252,332237,1,0,0:0:0:0:
319,299,332325,1,0,0:0:0:0:
287,335,332413,1,0,0:0:0:0:
239,345,332502,1,0,0:0:0:0:
195,324,332590,1,0,0:0:0:0:
178,278,332678,1,0,0:0:0:0:
185,230,332766,6,0,L|214:147,1,87.500000834465
327,230,333119,2,0,L|298:147,1,87.500000834465
200,58,333472,1,0,0:0:0:0:
93,134,333649,1,0,0:0:0:0:
191,220,333825,1,0,0:0:0:0:
298,147,334002,1,0,0:0:0:0:
200,58,334178,6,0,P|173:24|124:6,1,87.500000834465
191,220,334531,2,0,P|218:254|267:272,1,87.500000834465
412,260,334884,1,0,0:0:0:0:
464,120,335061,1,0,0:0:0:0:
312,68,335237,1,0,0:0:0:0:
259,207,335413,1,0,0:0:0:0:
184,368,335590,5,0,0:0:0:0:
93,217,335766,1,0,0:0:0:0:
93,217,335855,1,0,0:0:0:0:
93,217,335943,1,0,0:0:0:0:
242,209,336119,1,0,0:0:0:0:
100,328,336296,2,0,L|58:346,6,43.7500004172325
220,204,337002,5,0,0:0:0:0:
224,52,337178,1,0,0:0:0:0:
224,52,337266,1,0,0:0:0:0:
224,52,337355,1,0,0:0:0:0:
367,24,337531,1,0,0:0:0:0:
432,224,337708,2,0,L|481:243,6,43.7500004172325
373,376,338413,5,0,0:0:0:0:
247,345,338590,1,0,0:0:0:0:
238,342,338678,1,0,0:0:0:0:
229,340,338766,1,0,0:0:0:0:
373,376,338943,5,0,0:0:0:0:
277,288,339119,1,0,0:0:0:0:
260,273,339208,1,0,0:0:0:0:
243,259,339296,1,0,0:0:0:0:
226,244,339384,1,0,0:0:0:0:
209,229,339472,1,0,0:0:0:0:
373,376,339649,5,0,0:0:0:0:
333,251,339825,1,0,0:0:0:0:
321,217,339913,1,0,0:0:0:0:
310,183,340002,1,0,0:0:0:0:
301,149,340090,1,0,0:0:0:0:
291,115,340178,1,0,0:0:0:0:
373,376,340355,5,0,0:0:0:0:
418,255,340531,1,0,0:0:0:0:
428,208,340619,1,0,0:0:0:0:
441,161,340708,1,0,0:0:0:0:
454,114,340796,1,0,0:0:0:0:
469,68,340884,1,0,0:0:0:0:
373,376,341061,1,0,0:0:0:0:
70,213,341237,5,0,0:0:0:0:
29,172,341325,1,0,0:0:0:0:
33,115,341413,1,0,0:0:0:0:
70,71,341502,1,0,0:0:0:0:
125,60,341590,1,0,0:0:0:0:
178,77,341678,1,0,0:0:0:0:
228,52,341766,1,0,0:0:0:0:
286,46,341855,5,0,0:0:0:0:
338,66,341943,1,0,0:0:0:0:
363,116,342031,1,0,0:0:0:0:
349,171,342119,1,0,0:0:0:0:
303,206,342208,1,0,0:0:0:0:
249,186,342296,1,0,0:0:0:0:
232,131,342384,1,0,0:0:0:0:
263,83,342472,1,0,0:0:0:0:
319,74,342561,1,0,0:0:0:0:
369,99,342649,5,0,0:0:0:0:
392,150,342737,1,0,0:0:0:0:
374,203,342825,1,0,0:0:0:0:
331,240,342913,1,0,0:0:0:0:
273,240,343002,1,0,0:0:0:0:
223,212,343090,1,0,0:0:0:0:
168,226,343178,1,0,0:0:0:0:
140,275,343266,1,0,0:0:0:0:
163,327,343355,1,0,0:0:0:0:
214,350,343443,1,0,0:0:0:0:
265,326,343531,1,0,0:0:0:0:
269,269,343619,1,0,0:0:0:0:
218,242,343708,1,0,0:0:0:0:
179,200,343796,1,0,0:0:0:0:
204,149,343884,1,0,0:0:0:0:
260,147,343972,1,0,0:0:0:0:
284,198,344061,1,0,0:0:0:0:
117,271,344237,6,0,P|254:327|392:274,1,300
197,187,345472,5,0,0:0:0:0:
232,226,345560,1,0,0:0:0:0:
284,237,345649,1,0,0:0:0:0:
333,216,345737,1,0,0:0:0:0:
379,190,345825,5,0,0:0:0:0:
430,182,345913,1,0,0:0:0:0:
475,210,346002,1,0,0:0:0:0:
497,257,346090,1,0,0:0:0:0:
488,308,346178,1,0,0:0:0:0:
450,343,346266,1,0,0:0:0:0:
398,351,346355,1,0,0:0:0:0:
350,330,346443,1,0,0:0:0:0:
320,287,346531,1,0,0:0:0:0:
322,234,346619,5,0,0:0:0:0:
348,187,346708,1,0,0:0:0:0:
395,162,346796,1,0,0:0:0:0:
444,160,346884,2,0,L|474:193,9,25
463,113,347766,5,0,0:0:0:0:
436,66,347855,1,0,0:0:0:0:
384,57,347943,1,0,0:0:0:0:
341,87,348031,1,0,0:0:0:0:
343,139,348119,1,0,0:0:0:0:
391,161,348208,1,0,0:0:0:0:
428,187,348296,6,0,B|428:213|428:213|493:238,1,87.500000834465
314,251,348560,1,0,0:0:0:0:
314,251,348649,2,0,B|288:251|288:251|263:316,1,87.500000834465
124,344,349002,1,0,0:0:0:0:
352,340,349178,1,0,0:0:0:0:
196,228,349355,1,0,0:0:0:0:
388,216,349531,2,0,P|422:138|383:63,1,175.00000166893
232,137,350061,6,0,L|259:59,1,75.0000028610231
346,206,350413,2,0,L|271:206,1,75.0000028610231
232,274,350766,2,0,L|259:352,1,75.0000028610231
389,315,351119,5,0,0:0:0:0:
431,283,351208,1,0,0:0:0:0:
462,241,351296,1,0,0:0:0:0:
475,190,351384,1,0,0:0:0:0:
467,138,351472,1,0,0:0:0:0:
445,89,351561,1,0,0:0:0:0:
400,61,351649,1,0,0:0:0:0:
348,50,351737,1,0,0:0:0:0:
298,65,351825,1,0,0:0:0:0:
260,101,351913,1,0,0:0:0:0:
227,142,352002,1,0,0:0:0:0:
182,168,352090,1,0,0:0:0:0:
130,174,352178,1,0,0:0:0:0:
83,149,352266,1,0,0:0:0:0:
69,97,352355,6,0,L|32:93,4,37.5000014305115
91,49,352796,1,0,0:0:0:0:
137,25,352884,1,0,0:0:0:0:
187,39,352972,1,0,0:0:0:0:
222,77,353060,1,0,0:0:0:0:
210,128,353149,1,0,0:0:0:0:
170,161,353237,2,0,P|128:177|72:171,1,75.0000028610231
270,259,353590,2,0,P|302:284|355:296,1,75.0000028610231
249,123,353943,5,0,0:0:0:0:
38,337,354296,1,0,0:0:0:0:
335,295,354649,1,0,0:0:0:0:
125,80,355002,1,0,0:0:0:0:
384,230,355355,5,0,0:0:0:0:
425,255,355443,1,0,0:0:0:0:
453,294,355531,1,0,0:0:0:0:
441,341,355619,1,0,0:0:0:0:
396,361,355708,1,0,0:0:0:0:
348,351,355796,1,0,0:0:0:0:
305,328,355884,1,0,0:0:0:0:
298,279,355972,1,0,0:0:0:0:
334,246,356061,1,0,0:0:0:0:
365,208,356149,1,0,0:0:0:0:
354,160,356237,1,0,0:0:0:0:
312,135,356325,1,0,0:0:0:0:
269,146,356413,1,0,0:0:0:0:
237,183,356502,1,0,0:0:0:0:
235,231,356590,1,0,0:0:0:0:
212,274,356678,1,0,0:0:0:0:
168,295,356766,6,0,L|87:305,1,75.0000028610231
116,163,357119,2,0,P|152:169|183:191,1,75.0000028610231
294,363,357472,2,0,P|257:356|226:334,1,75.0000028610231
172,264,357825,1,0,0:0:0:0:
172,264,358002,2,0,P|242:239|261:153,1,150.000005722046
418,205,358531,6,0,P|381:215|343:204,1,75.0000028610231
271,85,358884,1,0,0:0:0:0:
508,165,359061,1,0,0:0:0:0:
358,285,359237,1,0,0:0:0:0:
312,164,359413,1,0,0:0:0:0:
408,80,359590,2,0,P|446:59|490:57,1,75.0000028610231
284,224,359943,5,0,0:0:0:0:
177,107,360119,2,0,P|135:87|92:87,1,75.0000028610231
136,232,360472,2,0,P|178:252|221:252,1,75.0000028610231
262,160,360825,2,0,P|318:109|398:112,1,150.000005722046
351,198,361355,1,0,0:0:0:0:
228,72,361531,1,0,0:0:0:0:
104,208,361708,1,0,0:0:0:0:
128,104,361884,5,0,0:0:0:0:
263,191,362061,1,0,0:0:0:0:
200,308,362237,1,0,0:0:0:0:
200,308,362413,2,0,P|105:304|64:247,1,150.000005722046
194,150,362943,1,0,0:0:0:0:
329,237,363119,2,0,P|424:233|465:176,1,150.000005722046
322,105,363649,1,0,0:0:0:0:
176,8,363825,5,0,0:0:0:0:
134,23,363913,1,0,0:0:0:0:
99,54,364002,1,0,0:0:0:0:
87,97,364090,1,0,0:0:0:0:
104,139,364178,2,0,P|127:172|180:187,1,75.0000028610231
367,278,364531,1,0,0:0:0:0:
324,173,364708,1,0,0:0:0:0:
180,343,364884,1,0,0:0:0:0:
180,343,364972,1,0,0:0:0:0:
180,343,365061,1,0,0:0:0:0:
180,343,365149,1,0,0:0:0:0:
180,343,365237,6,0,L|164:268,1,75.0000028610231
169,62,365590,1,0,0:0:0:0:
169,62,365766,2,0,P|224:120|211:210,1,150.000005722046
260,280,366296,2,0,L|348:276,1,75.0000028610231
152,144,366649,2,0,L|64:140,1,75.0000028610231
415,68,367002,5,0,0:0:0:0:
452,64,367090,1,0,0:0:0:0:
484,81,367178,1,0,0:0:0:0:
496,116,367266,1,0,0:0:0:0:
482,151,367355,1,0,0:0:0:0:
451,172,367443,1,0,0:0:0:0:
413,177,367531,1,0,0:0:0:0:
380,195,367619,1,0,0:0:0:0:
360,227,367708,1,0,0:0:0:0:
326,243,367796,1,0,0:0:0:0:
288,238,367884,1,0,0:0:0:0:
256,218,367972,1,0,0:0:0:0:
229,191,368061,5,0,0:0:0:0:
222,154,368149,1,0,0:0:0:0:
237,119,368238,1,0,0:0:0:0:
269,101,368326,1,0,0:0:0:0:
306,104,368414,1,0,0:0:0:0:
337,124,368502,1,0,0:0:0:0:
341,161,368591,1,0,0:0:0:0:
334,197,368679,1,0,0:0:0:0:
312,227,368767,1,0,0:0:0:0:
278,243,368855,1,0,0:0:0:0:
240,249,368944,1,0,0:0:0:0:
203,242,369032,1,0,0:0:0:0:
170,223,369120,1,0,0:0:0:0:
169,185,369208,1,0,0:0:0:0:
191,154,369297,1,0,0:0:0:0:
198,117,369385,1,0,0:0:0:0:
193,92,369473,6,0,L|218:69,9,25
167,78,370355,1,0,0:0:0:0:
124,90,370444,1,0,0:0:0:0:
112,132,370532,1,0,0:0:0:0:
131,170,370620,1,0,0:0:0:0:
172,183,370708,1,0,0:0:0:0:
213,166,370797,1,0,0:0:0:0:
256,162,370885,6,0,B|366:161,1,87.500000834465
498,218,371149,1,0,0:0:0:0:
498,218,371238,2,0,B|468:248|468:248|412:248,1,87.500000834465
228,272,371591,1,0,0:0:0:0:
256,162,371767,1,0,0:0:0:0:
357,225,371944,1,0,0:0:0:0:
298,305,372120,2,0,B|260:357|260:357|205:334|145:361,1,175.00000166893
108,221,372649,6,0,L|73:279,1,64.9999970245363
256,164,373002,2,0,L|256:96,1,64.9999970245363
404,221,373355,2,0,L|439:279,1,64.9999970245363
242,220,373708,5,0,0:0:0:0:
197,194,373797,1,0,0:0:0:0:
160,158,373885,1,0,0:0:0:0:
162,106,373973,1,0,0:0:0:0:
192,63,374061,1,0,0:0:0:0:
237,36,374149,1,0,0:0:0:0:
289,47,374238,1,0,0:0:0:0:
337,70,374326,1,0,0:0:0:0:
389,78,374414,1,0,0:0:0:0:
430,111,374502,1,0,0:0:0:0:
450,161,374591,1,0,0:0:0:0:
435,211,374679,1,0,0:0:0:0:
391,239,374767,1,0,0:0:0:0:
340,229,374855,1,0,0:0:0:0:
296,201,374944,1,0,0:0:0:0:
245,211,375032,1,0,0:0:0:0:
196,228,375120,6,0,L|98:260,1,87.500000834465
282,302,375473,5,0,0:0:0:0:
249,67,375826,1,0,0:0:0:0:
356,179,376178,6,0,L|409:184,1,43.7500004172325
161,225,376531,2,0,L|114:231,1,43.7500004172325
350,88,376884,2,0,L|395:63,1,43.7500004172325
214,304,377237,2,0,L|196:346,1,43.7500004172325
169,65,377590,2,0,L|147:16,1,43.7500004172325
495,128,377944,5,0,0:0:0:0:
472,97,378032,1,0,0:0:0:0:
437,81,378120,1,0,0:0:0:0:
399,87,378208,1,0,0:0:0:0:
372,116,378297,1,0,0:0:0:0:
337,132,378385,1,0,0:0:0:0:
299,125,378473,1,0,0:0:0:0:
265,106,378561,1,0,0:0:0:0:
241,76,378649,1,0,0:0:0:0:
207,55,378738,1,0,0:0:0:0:
169,65,378826,1,0,0:0:0:0:
148,99,378914,1,0,0:0:0:0:
123,130,379002,1,0,0:0:0:0:
82,140,379091,1,0,0:0:0:0:
50,163,379179,1,0,0:0:0:0:
39,201,379267,1,0,0:0:0:0:
32,240,379355,6,0,P|20:286|17:328,1,87.500000834465
165,225,379708,2,0,P|174:182|198:145,1,87.500000834465
345,353,380061,1,0,0:0:0:0:
431,273,380237,1,0,0:0:0:0:
332,189,380414,1,0,0:0:0:0:
249,270,380590,2,0,P|186:302|89:269,1,175.00000166893
169,210,381120,2,0,P|180:145|87:154,1,175.00000166893
168,304,381649,5,0,0:0:0:0:
308,368,381826,1,0,0:0:0:0:
420,284,382002,1,0,0:0:0:0:
360,164,382178,2,0,P|349:119|349:78,1,87.500000834465
231,203,382531,1,0,0:0:0:0:
231,203,382708,2,0,P|178:180|159:159,1,87.500000834465
237,11,383061,2,0,L|256:105,1,87.500000834465
420,284,383413,1,0,0:0:0:0:
182,321,383590,6,0,P|174:253|238:201,1,150.000005722046
128,32,384119,1,0,0:0:0:0:
168,128,384296,1,0,0:0:0:0:
71,209,384472,1,0,0:0:0:0:
71,209,384561,1,0,0:0:0:0:
71,209,384649,2,0,L|48:284,1,75.0000028610231
154,217,385002,2,0,P|179:172|272:160,1,150.000005722046
235,230,385531,1,0,0:0:0:0:
346,91,385708,2,0,P|359:54|363:8,1,75.0000028610231
225,55,386061,5,0,0:0:0:0:
200,83,386149,1,0,0:0:0:0:
183,116,386237,1,0,0:0:0:0:
181,153,386325,1,0,0:0:0:0:
200,184,386413,1,0,0:0:0:0:
229,208,386502,1,0,0:0:0:0:
258,231,386590,1,0,0:0:0:0:
278,262,386678,1,0,0:0:0:0:
274,295,386767,2,0,L|246:397,1,75.0000028610231
389,209,387120,2,0,L|491:181,1,75.0000028610231
462,189,387384,1,0,0:0:0:0:
461,190,387473,1,0,0:0:0:0:
349,133,387649,1,0,0:0:0:0:
223,256,387825,5,0,0:0:0:0:
193,279,387913,1,0,0:0:0:0:
158,295,388002,1,0,0:0:0:0:
120,293,388090,1,0,0:0:0:0:
87,274,388178,1,0,0:0:0:0:
66,242,388266,1,0,0:0:0:0:
67,204,388355,1,0,0:0:0:0:
93,177,388443,1,0,0:0:0:0:
128,164,388531,1,0,0:0:0:0:
164,171,388619,1,0,0:0:0:0:
196,190,388708,1,0,0:0:0:0:
225,213,388796,1,0,0:0:0:0:
257,232,388884,1,0,0:0:0:0:
294,233,388972,1,0,0:0:0:0:
329,220,389061,1,0,0:0:0:0:
357,195,389149,1,0,0:0:0:0:
364,158,389237,5,0,0:0:0:0:
349,123,389325,1,0,0:0:0:0:
320,98,389413,1,0,0:0:0:0:
283,87,389502,1,0,0:0:0:0:
248,100,389590,1,0,0:0:0:0:
219,124,389678,1,0,0:0:0:0:
211,160,389766,1,0,0:0:0:0:
218,197,389855,1,0,0:0:0:0:
238,228,389943,1,0,0:0:0:0:
273,240,390031,1,0,0:0:0:0:
309,230,390119,1,0,0:0:0:0:
398,323,390296,5,0,0:0:0:0:
161,247,390472,1,0,0:0:0:0:
320,98,390648,1,0,0:0:0:0:
283,287,390825,1,0,0:0:0:0:
283,287,390913,1,0,0:0:0:0:
283,287,391001,1,0,0:0:0:0:
283,287,391090,1,0,0:0:0:0:
283,287,391178,2,0,L|266:320,2,37.5000014305115
422,121,391531,5,0,0:0:0:0:
175,5,391707,1,0,0:0:0:0:
137,236,391883,1,0,0:0:0:0:
295,83,392060,1,0,0:0:0:0:
295,83,392148,1,0,0:0:0:0:
295,83,392236,1,0,0:0:0:0:
295,83,392325,1,0,0:0:0:0:
295,83,392413,2,0,L|330:47,2,37.5000014305115
269,221,392766,6,0,B|222:249|222:249|192:250,1,75.0000028610231
59,202,393119,2,0,B|106:174|106:174|136:173,1,75.0000028610231
209,320,393472,1,0,0:0:0:0:
209,320,393560,1,0,0:0:0:0:
209,320,393648,1,0,0:0:0:0:
251,172,393825,1,0,0:0:0:0:
393,242,394001,1,0,0:0:0:0:
393,242,394090,1,0,0:0:0:0:
393,242,394178,1,0,0:0:0:0:
287,336,394354,5,0,0:0:0:0:
243,191,394531,2,0,P|231:151|250:102,1,75.0000028610231
391,32,394884,1,0,0:0:0:0:
415,48,394972,1,0,0:0:0:0:
439,66,395060,1,0,0:0:0:0:
462,84,395148,1,0,0:0:0:0:
485,103,395237,1,0,0:0:0:0:
509,121,395325,1,0,0:0:0:0:
484,136,395413,1,0,0:0:0:0:
459,150,395501,1,0,0:0:0:0:
434,165,395590,1,0,0:0:0:0:
408,177,395678,1,0,0:0:0:0:
382,189,395766,1,0,0:0:0:0:
181,329,395943,5,0,0:0:0:0:
328,328,396119,1,0,0:0:0:0:
258,192,396296,2,0,B|271:148|271:148|306:122,1,75.0000028610231
258,192,396648,2,0,B|214:179|214:179|190:146,1,75.0000028610231
255,191,397001,2,0,B|299:204|299:204|324:230,1,75.0000028610231
259,337,397354,5,0,0:0:0:0:
122,200,397531,1,0,0:0:0:0:
259,62,397707,1,0,0:0:0:0:
397,201,397884,1,0,0:0:0:0:
259,62,398060,1,0,0:0:0:0:
122,201,398237,1,0,0:0:0:0:
285,286,398413,5,0,0:0:0:0:
324,304,398501,1,0,0:0:0:0:
367,307,398590,1,0,0:0:0:0:
409,303,398678,1,0,0:0:0:0:
446,283,398766,1,0,0:0:0:0:
474,252,398854,1,0,0:0:0:0:
492,214,398943,1,0,0:0:0:0:
498,173,399031,1,0,0:0:0:0:
492,132,399119,5,0,0:0:0:0:
463,103,399207,1,0,0:0:0:0:
425,84,399296,1,0,0:0:0:0:
383,87,399384,1,0,0:0:0:0:
350,113,399472,1,0,0:0:0:0:
319,142,399560,1,0,0:0:0:0:
296,177,399648,1,0,0:0:0:0:
286,219,399737,1,0,0:0:0:0:
257,249,399825,1,0,0:0:0:0:
218,264,399913,1,0,0:0:0:0:
176,264,400001,1,0,0:0:0:0:
135,256,400090,1,0,0:0:0:0:
100,234,400178,1,0,0:0:0:0:
77,200,400266,1,0,0:0:0:0:
68,159,400354,1,0,0:0:0:0:
76,118,400443,1,0,0:0:0:0:
89,78,400531,5,0,0:0:0:0:
115,45,400619,1,0,0:0:0:0:
150,21,400707,1,0,0:0:0:0:
193,15,400796,1,0,0:0:0:0:
232,33,400884,1,0,0:0:0:0:
260,66,400972,1,0,0:0:0:0:
262,109,401060,1,0,0:0:0:0:
239,145,401148,1,0,0:0:0:0:
200,163,401237,1,0,0:0:0:0:
123,194,401413,5,0,0:0:0:0:
90,270,401590,1,0,0:0:0:0:
146,329,401766,1,0,0:0:0:0:
229,324,401943,2,0,P|306:239|276:149,1,200
163,35,402825,5,0,0:0:0:0:
140,232,403002,1,0,0:0:0:0:
222,175,403178,1,0,0:0:0:0:
129,106,403355,2,0,P|228:76|321:115,1,200
448,258,404413,1,0,0:0:0:0:
351,307,404778,5,0,0:0:0:0:
324,315,404870,1,0,0:0:0:0:
296,316,404962,1,0,0:0:0:0:
268,316,405054,1,0,0:0:0:0:
241,310,405146,1,0,0:0:0:0:
216,296,405238,1,0,0:0:0:0:
188,293,405330,1,0,0:0:0:0:
161,299,405422,1,0,0:0:0:0:
133,298,405514,1,0,0:0:0:0:
106,290,405606,1,0,0:0:0:0:
81,277,405698,1,0,0:0:0:0:
64,255,405790,1,0,0:0:0:0:
64,227,405882,1,0,0:0:0:0:
81,205,405974,1,0,0:0:0:0:
102,188,406066,1,0,0:0:0:0:
113,163,406158,1,0,0:0:0:0:
107,136,406250,5,0,0:0:0:0:
90,114,406342,1,0,0:0:0:0:
90,86,406434,1,0,0:0:0:0:
101,61,406526,1,0,0:0:0:0:
124,47,406618,1,0,0:0:0:0:
151,42,406710,1,0,0:0:0:0:
176,52,406802,1,0,0:0:0:0:
193,72,406894,1,0,0:0:0:0:
200,98,406986,1,0,0:0:0:0:
191,123,407078,1,0,0:0:0:0:
176,140,407170,1,0,0:0:0:0:
101,241,407354,5,0,0:0:0:0:
131,338,407538,1,0,0:0:0:0:
233,252,407722,5,0,0:0:0:0:
258,240,407820,1,0,0:0:0:0:
278,222,407915,1,0,0:0:0:0:
293,199,408010,1,0,0:0:0:0:
293,171,408105,1,0,0:0:0:0:
278,147,408200,1,0,0:0:0:0:
253,135,408295,1,0,0:0:0:0:
233,115,408390,1,0,0:0:0:0:
239,88,408485,1,0,0:0:0:0:
260,70,408580,1,0,0:0:0:0:
287,74,408675,1,0,0:0:0:0:
308,91,408770,1,0,0:0:0:0:
319,115,408865,1,0,0:0:0:0:
312,141,408960,1,0,0:0:0:0:
291,158,409055,1,0,0:0:0:0:
266,169,409150,1,0,0:0:0:0:
249,191,409244,5,0,0:0:0:0:
255,217,409339,1,0,0:0:0:0:
271,238,409434,1,0,0:0:0:0:
295,251,409529,1,0,0:0:0:0:
322,248,409624,1,0,0:0:0:0:
342,229,409719,1,0,0:0:0:0:
347,202,409814,1,0,0:0:0:0:
369,186,409909,1,0,0:0:0:0:
396,185,410004,1,0,0:0:0:0:
421,194,410099,1,0,0:0:0:0:
441,212,410194,1,0,0:0:0:0:
443,239,410289,1,0,0:0:0:0:
436,265,410384,1,0,0:0:0:0:
420,288,410479,1,0,0:0:0:0:
394,297,410574,1,0,0:0:0:0:
367,290,410669,1,0,0:0:0:0:
327,276,410897,6,0,P|266:269|218:291,1,100
281,342,411619,1,0,0:0:0:0:
281,342,411981,2,0,P|377:326|423:240,1,200
302,247,413065,2,0,B|254:240|254:240|204:256,1,100
320,154,413788,2,0,B|367:160|367:160|417:144,1,100
317,61,414511,1,0,0:0:0:0:
317,61,414872,2,0,P|228:76|116:55,1,200
326,134,415957,5,0,0:0:0:0:
383,184,416318,1,0,0:0:0:0:
326,237,416680,2,0,L|224:264,1,100
113,214,417403,2,0,L|215:187,1,100
400,104,418125,5,0,0:0:0:0:
248,96,418487,1,0,0:0:0:0:
176,40,418668,1,0,0:0:0:0:
156,128,418848,1,0,0:0:0:0:
264,210,419210,1,0,0:0:0:0:
264,210,419571,2,0,P|355:180|454:209,2,200
200,328,421198,6,0,L|168:394,2,50
114,253,421740,2,0,P|58:225|36:191,1,100
83,112,422282,1,0,0:0:0:0:
179,76,422463,6,0,L|156:174,1,100
252,188,423185,1,0,0:0:0:0:
252,188,423547,2,0,P|285:275|212:333,1,200
120,288,424631,2,0,P|165:265|214:255,1,100
345,155,425354,2,0,P|300:178|251:188,1,100
77,136,426077,1,0,0:0:0:0:
178,91,426439,2,0,P|273:86|351:174,1,200
217,309,427523,5,0,0:0:0:0:
314,287,427884,1,0,0:0:0:0:
314,287,428246,2,0,L|343:187,1,100
251,234,428969,2,0,L|191:320,1,100
92,156,429692,6,0,L|153:154,1,50
232,89,430053,2,0,L|285:131,1,50
305,281,430415,1,0,0:0:0:0:
206,162,430595,1,0,0:0:0:0:
361,89,430776,2,0,L|363:64,3,25
381,103,431137,2,0,P|432:141|421:276,1,200
375,319,432041,5,0,0:0:0:0:
301,305,432222,1,0,0:0:0:0:
350,248,432403,1,0,0:0:0:0:
276,234,432583,1,0,0:0:0:0:
423,206,432945,1,0,0:0:0:0:
331,325,433306,1,0,0:0:0:0:
198,253,433668,1,0,0:0:0:0:
70,174,434029,6,0,P|119:169|168:177,1,100
125,268,434751,1,0,0:0:0:0:
125,268,435113,2,0,B|151:333|151:333|225:313|291:339,1,200
407,256,436197,2,0,P|357:229|306:224,1,100
207,118,436920,2,0,L|184:220,1,100
45,160,437643,1,0,0:0:0:0:
45,160,438005,2,0,P|45:261|148:285,1,200
115,205,439089,5,0,0:0:0:0:
224,102,439450,1,0,0:0:0:0:
156,158,439812,2,0,P|196:180|260:182,1,100
342,125,440535,2,0,P|302:103|238:101,1,100
246,330,441258,2,0,L|264:232,1,100
225,208,441800,2,0,P|168:197|117:172,1,100
199,127,442342,1,0,0:0:0:0:
139,204,442523,1,0,0:0:0:0:
221,282,442704,2,0,P|304:238|277:142,2,200
227,201,444330,6,0,P|202:145|221:106,1,100
382,173,444872,2,0,P|325:157|261:153,1,100
96,251,445595,6,0,P|65:191|104:130,1,139.999995727539
416,251,446680,6,0,P|447:191|408:130,1,139.999995727539
256,192,447764,1,0,0:0:0:0:
256,72,448125,1,0,0:0:0:0:
264,196,448487,2,0,P|284:240|368:264,2,139.999995727539
