osu file format v14

[General]
AudioFilename: audio.mp3
AudioLeadIn: 0
PreviewTime: 0
Countdown: 0
SampleSet: Soft
StackLeniency: 0.4
Mode: 0
LetterboxInBreaks: 0
WidescreenStoryboard: 1

[Editor]
Bookmarks: 6916,13070,25378,37686,43839,46916,49993,62281,71530,74607,80761,85377
DistanceSpacing: 0.2
BeatDivisor: 4
GridSize: 4
TimelineZoom: 1

[Metadata]
Title:Climber
TitleUnicode:クライマー
Artist:Galileo Galilei
ArtistUnicode:Galileo Galilei
Creator:imbor
Version:sdafsf's Hard
Source:ハイキュー!! セカンドシーズン
Tags:haikyuu haikyu season 2 tv size ending bor naotoshi sdafsf nao tomori version
BeatmapID:1501502
BeatmapSetID:644566

[Difficulty]
HPDrainRate:4
CircleSize:3
OverallDifficulty:6
ApproachRate:7
SliderMultiplier:1.5
SliderTickRate:1

[Events]
//Background and Video events
0,0,"kuraima.png",0,0
//Break Periods
//Storyboard Layer 0 (Background)
//Storyboard Layer 1 (Fail)
//Storyboard Layer 2 (Pass)
//Storyboard Layer 3 (Foreground)
//Storyboard Sound Samples

[TimingPoints]
763,384.615384615385,4,2,1,70,1,0
37686,-133.333333333333,4,2,1,49,0,0
46916,-100,4,2,1,70,0,0
49993,-83.3333333333333,4,2,1,70,0,1
60763,379.746835443038,4,2,1,75,1,1
60763,-83.3333333333333,4,2,1,75,0,1
62281,384.615384615385,4,2,1,75,1,1
62281,-83.3333333333333,4,2,1,75,0,1
66896,389.61038961039,4,2,1,75,1,1
66896,-83.3333333333333,4,2,1,75,0,1
68454,384.615384615385,4,2,1,75,1,1
68454,-83.3333333333333,4,2,1,75,0,1
80761,-100,4,2,1,45,0,0

[Colours]
Combo1 : 234,186,142
Combo2 : 94,174,255

[HitObjects]
248,52,763,6,0,P|212:68|188:116,2,75,12|0|0,0:0|3:0|3:0,0:0:0:0:
120,64,1339,2,0,P|102:99|115:151,2,75,12|0|0,0:0|3:0|3:0,0:0:0:0:
32,176,1916,2,0,P|41:214|84:246,2,75,12|0|0,0:0|3:0|3:0,0:0:0:0:
32,316,2493,2,0,P|63:339|117:335,2,75,12|0|0,0:0|3:0|3:0,0:0:0:0:
152,259,3070,6,0,L|239:257,1,75,12|0,0:0|3:0,0:0:0:0:
286,350,3455,2,0,L|373:352,1,75,12|0,0:0|3:0,0:0:0:0:
454,281,3839,6,0,P|431:310|396:323,2,75,12|0|0,0:0|3:0|3:0,0:0:0:0:
348,253,4416,2,0,P|311:260|276:248,2,75,12|0|0,0:0|3:0|3:0,0:0:0:0:
280,163,4993,2,0,P|247:145|228:113,2,75,12|0|0,0:0|3:0|3:0,0:0:0:0:
295,70,5570,2,0,P|281:35|286:0,2,75,12|0|0,0:0|3:0|3:0,0:0:0:0:
384,12,6147,6,0,L|472:19,1,75,8|0,0:0|0:0,0:0:0:0:
331,94,6532,1,2,0:0:0:0:
470,204,6916,6,0,L|466:290,2,75,2|0|8,0:0|0:0|0:0,0:0:0:0:
442,301,7493,2,0,B|366:333|364:276|283:308,1,150,0|0,3:0|3:0,0:0:0:0:
295,303,8070,1,8,0:0:0:0:
210,255,8263,2,0,L|218:158,1,75,2|0,0:0|0:0,0:0:0:0:
115,229,8647,2,0,L|123:132,1,75,0|8,3:0|0:0,0:0:0:0:
41,92,9032,2,0,L|41:39,2,37.5,8|2|2,0:0|0:3|0:3,0:0:0:0:
41,92,9416,1,0,3:0:0:0:
140,15,9609,1,4,0:0:0:0:
357,64,9993,6,0,L|269:67,1,75,2|2,0:0|0:0,0:0:0:0:
404,88,10570,2,0,L|237:95,1,150,2|0,0:0|0:0,0:0:0:0:
190,230,11339,1,2,0:0:0:0:
252,287,11532,5,2,0:3:0:0:
252,287,11916,1,2,0:3:0:0:
382,249,12301,1,8,0:0:0:0:
382,249,12397,1,8,0:0:0:0:
382,249,12493,1,8,0:3:0:0:
382,249,12589,1,8,0:3:0:0:
382,249,12686,2,8,L|435:254,3,37.5,8|8|4|4,0:0|3:0|3:0|3:0,0:0:0:0:
450,248,13070,6,0,P|423:163|475:125,1,150,6|8,0:0|0:0,0:0:0:0:
375,179,13647,2,0,B|305:211|295:149|215:199,1,150,2|0,0:0|3:0,0:0:0:0:
242,310,14224,2,0,P|271:236|218:187,1,150,10|0,0:0|0:0,0:0:0:0:
116,169,14801,2,0,L|118:263,1,75,0|10,3:0|0:0,0:0:0:0:
181,71,15378,1,0,3:0:0:0:
304,119,15763,1,8,0:0:0:0:
304,119,15955,1,0,0:0:0:0:
354,40,16147,6,0,P|409:57|486:4,1,150,2|8,3:2|0:0,0:0:0:0:
420,100,16724,2,0,B|406:205|406:205|423:275,1,150,2|0,0:0|3:0,0:0:0:0:
499,171,17301,2,0,P|434:175|419:253,1,150,10|0,0:0|3:0,0:0:0:0:
313,280,17878,2,0,L|323:360,1,75,2|8,0:2|0:0,0:0:0:0:
223,223,18455,1,0,3:0:0:0:
61,285,18839,1,8,0:0:0:0:
45,201,19032,1,0,0:0:0:0:
45,201,19224,6,0,P|104:187|99:101,1,150,2|8,3:2|0:0,0:0:0:0:
45,201,19801,2,0,L|200:208,1,150,2|0,0:0|3:0,0:0:0:0:
233,96,20378,2,0,P|278:136|373:127,1,150,8|0,0:0|0:0,0:0:0:0:
436,74,20955,2,0,L|422:-11,1,75,2|8,3:2|0:0,0:0:0:0:
512,141,21532,1,2,3:2:0:0:
438,282,21916,1,8,0:0:0:0:
507,350,22109,1,0,0:0:0:0:
507,350,22301,6,0,P|455:322|361:350,1,150,2|8,3:2|0:0,0:0:0:0:
374,230,22878,2,0,P|307:262|216:228,1,150,2|0,0:0|3:0,0:0:0:0:
229,357,23455,2,0,P|274:298|224:241,1,150,10|0,0:0|0:0,0:0:0:0:
130,317,24032,2,0,P|110:249|148:150,1,150,0|2,3:0|0:3,0:0:0:0:
215,136,24609,1,2,3:2:0:0:
39,128,24993,1,8,0:0:0:0:
50,42,25186,1,0,0:0:0:0:
50,42,25378,6,0,P|104:67|211:23,1,150,6|8,0:0|0:0,0:0:0:0:
243,122,25955,2,0,P|316:122|368:54,1,150,2|0,0:0|3:0,0:0:0:0:
468,8,26532,2,0,P|415:76|515:90,1,225,10|2,0:0|3:2,0:0:0:0:
365,47,27301,2,0,B|340:88|340:88|363:206,1,150,10|0,0:0|3:0,0:0:0:0:
478,368,28070,1,8,0:0:0:0:
478,368,28263,1,0,0:0:0:0:
490,272,28455,6,0,P|429:243|341:265,1,150,2|8,3:2|0:0,0:0:0:0:
295,176,29032,2,0,P|236:203|151:163,1,150,2|0,0:0|3:0,0:0:0:0:
84,258,29609,2,0,P|147:249|152:163,1,150,10|0,0:0|0:0,0:0:0:0:
188,270,30186,2,0,L|173:360,1,75,2|8,0:0|0:0,0:0:0:0:
305,199,30763,1,0,3:0:0:0:
146,125,31147,1,8,0:0:0:0:
211,62,31339,1,2,0:3:0:0:
211,62,31436,1,2,0:3:0:0:
211,62,31532,6,0,P|258:76|303:53,1,75,2|0,3:2|0:0,0:0:0:0:
362,0,31916,1,8,0:0:0:0:
362,0,32109,2,0,P|352:48|372:86,1,75,2|0,0:0|3:0,0:0:0:0:
512,160,32493,1,0,3:0:0:0:
512,160,32686,2,0,P|460:117|393:172,1,150,10|0,0:0|0:0,0:0:0:0:
467,257,33263,2,0,P|400:244|295:267,1,150,2|0,3:2|0:0,0:0:0:0:
394,352,33839,2,0,P|353:374|249:324,1,150,2|8,0:0|0:0,0:0:0:0:
217,257,34416,1,0,0:0:0:0:
143,308,34609,6,0,P|163:249|145:215,1,75,2|0,3:2|0:0,0:0:0:0:
70,179,34993,1,8,0:0:0:0:
70,179,35186,2,0,P|111:199|149:185,1,75,2|0,0:0|0:0,0:0:0:0:
170,97,35570,1,0,3:0:0:0:
170,97,35763,2,0,P|189:147|274:123,1,150,10|0,0:0|0:0,0:0:0:0:
248,25,36339,2,0,P|300:51|394:21,1,150,2|0,0:0|0:0,0:0:0:0:
447,103,36916,2,0,L|496:107,3,37.5,8|8|8|8,0:0|0:0|0:0|0:0,0:0:0:0:
507,142,37301,1,8,0:3:0:0:
507,142,37397,1,8,0:3:0:0:
507,142,37493,1,4,3:0:0:0:
507,142,37589,1,4,3:0:0:0:
507,142,37686,6,0,L|496:212,1,56.2500021457673,6|0,0:0|0:0,0:0:0:0:
390,151,38070,2,0,L|406:214,1,56.2500021457673,0|0,0:0|3:0,0:0:0:0:
458,281,38455,2,0,P|433:238|363:262,1,112.500004291535,0|2,3:0|0:0,0:0:0:0:
296,308,39032,1,0,3:0:0:0:
296,308,39224,2,0,P|304:240|284:188,1,112.500004291535,2|2,3:2|0:0,0:0:0:0:
171,181,39801,2,0,P|259:178|271:97,1,168.750006437302,2|4,0:0|0:0,0:0:0:0:
54,73,40763,6,0,L|188:73,1,112.500004291535,2|0,0:0|0:0,0:0:0:0:
235,18,41339,1,2,3:0:0:0:
182,93,41532,2,0,L|181:166,2,56.2500021457673,2|0|0,3:2|0:0|0:0,0:0:0:0:
147,182,42109,1,0,3:0:0:0:
99,267,42301,2,0,P|163:248|221:262,1,112.500004291535,2|2,3:2|0:0,0:0:0:0:
196,358,42878,2,0,P|301:346|368:363,1,168.750006437302,2|12,0:0|0:0,0:0:0:0:
361,360,43647,1,0,0:0:0:0:
451,299,43839,6,0,P|431:263|454:192,1,112.500004291535,6|0,0:0|0:0,0:0:0:0:
377,248,44416,2,0,P|350:224|359:145,1,112.500004291535,2|0,3:2|0:0,0:0:0:0:
419,64,44993,1,2,0:0:0:0:
419,64,45186,2,0,P|383:91|317:72,1,112.500004291535,2|0,0:0|0:0,0:0:0:0:
267,154,45763,2,0,P|221:134|165:165,1,112.500004291535,2|0,0:0|3:0,0:0:0:0:
23,65,46532,1,12,0:0:0:0:
13,164,46724,1,0,3:0:0:0:
13,164,46916,6,0,L|17:259,2,75,4|0|8,0:0|0:0|0:0,0:0:0:0:
44,263,47493,2,0,P|92:249|164:324,1,150,4|0,0:0|3:0,0:0:0:0:
203,186,48070,2,0,P|180:116|215:52,1,150,12|0,0:0|3:0,0:0:0:0:
296,22,48647,1,8,0:0:0:0:
356,83,48839,1,4,0:0:0:0:
492,36,49224,2,0,L|504:0,3,37.5,8|8|4|4,0:0|0:3|3:0|3:0,0:0:0:0:
453,68,49609,1,12,0:0:0:0:
422,218,49993,6,0,P|471:238|517:217,1,89.9999972534181,4|2,1:1|0:0,0:0:0:0:
383,225,50378,2,0,P|334:245|288:224,1,89.9999972534181,10|2,0:0|0:0,0:0:0:0:
241,142,50763,2,0,P|179:120|118:221,1,179.999994506836,2|10,3:2|0:0,0:0:0:0:
222,266,51339,2,0,L|219:155,1,89.9999972534181,2|0,0:0|0:0,0:0:0:0:
138,100,51724,2,0,L|141:-11,1,89.9999972534181,2|8,3:2|0:0,0:0:0:0:
249,14,52109,2,0,P|296:33|352:19,1,89.9999972534181,2|0,3:2|0:0,0:0:0:0:
391,95,52493,2,0,P|435:99|475:80,1,89.9999972534181,2|8,3:2|0:0,0:0:0:0:
411,188,52878,1,2,0:3:0:0:
314,133,53070,6,0,P|268:174|342:275,1,179.999994506836,6|10,0:0|0:0,0:0:0:0:
308,270,53647,1,2,0:0:0:0:
207,307,53839,2,0,L|112:296,1,89.9999972534181,2|2,3:2|3:2,0:0:0:0:
227,288,54224,2,0,L|322:277,1,89.9999972534181,10|2,0:0|3:2,0:0:0:0:
262,183,54609,2,0,P|246:122|343:43,1,179.999994506836,2|8,0:0|0:0,0:0:0:0:
283,159,55186,2,0,P|231:175|162:73,1,179.999994506836,2|2,0:0|0:0,0:0:0:0:
158,90,55763,1,8,0:0:0:0:
98,326,56147,6,0,P|146:338|210:335,1,89.9999972534181,6|2,0:0|0:0,0:0:0:0:
94,301,56532,2,0,P|46:313|-18:310,1,89.9999972534181,10|2,0:0|0:0,0:0:0:0:
118,213,56916,2,0,L|113:111,1,89.9999972534181,2|2,3:2|3:2,0:0:0:0:
207,234,57301,1,8,0:0:0:0:
320,105,57686,2,0,P|397:139|486:80,1,179.999994506836,2|8,0:0|0:0,0:0:0:0:
342,86,58263,2,0,P|305:167|361:275,1,179.999994506836,2|2,3:2|3:2,0:0:0:0:
241,295,58839,1,8,0:0:0:0:
241,295,59032,1,2,3:0:0:0:
125,213,59224,6,0,L|24:220,2,89.9999972534181,14|0|0,0:2|3:0|3:0,3:0:0:0:
163,304,59801,2,0,P|195:245|146:147,1,179.999994506836,14|0,0:0|3:0,0:0:0:0:
46,174,60378,2,0,P|102:200|173:113,1,179.999994506836,6|0,0:0|3:0,0:0:0:0:
143,223,60952,2,0,P|219:255|294:167,1,179.999994506836,14|0,0:0|3:0,0:0:0:0:
214,291,61522,2,0,P|226:355|300:307,1,179.999994506836,14|14,0:0|0:0,0:0:0:0:
432,197,62281,6,0,P|485:212|522:184,1,89.9999972534181,4|2,1:0|0:0,0:0:0:0:
398,183,62665,2,0,P|345:198|308:170,1,89.9999972534181,10|2,0:0|0:0,0:0:0:0:
350,69,63050,2,0,P|290:31|207:95,1,179.999994506836,2|10,3:2|0:0,0:0:0:0:
209,86,63627,1,2,0:0:0:0:
97,98,63819,2,0,P|90:177|159:263,1,179.999994506836,2|8,3:2|0:0,0:0:0:0:
246,196,64396,2,0,P|298:187|343:293,1,179.999994506836,2|2,3:2|3:2,0:0:0:0:
347,285,64973,1,8,0:0:0:0:
166,361,65357,6,0,P|116:301|134:175,1,179.999994506836,2|10,0:0|0:0,0:0:0:0:
118,202,65934,1,2,0:0:0:0:
50,98,66127,2,0,P|116:115|180:36,1,179.999994506836,2|10,3:2|0:0,0:0:0:0:
275,169,66896,2,0,P|346:178|377:69,1,179.999994506836,2|8,0:0|0:0,0:0:0:0:
369,177,67480,2,0,P|437:223|517:143,1,179.999994506836,2|2,0:0|3:0,0:0:0:0:
511,175,68064,1,8,0:0:0:0:
361,292,68454,6,0,P|369:350|355:385,1,89.9999972534181,6|0,0:0|0:0,0:0:0:0:
337,276,68838,2,0,P|345:218|331:183,1,89.9999972534181,8|0,0:0|0:0,0:0:0:0:
253,299,69223,2,0,P|205:269|107:341,1,179.999994506836,2|10,3:2|0:0,0:0:0:0:
156,137,69992,2,0,P|174:69|82:23,1,179.999994506836,2|8,3:2|0:0,0:0:0:0:
125,139,70569,2,0,P|190:153|264:62,1,179.999994506836,2|2,0:0|3:2,0:0:0:0:
263,78,71146,1,8,0:0:0:0:
377,273,71530,6,0,L|397:159,2,89.9999972534181,14|0|0,0:0|3:0|3:0,0:0:0:0:
352,136,72107,2,0,P|332:186|407:279,1,179.999994506836,14|0,0:0|0:0,0:0:0:0:
251,279,72684,2,0,L|153:288,2,89.9999972534181,14|0|0,0:0|3:0|3:0,0:0:0:0:
115,313,73261,2,0,P|177:241|262:271,1,179.999994506836,14|0,0:0|0:0,0:0:0:0:
194,152,73838,2,0,P|214:100|196:52,1,89.9999972534181,10|0,1:2|0:0,0:0:0:0:
92,40,74223,2,0,P|152:60|203:35,1,89.9999972534181,10|0,1:2|0:0,0:0:0:0:
361,6,74607,6,0,P|331:54|340:95,2,89.9999972534181,12|0|0,0:0|3:0|3:0,0:0:0:0:
428,77,75184,2,0,P|383:112|377:154,2,89.9999972534181,12|0|0,0:0|3:0|3:0,0:0:0:0:
466,167,75761,2,0,P|412:185|392:222,2,89.9999972534181,12|0|0,0:0|3:0|3:0,0:0:0:0:
470,264,76338,2,0,P|412:262|381:291,2,89.9999972534181,12|0|0,0:0|3:0|3:0,0:0:0:0:
374,345,76915,2,0,L|266:332,1,89.9999972534181,10|0,1:2|0:0,0:0:0:0:
295,221,77300,2,0,L|187:234,1,89.9999972534181,10|0,1:2|0:0,0:0:0:0:
122,357,77684,6,0,P|151:308|142:267,2,89.9999972534181,12|0|0,0:0|3:0|3:0,0:0:0:0:
55,286,78261,2,0,P|99:250|105:208,2,89.9999972534181,12|0|0,0:0|3:0|3:0,0:0:0:0:
17,196,78838,2,0,P|70:177|90:140,2,89.9999972534181,12|0|0,0:0|3:0|3:0,0:0:0:0:
13,99,79415,2,0,P|70:100|101:71,2,89.9999972534181,12|0|0,0:0|3:0|3:0,0:0:0:0:
146,0,79992,2,0,L|152:104,1,89.9999972534181,10|0,0:0|0:0,0:0:0:0:
250,97,80377,2,0,L|244:201,1,89.9999972534181,10|0,0:0|0:0,0:0:0:0:
276,288,80761,6,0,L|364:282,2,75,4|2|8,0:0|0:3|0:0,0:0:0:0:
357,310,81338,2,0,P|416:321|464:252,1,150,0|2,3:0|3:0,0:0:0:0:
464,255,81915,1,8,0:0:0:0:
404,170,82107,2,0,L|412:83,1,75,2|2,0:3|0:3,0:0:0:0:
297,192,82492,2,0,L|305:105,1,75,0|8,3:0|0:0,0:0:0:0:
189,234,82877,2,0,L|194:184,2,37.5,8|2|2,0:0|0:3|0:3,0:0:0:0:
189,234,83261,1,0,3:0:0:0:
98,277,83454,1,12,0:0:0:0:
226,357,83838,6,0,L|317:367,2,75,0|0|8,3:0|0:0|0:0,0:0:0:0:
315,317,84415,2,0,P|381:340|460:290,1,150,0|0,3:0|3:0,0:0:0:0:
449,306,84992,1,10,0:0:0:0:
449,306,85184,1,2,0:0:0:0:
