osu file format v14

[General]
AudioFilename: audio.mp3
AudioLeadIn: 0
PreviewTime: 0
Countdown: 0
SampleSet: Soft
StackLeniency: 0.4
Mode: 0
LetterboxInBreaks: 0
WidescreenStoryboard: 1

[Editor]
Bookmarks: 6916,13070,25378,37686,43839,46916,49993,62281,71530,74607,80761,85377
DistanceSpacing: 0.2
BeatDivisor: 4
GridSize: 4
TimelineZoom: 1

[Metadata]
Title:Climber
TitleUnicode:クライマー
Artist:Galileo Galilei
ArtistUnicode:Galileo Galilei
Creator:imbor
Version:Insane
Source:ハイキュー!! セカンドシーズン
Tags:haikyuu haikyu season 2 tv size ending bor naotoshi sdafsf nao tomori version
BeatmapID:1366053
BeatmapSetID:644566

[Difficulty]
HPDrainRate:4.5
CircleSize:4
OverallDifficulty:8
ApproachRate:9
SliderMultiplier:1.7
SliderTickRate:1

[Events]
//Background and Video events
0,0,"kuraima.png",0,0
//Break Periods
//Storyboard Layer 0 (Background)
//Storyboard Layer 1 (Fail)
//Storyboard Layer 2 (Pass)
//Storyboard Layer 3 (Foreground)
//Storyboard Sound Samples

[TimingPoints]
763,384.615384615385,4,2,1,70,1,0
37686,-133.333333333333,4,2,1,49,0,0
46916,-100,4,2,1,70,0,0
49993,-83.3333333333333,4,2,1,70,0,1
60763,379.746835443038,4,2,1,75,1,1
60763,-83.3333333333333,4,2,1,75,0,1
62281,384.615384615385,4,2,1,75,1,1
62281,-83.3333333333333,4,2,1,75,0,1
66896,389.61038961039,4,2,1,75,1,1
66896,-83.3333333333333,4,2,1,75,0,1
68454,384.615384615385,4,2,1,75,1,1
68454,-83.3333333333333,4,2,1,75,0,1
80761,-100,4,2,1,45,0,0

[Colours]
Combo1 : 234,186,142
Combo2 : 94,174,255

[HitObjects]
204,68,763,5,12,0:0:0:0:
267,140,955,2,0,L|371:159,1,85,0|0,3:0|3:0,0:0:0:0:
215,80,1339,1,12,0:0:0:0:
152,152,1531,2,0,L|48:171,1,85,0|0,3:0|3:0,0:0:0:0:
204,92,1917,1,12,0:0:0:0:
267,164,2109,2,0,L|371:183,1,85,0|0,3:0|3:0,0:0:0:0:
215,104,2494,1,12,0:0:0:0:
152,176,2686,2,0,L|48:195,1,85,0|0,3:0|3:0,0:0:0:0:
204,116,3070,5,12,0:0:0:0:
136,154,3263,1,0,3:0:0:0:
262,222,3455,1,12,0:0:0:0:
245,296,3648,1,0,3:0:0:0:
377,283,3839,5,12,0:0:0:0:
314,211,4031,2,0,L|210:192,1,85,0|0,3:0|3:0,3:0:0:0:
366,271,4415,1,12,0:0:0:0:
429,199,4609,2,0,L|533:180,1,85,0|0,3:0|3:0,3:0:0:0:
377,259,4993,1,12,0:0:0:0:
314,187,5185,2,0,L|210:168,1,85,0|0,3:0|3:0,3:0:0:0:
366,247,5570,1,12,0:0:0:0:
429,175,5762,2,0,L|533:156,1,85,0|0,3:0|3:0,3:0:0:0:
377,235,6147,5,8,0:0:0:0:
445,197,6340,1,0,0:0:0:0:
319,129,6532,2,0,L|147:149,1,170,2|2,0:0|0:0,0:0:0:0:
128,164,7109,6,0,L|170:159,2,42.5,0|0|8,0:0|0:0|0:0,0:0:0:0:
45,106,7493,2,0,L|63:281,1,170,0|0,3:0|3:0,0:0:0:0:
21,361,8070,2,0,P|42:318|107:300,1,85,8|2,0:0|0:0,0:0:0:0:
85,304,8359,1,0,0:0:0:0:
97,307,8455,6,0,L|203:316,1,85,0|0,0:0|3:0,0:0:0:0:
315,297,8839,1,8,0:0:0:0:
277,371,9032,1,8,0:0:0:0:
277,371,9128,1,2,0:3:0:0:
277,371,9224,2,0,L|290:273,1,85,2|0,0:3|3:0,0:0:0:0:
266,166,9609,2,0,P|278:238|353:228,1,127.5,4|0,0:0|0:0,0:0:0:0:
355,235,9993,6,0,P|399:238|455:257,1,85,2|2,0:0|0:0,0:0:0:0:
387,209,10570,2,0,P|429:224|478:256,1,85,2|2,0:0|0:0,0:0:0:0:
424,192,11147,2,0,P|460:217|499:260,1,85,2|2,0:0|0:0,0:0:0:0:
492,340,11532,5,2,0:3:0:0:
492,340,11916,1,2,0:3:0:0:
492,340,12301,5,8,0:0:0:0:
459,320,12397,1,8,0:0:0:0:
420,318,12493,1,8,0:3:0:0:
382,325,12589,1,8,0:3:0:0:
339,316,12686,5,8,0:0:0:0:
366,343,12782,1,8,3:0:0:0:
403,338,12878,1,4,3:0:0:0:
419,303,12974,1,4,3:0:0:0:
405,267,13070,6,0,P|404:204|495:183,1,170,6|8,0:0|0:0,0:0:0:0:
502,45,13647,2,0,P|503:108|412:129,1,170,2|0,0:0|3:0,0:0:0:0:
361,58,14224,2,0,L|172:71,1,170,10|0,0:0|0:0,0:0:0:0:
100,152,14801,1,0,3:0:0:0:
180,91,14993,2,0,P|153:44|89:54,1,85,10|0,0:0|0:0,0:0:0:0:
45,60,15378,1,0,3:0:0:0:
45,60,15570,1,0,3:0:0:0:
85,138,15763,2,0,L|75:242,1,85,8|0,0:0|0:0,0:0:0:0:
1,277,16147,6,0,P|85:271|103:353,1,170,2|8,3:2|0:0,0:0:0:0:
220,381,16724,2,0,P|144:344|169:264,1,170,2|0,0:0|3:0,0:0:0:0:
256,257,17301,2,0,P|338:265|427:293,1,170,10|0,0:0|3:0,0:0:0:0:
512,218,17878,2,0,P|429:209|341:182,1,170,2|0,0:0|0:0,0:0:0:0:
310,100,18455,1,0,3:0:0:0:
310,100,18647,1,0,3:0:0:0:
405,10,18839,2,0,L|289:19,1,85,8|0,0:0|0:0,0:0:0:0:
196,9,19224,6,0,P|267:29|253:136,1,170,2|8,3:2|0:0,0:0:0:0:
181,181,19801,2,0,P|102:163|0:153,1,170,2|0,0:0|3:0,0:0:0:0:
0,4,20378,2,0,P|67:83|21:157,1,170,8|0,0:0|0:0,0:0:0:0:
16,232,20955,2,0,P|123:209|195:214,1,170,2|0,3:2|0:0,0:0:0:0:
274,255,21532,2,0,P|331:240|363:220,1,85,2|0,0:0|0:0,0:0:0:0:
357,219,21820,1,0,0:0:0:0:
360,211,21916,2,0,L|354:318,1,85,8|0,0:0|0:0,0:0:0:0:
474,358,22301,6,0,P|431:301|335:320,1,170,2|8,3:2|0:0,0:0:0:0:
276,375,22878,2,0,L|87:386,1,170,2|0,0:0|3:0,0:0:0:0:
1,305,23455,2,0,P|69:306|75:195,1,170,10|0,0:0|0:0,0:0:0:0:
44,121,24032,2,0,L|65:228,1,85,0|8,3:0|0:0,0:0:0:0:
176,281,24416,1,2,0:3:0:0:
178,272,24513,1,2,0:3:0:0:
180,264,24609,2,0,L|196:180,1,85
112,96,24993,2,0,L|11:111,1,85,8|0,0:0|0:0,0:0:0:0:
132,228,25378,6,0,P|207:202|209:113,1,170,6|8,0:0|0:0,0:0:0:0:
218,13,25955,2,0,P|230:91|284:199,1,170,2|0,0:0|3:0,0:0:0:0:
388,193,26532,2,0,P|450:177|442:57,1,170,10|0,0:0|0:0,0:0:0:0:
394,40,27109,1,2,3:2:0:0:
359,168,27301,2,0,L|377:263,1,85,10|0,0:0|0:0,0:0:0:0:
461,297,27686,1,0,3:0:0:0:
461,297,27878,1,0,3:0:0:0:
331,370,28070,2,0,L|236:355,1,85,8|0,0:0|0:0,0:0:0:0:
96,290,28455,6,0,P|209:316|289:317,1,170,2|8,3:2|0:0,0:0:0:0:
337,226,29032,2,0,P|336:179|219:175,1,170,2|0,0:0|3:0,0:0:0:0:
149,211,29609,2,0,P|131:292|137:388,1,170,10|0,0:0|0:0,0:0:0:0:
223,356,30186,2,0,P|183:297|70:315,1,170,2|0,0:0|0:0,0:0:0:0:
85,302,30666,1,0,0:0:0:0:
79,308,30763,2,0,L|73:193,1,85,0|0,3:0|0:0,0:0:0:0:
40,130,31147,1,8,0:0:0:0:
118,70,31339,1,2,0:3:0:0:
126,71,31436,1,2,0:3:0:0:
134,72,31532,6,0,P|112:155|109:238,1,170,2|8,3:2|0:0,0:0:0:0:
232,324,32109,2,0,P|246:273|235:224,1,85,2|0,0:0|3:0,0:0:0:0:
195,172,32493,1,0,3:0:0:0:
54,170,32686,2,0,L|261:154,1,170,10|0,0:0|0:0,0:0:0:0:
309,100,33263,2,0,P|398:136|438:220,1,170,2|0,3:2|0:0,0:0:0:0:
464,274,33839,2,0,P|470:206|481:164,2,85,2|0|8,0:0|3:0|0:0,0:0:0:0:
510,361,34416,1,0,0:0:0:0:
436,289,34609,6,0,P|358:304|243:320,1,170,2|8,3:2|0:0,0:0:0:0:
161,245,35186,2,0,P|150:283|160:332,1,85,2|0,0:0|0:0,0:0:0:0:
221,384,35570,1,0,3:0:0:0:
261,309,35763,2,0,P|339:324|454:340,1,170,10|0,0:0|0:0,0:0:0:0:
503,268,36339,2,0,P|490:208|380:222,1,170,2|0,0:0|0:0,0:0:0:0:
389,208,36820,1,2,0:3:0:0:
383,214,36916,5,8,0:0:0:0:
370,181,37013,1,8,0:0:0:0:
364,147,37109,1,8,0:0:0:0:
369,113,37205,1,8,0:0:0:0:
382,81,37301,5,8,0:3:0:0:
354,100,37397,1,8,0:3:0:0:
324,117,37493,1,4,3:0:0:0:
290,123,37589,1,4,3:0:0:0:
258,122,37686,6,0,P|214:106|177:86,2,63.7500024318696,6|0|0,0:0|0:0|0:0,0:0:0:0:
258,122,38263,1,0,3:0:0:0:
258,122,38455,1,0,3:0:0:0:
451,39,38839,2,0,P|435:71|428:112,1,63.7500024318696,2|0,0:0|3:0,0:0:0:0:
490,164,39224,2,0,P|486:206|403:228,1,127.500004863739,2|2,3:2|0:0,0:0:0:0:
344,184,39801,2,0,L|327:255,1,63.7500024318696,2|0,0:0|3:0,0:0:0:0:
329,245,40378,1,4,0:0:0:0:
430,335,40763,6,0,L|285:318,1,127.500004863739,2|0,0:0|0:0,0:0:0:0:
214,343,41339,1,2,3:0:0:0:
214,343,41532,2,0,P|183:356|143:359,2,63.7500024318696,2|0|0,3:2|0:0|0:0,0:0:0:0:
214,343,42109,1,0,3:0:0:0:
214,343,42301,1,2,3:2:0:0:
169,188,42686,1,2,0:0:0:0:
93,157,42878,2,0,L|168:171,1,63.7500024318696,2|0,0:0|3:0,0:0:0:0:
155,168,43455,1,12,0:0:0:0:
201,100,43647,1,0,0:0:0:0:
171,22,43839,6,0,P|199:71|268:74,1,127.500004863739,6|0,0:0|0:0,0:0:0:0:
348,25,44416,2,0,L|479:66,1,127.500004863739,2|0,3:2|0:0,0:0:0:0:
486,155,44993,1,2,0:0:0:0:
444,86,45186,2,0,P|446:146|424:221,1,127.500004863739,2|0,0:0|0:0,0:0:0:0:
329,251,45763,2,0,P|341:200|415:196,1,127.500004863739,2|0,0:0|3:0,0:0:0:0:
407,190,46532,1,12,0:0:0:0:
444,264,46724,1,0,3:0:0:0:
385,353,46916,6,0,P|408:296|397:259,1,85,4|0,0:0|0:0,0:0:0:0:
339,213,47301,1,8,0:0:0:0:
490,169,47493,2,0,P|397:171|292:186,1,170,4|0,0:0|3:0,0:0:0:0:
171,144,48070,2,0,P|212:142|264:134,1,85,12|0,0:0|0:0,0:0:0:0:
255,135,48455,1,0,3:0:0:0:
336,43,48647,1,8,0:0:0:0:
327,199,48839,1,4,0:0:0:0:
243,121,49032,1,4,3:0:0:0:
123,203,49224,5,8,0:0:0:0:
131,235,49320,1,8,0:3:0:0:
139,267,49416,1,4,3:0:0:0:
148,300,49513,1,4,3:0:0:0:
157,332,49609,1,12,0:0:0:0:
476,200,49993,5,4,1:1:0:0:
379,171,50186,1,2,0:0:0:0:
280,288,50377,1,10,0:0:0:0:
376,316,50570,1,2,0:0:0:0:
492,194,50763,2,0,P|486:137|471:84,1,101.999996887207,2|0,3:2|0:0,0:0:0:0:
335,9,51147,1,10,0:0:0:0:
341,103,51339,6,0,P|388:115|462:124,1,101.999996887207,2|0,0:0|0:0,0:0:0:0:
512,227,51724,2,0,P|465:215|391:206,1,101.999996887207,2|8,3:2|0:0,0:0:0:0:
308,122,52109,2,0,P|318:67|268:35,1,101.999996887207,2|0,3:2|0:0,0:0:0:0:
215,54,52493,2,0,P|205:109|255:141,1,101.999996887207,2|8,3:2|0:0,0:0:0:0:
351,232,52878,1,2,0:3:0:0:
351,232,52974,1,2,0:3:0:0:
351,232,53070,6,0,P|328:278|319:342,1,101.999996887207,6|0,0:0|0:0,0:0:0:0:
500,279,53455,1,10,0:0:0:0:
471,182,53648,1,2,0:0:0:0:
344,116,53839,1,2,3:2:0:0:
315,213,54032,1,2,3:2:0:0:
490,203,54224,1,10,0:0:0:0:
391,179,54417,1,2,3:2:0:0:
248,53,54609,6,0,P|310:89|356:95,1,101.999996887207,2|2,0:0|3:0,0:0:0:0:
349,94,54897,1,2,0:3:0:0:
358,91,54993,1,8,0:0:0:0:
504,74,55186,2,0,L|473:196,1,101.999996887207,2|0,0:0|0:0,0:0:0:0:
371,295,55570,2,0,L|345:196,1,101.999996887207,2|8,0:0|0:0,0:0:0:0:
36,200,56147,5,6,0:0:0:0:
133,171,56340,1,2,0:0:0:0:
189,336,56531,1,10,0:0:0:0:
117,267,56724,1,2,0:0:0:0:
23,126,56916,1,2,3:2:0:0:
120,149,57109,1,2,3:2:0:0:
239,28,57301,2,0,P|213:73|222:146,1,101.999996887207,8|0,0:0|0:0,0:0:0:0:
290,217,57686,6,0,L|156:234,1,101.999996887207,2|0,0:0|3:0,0:0:0:0:
116,316,58070,1,8,0:0:0:0:
199,254,58263,2,0,P|191:199|142:141,1,101.999996887207,2|0,3:2|0:0,0:0:0:0:
59,212,58647,2,0,P|67:267|116:325,1,101.999996887207,2|8,3:2|0:0,0:0:0:0:
244,363,59032,1,2,3:0:0:0:
244,363,59128,1,2,3:0:0:0:
244,363,59224,5,14,0:0:0:0:
304,289,59416,2,0,L|317:181,1,101.999996887207,0|0,3:0|3:0,0:0:0:0:
444,109,59801,2,0,P|334:142|357:230,1,203.999993774414,14|0,0:0|3:0,0:0:0:0:
456,261,60378,1,6,0:0:0:0:
369,227,60570,2,0,L|226:250,1,101.999996887207,0|0,3:0|3:0,0:0:0:0:
157,290,60952,2,0,P|228:250|209:138,1,203.999993774414,14|0,0:0|3:0,0:0:0:0:
55,107,61522,2,0,P|83:135|143:168,1,101.999996887207,14|0,0:0|0:0,0:0:0:0:
207,55,61902,2,0,P|179:27|114:-7,1,101.999996887207,14|0,0:0|0:0,0:0:0:0:
29,121,62281,5,4,1:0:0:0:
38,222,62473,1,2,0:0:0:0:
173,280,62665,1,10,0:0:0:0:
164,179,62857,1,2,0:0:0:0:
266,39,63050,2,0,L|249:164,1,101.999996887207,2|0,3:2|3:0,0:0:0:0:
175,201,63434,1,10,0:0:0:0:
175,201,63627,1,2,0:0:0:0:
231,277,63819,6,0,P|286:269|367:262,1,101.999996887207,2|0,3:2|3:0,0:0:0:0:
437,295,64204,1,8,0:0:0:0:
497,199,64396,2,0,P|500:130|463:113,1,101.999996887207,2|0,3:2|0:0,0:0:0:0:
404,132,64781,2,0,P|389:178|422:215,1,101.999996887207,2|8,3:2|0:0,0:0:0:0:
156,384,65357,6,0,L|193:260,1,101.999996887207,2|0,0:0|0:0,0:0:0:0:
99,180,65742,1,10,0:0:0:0:
72,278,65934,1,2,0:0:0:0:
194,308,66127,2,0,P|235:296|312:287,1,101.999996887207,2|0,3:2|3:2,0:0:0:0:
362,357,66511,2,0,P|333:313|307:257,1,101.999996887207,10|0,0:0|0:0,0:0:0:0:
402,112,66896,6,0,P|412:166|382:223,1,101.999996887207,2|0,0:0|3:0,0:0:0:0:
295,249,67285,1,8,0:0:0:0:
197,202,67480,2,0,P|155:207|89:233,1,101.999996887207,2|0,0:0|0:0,0:0:0:0:
75,334,67870,2,0,P|117:329|183:303,1,101.999996887207,2|8,3:0|0:0,0:0:0:0:
37,90,68454,5,6,0:0:0:0:
136,118,68646,1,0,0:0:0:0:
253,209,68838,1,8,0:0:0:0:
352,181,69030,1,0,0:0:0:0:
448,249,69223,2,0,P|382:232|350:207,1,101.999996887207,2|0,3:2|3:0,0:0:0:0:
274,119,69607,2,0,P|255:53|261:13,1,101.999996887207,10|0,0:0|0:0,0:0:0:0:
400,114,69992,6,0,L|270:144,1,101.999996887207,2|0,3:2|3:0,0:0:0:0:
234,211,70377,1,8,0:0:0:0:
149,155,70569,2,0,P|148:101|136:53,1,101.999996887207,2|0,0:0|0:0,0:0:0:0:
48,64,70954,2,0,P|48:114|60:164,1,101.999996887207,2|8,3:2|0:0,0:0:0:0:
151,307,71530,5,14,0:0:0:0:
246,269,71723,1,0,3:0:0:0:
341,307,71915,1,0,3:0:0:0:
436,269,72107,2,0,P|337:279|214:294,1,203.999993774414,14|0,0:0|0:0,0:0:0:0:
171,364,72684,5,14,0:0:0:0:
209,269,72877,1,0,3:0:0:0:
171,174,73069,1,0,3:0:0:0:
209,79,73261,2,0,P|199:178|184:301,1,203.999993774414,14|0,0:0|0:0,0:0:0:0:
292,375,73838,6,0,P|283:318|296:237,1,101.999996887207,10|0,1:2|0:0,0:0:0:0:
432,201,74223,2,0,P|441:258|428:339,1,101.999996887207,10|0,1:2|0:0,0:0:0:0:
255,377,74607,5,12,0:0:0:0:
318,305,74799,2,0,L|422:286,1,101.999996887207,0|0,3:0|3:0,3:0:0:0:
266,365,75183,1,12,0:0:0:0:
203,293,75377,2,0,L|99:274,1,101.999996887207,0|0,3:0|3:0,3:0:0:0:
255,353,75761,1,12,0:0:0:0:
318,281,75953,2,0,L|422:262,1,101.999996887207,0|0,3:0|3:0,3:0:0:0:
266,341,76338,1,12,0:0:0:0:
203,269,76530,2,0,L|99:250,1,101.999996887207,0|0,3:0|3:0,3:0:0:0:
19,129,76915,6,0,P|16:179|24:229,1,101.999996887207,10|0,1:2|0:0,0:0:0:0:
170,156,77300,2,0,P|172:105|164:55,1,101.999996887207,10|0,1:2|0:0,0:0:0:0:
257,7,77684,5,12,0:0:0:0:
194,79,77876,2,0,L|90:98,1,101.999996887207,0|0,3:0|3:0,3:0:0:0:
246,19,78260,1,12,0:0:0:0:
309,91,78454,2,0,L|413:110,1,101.999996887207,0|0,3:0|3:0,3:0:0:0:
257,31,78838,1,12,0:0:0:0:
194,103,79030,2,0,L|90:122,1,101.999996887207,0|0,3:0|3:0,3:0:0:0:
246,43,79415,1,12,0:0:0:0:
309,115,79607,2,0,L|413:134,1,101.999996887207,0|0,3:0|3:0,3:0:0:0:
493,255,79992,6,0,P|495:204|487:154,1,101.999996887207,10|0,0:0|0:0,0:0:0:0:
342,228,80377,2,0,P|339:278|347:328,1,101.999996887207,10|0,0:0|0:0,0:0:0:0:
481,327,80761,6,0,L|376:337,1,85,4|2,0:0|0:3,0:0:0:0:
388,338,81050,1,2,0:3:0:0:
379,340,81146,1,8,0:0:0:0:
301,365,81338,2,0,L|126:336,1,170,0|2,3:0|3:0,0:0:0:0:
39,294,81915,2,0,L|128:291,1,85,8|2,0:0|0:3,0:0:0:0:
131,287,82204,1,2,0:3:0:0:
138,283,82300,2,0,P|155:245|143:186,1,85,2|0,0:3|3:0,0:0:0:0:
101,127,82684,1,8,0:0:0:0:
146,49,82877,1,8,0:0:0:0:
146,49,82973,1,2,0:3:0:0:
146,49,83069,2,0,L|234:71,1,85,2|0,0:3|3:0,0:0:0:0:
314,32,83454,1,12,0:0:0:0:
314,32,83838,5,0,3:0:0:0:
394,73,84030,2,0,L|445:66,2,42.5,0|0|8,0:0|0:0|0:0,0:0:0:0:
355,147,84415,2,0,L|325:327,1,170,0|0,3:0|3:0,0:0:0:0:
409,379,84992,2,0,L|407:278,1,85,10|2,0:0|0:0,0:0:0:0:
464,232,85377,1,2,0:0:0:0:
