osu file format v14

[General]
AudioFilename: audio.mp3
AudioLeadIn: 0
PreviewTime: 0
Countdown: 0
SampleSet: Soft
StackLeniency: 0.4
Mode: 0
LetterboxInBreaks: 0
WidescreenStoryboard: 1

[Editor]
Bookmarks: 6916,13070,25378,37686,43839,46916,49993,62281,71530,74607,80761,85377
DistanceSpacing: 1
BeatDivisor: 2
GridSize: 4
TimelineZoom: 1

[Metadata]
Title:Climber
TitleUnicode:クライマー
Artist:Galileo Galilei
ArtistUnicode:Galileo Galilei
Creator:imbor
Version:Easy
Source:ハイキュー!! セカンドシーズン
Tags:haikyuu haikyu season 2 tv size ending bor naotoshi sdafsf nao tomori version
BeatmapID:1435182
BeatmapSetID:644566

[Difficulty]
HPDrainRate:2
CircleSize:3
OverallDifficulty:3
ApproachRate:3
SliderMultiplier:0.999999999999999
SliderTickRate:1

[Events]
//Background and Video events
0,0,"kuraima.png",0,0
//Break Periods
//Storyboard Layer 0 (Background)
//Storyboard Layer 1 (Fail)
//Storyboard Layer 2 (Pass)
//Storyboard Layer 3 (Foreground)
//Storyboard Sound Samples

[TimingPoints]
763,384.615384615385,4,2,1,70,1,0
37686,-100,4,2,1,49,0,0
46916,-100,4,2,1,70,0,0
49993,-100,4,2,1,70,0,1
60763,379.746835443038,4,2,1,75,1,1
60763,-100,4,2,1,75,0,1
62281,384.615384615385,4,2,1,75,1,1
62281,-100,4,2,1,75,0,1
66896,389.61038961039,4,2,1,75,1,1
66896,-100,4,2,1,75,0,1
68454,384.615384615385,4,2,1,75,1,1
68454,-100,4,2,1,75,0,1
80761,-100,4,2,1,45,0,0

[Colours]
Combo1 : 234,186,142
Combo2 : 94,174,255

[HitObjects]
86,94,763,6,0,L|257:82,3,150,12|12|12|12,0:0|0:0|0:0|0:0,0:0:0:0:
377,34,3070,1,12,0:0:0:0:
422,122,3455,1,12,0:0:0:0:
380,212,3839,6,0,P|446:251|490:329,3,150,12|12|12|12,0:0|0:0|0:0|0:0,0:0:0:0:
352,383,6147,1,8,0:0:0:0:
265,331,6532,1,2,0:0:0:0:
177,379,6916,6,0,P|97:363|37:302,1,150,2|0,0:0|3:0,0:0:0:0:
0,174,8070,1,8,0:0:0:0:
42,83,8455,2,0,L|149:70,2,99.9999999999999,0|8|2,0:0|0:0|0:3,0:0:0:0:
0,174,9609,1,4,0:0:0:0:
37,266,9993,5,2,0:0:0:0:
346,13,11532,2,0,L|238:-2,1,99.9999999999999,2|2,0:3|0:3,0:0:0:0:
158,45,12301,1,8,0:0:0:0:
158,45,12686,1,8,0:0:0:0:
111,133,13070,6,0,P|188:147|265:198,1,150,6|2,0:0|0:0,0:0:0:0:
361,284,14224,1,10,0:0:0:0:
460,296,14609,2,0,P|493:324|513:393,2,99.9999999999999,0|10|0,0:0|0:0|3:0,0:0:0:0:
365,263,15763,1,8,0:0:0:0:
316,175,16147,6,0,P|318:109|389:35,1,150,2|2,3:2|0:0,0:0:0:0:
512,0,17301,1,10,0:0:0:0:
510,100,17686,2,0,L|388:85,1,99.9999999999999,0|8,3:0|0:0,0:0:0:0:
331,28,18455,2,0,L|225:40,1,99.9999999999999,0|8,3:0|0:0,0:0:0:0:
134,13,19224,6,0,P|74:66|58:157,2,150,2|2|8,3:2|0:0|0:0,0:0:0:0:
261,93,20955,2,0,L|229:266,1,150,2|2,3:2|3:2,0:0:0:0:
204,336,21916,1,8,0:0:0:0:
105,356,22301,6,0,P|57:320|63:193,1,150,2|2,3:2|0:0,0:0:0:0:
128,113,23455,2,0,P|128:41|56:30,1,150,10|0,0:0|3:0,0:0:0:0:
0,163,24609,1,0,3:0:0:0:
36,255,24993,1,8,0:0:0:0:
46,354,25378,6,0,P|118:332|214:315,1,150,6|2,0:0|0:0,0:0:0:0:
338,346,26532,1,10,0:0:0:0:
429,305,26916,2,0,P|455:249|452:199,2,99.9999999999999,0|10|0,3:0|0:0|3:0,0:0:0:0:
338,346,28070,1,8,0:0:0:0:
246,305,28455,6,0,P|207:249|189:155,1,150,2|2,3:2|0:0,0:0:0:0:
267,42,29609,1,10,0:0:0:0:
359,3,29993,2,0,P|406:18|476:56,1,99.9999999999999,0|8,3:0|0:0,0:0:0:0:
483,135,30763,2,0,P|438:156|390:172,1,99.9999999999999,0|8,3:0|0:0,0:0:0:0:
334,89,31532,6,0,L|166:62,1,150,2|2,3:2|0:0,0:0:0:0:
50,0,32686,2,0,P|86:64|63:157,1,150,10|2,0:0|3:2,0:0:0:0:
0,266,33839,2,0,L|21:368,1,99.9999999999999,2|8,3:2|0:0,0:0:0:0:
118,384,34609,6,0,P|141:306|191:255,1,150,2|2,3:2|0:0,0:0:0:0:
336,276,35763,1,10,0:0:0:0:
416,216,36147,2,0,P|448:167|464:109,1,99.9999999999999,0|8,3:0|0:0,0:0:0:0:
414,39,36916,1,8,0:0:0:0:
414,39,37301,1,8,0:3:0:0:
414,39,37686,6,0,L|173:67,1,200,6|0,0:0|3:0,0:0:0:0:
58,184,39224,1,2,3:2:0:0:
62,187,39993,1,0,3:0:0:0:
67,287,40378,1,4,0:0:0:0:
19,375,40763,6,0,P|75:308|208:293,1,200,2|2,0:0|3:2,0:0:0:0:
375,336,42301,1,2,3:2:0:0:
379,339,43070,1,0,3:0:0:0:
442,261,43455,1,12,0:0:0:0:
445,161,43839,6,0,P|401:93|272:68,1,200,6|0,0:0|0:0,0:0:0:0:
91,81,45378,2,0,B|197:126|254:12,1,200,2|2,2:3|3:0,0:0:0:0:
185,200,46916,6,0,L|153:362,1,150,4|4,0:0|0:0,0:0:0:0:
302,383,48070,1,12,0:0:0:0:
399,361,48455,2,0,P|443:316|456:278,1,99.9999999999999,0|4,3:0|0:0,0:0:0:0:
429,185,49224,1,8,0:0:0:0:
429,185,49609,1,12,0:0:0:0:
364,108,49993,6,0,P|311:91|280:58,1,99.9999999999999,4|10,1:1|0:0,0:0:0:0:
195,7,50763,2,0,L|161:144,1,99.9999999999999,2|10,3:2|0:0,0:0:0:0:
120,190,51532,2,0,P|66:128|-18:102,1,150,2|2,3:2|3:2,0:0:0:0:
53,247,52686,1,8,0:0:0:0:
1,331,53070,6,0,P|47:348|100:388,1,99.9999999999999,6|10,0:0|0:0,0:0:0:0:
178,333,53839,2,0,L|193:223,1,99.9999999999999,2|10,3:2|0:0,0:0:0:0:
224,139,54609,2,0,P|156:103|117:40,2,150,2|2|8,0:0|0:0|0:0,0:0:0:0:
323,127,56147,6,0,P|368:148|437:158,1,99.9999999999999,6|10,0:0|0:0,0:0:0:0:
478,236,56916,2,0,L|460:349,1,99.9999999999999,2|8,3:2|0:0,0:0:0:0:
365,360,57686,2,0,L|201:386,2,150,2|2|8,0:0|3:2|0:0,0:0:0:0:
463,377,59224,5,14,0:0:0:0:
413,235,59801,1,14,0:0:0:0:
490,106,60378,1,6,0:0:0:0:
382,0,60952,1,14,0:0:0:0:
243,58,61522,2,0,L|206:193,1,99.9999999999999,14|14,0:0|0:0,0:0:0:0:
144,221,62281,6,0,P|104:188|37:171,1,99.9999999999999,4|10,1:0|0:0,0:0:0:0:
11,260,63050,2,0,L|15:369,1,99.9999999999999,2|10,3:2|0:0,0:0:0:0:
112,380,63819,2,0,P|168:344|266:326,1,150,2|2,3:2|3:2,0:0:0:0:
392,368,64973,1,8,0:0:0:0:
480,320,65357,6,0,L|459:211,1,99.9999999999999,2|10,0:0|0:0,0:0:0:0:
391,149,66127,2,0,P|340:183|276:189,1,99.9999999999999,2|10,3:2|0:0,0:0:0:0:
211,151,66896,2,0,P|191:62|147:4,1,150,2|2,0:0|0:0,0:0:0:0:
10,0,68064,1,12,0:0:0:0:
1,101,68454,6,0,L|117:116,1,99.9999999999999,6|8,0:0|0:0,0:0:0:0:
186,165,69223,2,0,P|205:122|250:79,1,99.9999999999999,2|10,3:2|0:0,0:0:0:0:
341,89,69992,2,0,P|445:62|484:20,2,150,2|2|8,3:2|0:0|0:0,0:0:0:0:
290,175,71530,6,0,L|306:341,1,150,14|14,0:0|0:0,0:0:0:0:
443,381,72684,2,0,P|433:302|358:259,1,150,14|14,0:0|0:0,0:0:0:0:
244,328,73838,2,0,P|190:339|128:340,1,99.9999999999999,10|10,1:2|1:2,0:0:0:0:
67,277,74607,6,0,P|81:215|70:121,3,150,12|12|12|12,0:0|0:0|0:0|0:0,0:0:0:0:
169,14,76915,2,0,P|159:67|164:134,1,99.9999999999999,10|10,1:2|1:2,0:0:0:0:
258,132,77684,6,0,L|446:96,3,150,12|12|12|12,0:0|0:0|0:0|0:0,0:0:0:0:
510,210,79992,2,0,P|466:228|421:260,1,99.9999999999999,10|10,0:0|0:0,0:0:0:0:
359,335,80761,6,0,L|182:348,1,150,4|0,0:0|3:0,0:0:0:0:
59,353,81915,1,8,0:0:0:0:
13,263,82300,2,0,P|14:200|37:152,1,99.9999999999999,2|8,0:3|0:0,0:0:0:0:
102,96,83069,2,0,P|117:36|109:-6,1,99.9999999999999,2|12,3:3|0:0,0:0:0:0:
19,40,83838,6,0,L|211:69,1,150,4|0,3:2|3:0,0:0:0:0:
315,86,84992,1,10,0:0:0:0:
409,54,85377,1,2,0:0:0:0:
