osu file format v14

[General]
AudioFilename: galileo.mp3
AudioLeadIn: 0
PreviewTime: 49993
Countdown: 0
SampleSet: Soft
StackLeniency: 0.7
Mode: 0
LetterboxInBreaks: 0
WidescreenStoryboard: 1

[Editor]
DistanceSpacing: 0.9
BeatDivisor: 2
GridSize: 4
TimelineZoom: 1.9

[Metadata]
Title:Climber (TV Ver.)
TitleUnicode:クライマー(TV Ver.)
Artist:Galileo Galilei
ArtistUnicode:Galileo Galilei
Creator:Trust
Version:Umi's Insane
Source:ハイキュー!! セカンドシーズン
Tags:haikyuu haikyu season 2 tv size ending umi
BeatmapID:854344
BeatmapSetID:383785

[Difficulty]
HPDrainRate:7
CircleSize:4
OverallDifficulty:7
ApproachRate:8
SliderMultiplier:1.8
SliderTickRate:1

[Events]
//Background and Video events
Video,0,"Haikyu!! ED.avi"
0,0,"7OhyjLO.jpg",0,0
//Break Periods
//Storyboard Layer 0 (Background)
//Storyboard Layer 1 (Fail)
//Storyboard Layer 2 (Pass)
//Storyboard Layer 3 (Foreground)
//Storyboard Sound Samples

[TimingPoints]
763,384.615384615385,4,2,0,70,1,0
955,-100,4,2,0,60,0,0
1339,-100,4,2,0,70,0,0
1532,-100,4,2,0,60,0,0
1916,-100,4,2,0,70,0,0
2109,-100,4,2,0,60,0,0
2493,-100,4,2,0,70,0,0
2686,-100,4,2,0,60,0,0
3070,-100,4,2,0,70,0,0
4032,-100,4,2,0,60,0,0
4416,-100,4,2,0,70,0,0
4609,-100,4,2,0,60,0,0
4993,-100,4,2,0,70,0,0
5186,-100,4,2,0,60,0,0
5570,-100,4,2,0,70,0,0
5763,-100,4,2,0,60,0,0
6147,-100,4,2,0,70,0,0
6339,-100,4,2,0,65,0,0
6916,-142.857142857143,4,2,0,65,0,0
7109,-142.857142857143,4,2,0,40,0,0
13070,-117.647058823529,4,2,0,40,0,0
37686,-142.857142857143,4,2,0,50,0,0
40763,-142.857142857143,4,2,0,60,0,0
43839,-117.647058823529,4,2,0,65,0,0
46916,-117.647058823529,4,2,0,70,0,0
49993,-100,4,2,0,75,0,1
59416,-100,4,2,0,55,0,1
59801,-100,4,2,0,75,0,1
60186,-100,4,2,0,55,0,1
60378,-100,4,2,0,65,0,1
60570,-100,4,2,0,55,0,1
60763,379.746835443038,4,2,0,55,1,1
60952,-100,4,2,0,75,0,1
61332,-100,4,2,0,55,0,1
61522,-100,4,2,0,75,0,1
62281,384.615384615385,4,2,0,70,1,1
62377,-100,4,2,0,75,0,1
66896,389.61038961039,4,2,0,75,1,1
68454,384.615384615385,4,2,0,75,1,1
71723,-100,4,2,0,55,0,1
72107,-100,4,2,0,75,0,1
72492,-100,4,2,0,55,0,1
72684,-100,4,2,0,65,0,1
72877,-100,4,2,0,55,0,1
73261,-100,4,2,0,75,0,1
74607,-100,4,2,0,80,0,0
74800,-100,4,2,0,60,0,0
75184,-100,4,2,0,75,0,0
75377,-100,4,2,0,60,0,0
75761,-100,4,2,0,76,0,0
75954,-100,4,2,0,60,0,0
76338,-100,4,2,0,77,0,0
76530,-100,4,2,0,60,0,0
76915,-100,4,2,0,78,0,0
77492,-100,4,2,0,70,0,0
77684,-100,4,2,0,75,0,0
77877,-100,4,2,0,60,0,0
78261,-100,4,2,0,76,0,0
78454,-100,4,2,0,60,0,0
78838,-100,4,2,0,77,0,0
79030,-100,4,2,0,60,0,0
79415,-100,4,2,0,78,0,0
79607,-100,4,2,0,60,0,0
79992,-100,4,2,0,79,0,0
80761,-142.857142857143,4,2,0,65,0,0
81338,-142.857142857143,4,2,0,55,0,0
85377,-142.857142857143,4,2,0,5,0,0
86530,-142.857142857143,4,2,0,5,0,0

[Colours]
Combo1 : 75,183,241
Combo2 : 190,100,244
Combo3 : 252,255,108
Combo4 : 85,236,160

[HitObjects]
212,156,378,5,6,0:0:0:0:
212,156,763,6,0,P|244:156|304:152,1,90,4|0,1:2|1:0,0:0:0:0:
452,108,1147,1,0,1:0:0:0:
416,320,1339,2,0,L|400:224,1,90,4|0,0:0|1:0,0:0:0:0:
301,152,1724,1,0,1:0:0:0:
184,224,1916,2,0,P|169:266|171:311,1,90,4|0,0:0|1:0,0:0:0:0:
256,108,2301,5,0,1:0:0:0:
344,200,2493,2,0,L|434:200,1,90,4|0,0:0|1:0,0:0:0:0:
254,281,2878,1,0,1:0:0:0:
174,97,3070,1,4,0:0:0:0:
122,221,3263,1,0,1:0:0:0:
300,151,3455,2,0,P|297:106|293:62,1,90,4|0,0:0|0:0,0:0:0:0:
395,313,3839,6,0,P|398:268|404:224,1,90,4|0,0:0|1:0,0:0:0:0:
432,120,4224,1,0,1:0:0:0:
281,255,4416,2,0,P|291:211|304:168,1,90,4|0,0:0|1:0,0:0:0:0:
342,67,4801,1,0,1:0:0:0:
181,146,4993,2,0,P|200:104|224:64,1,90,4|0,0:0|1:0,0:0:0:0:
60,72,5378,5,0,1:0:0:0:
164,220,5570,1,4,0:0:0:0:
64,100,5763,1,0,1:0:0:0:
168,248,5955,1,0,1:0:0:0:
275,91,6147,2,0,P|287:135|288:180,1,90,4|0,0:0|1:0,0:0:0:0:
107,312,6532,2,0,P|135:272|175:244,1,90,4|0,0:0|0:0,0:0:0:0:
408,132,6916,6,0,P|421:193|428:272,1,125.999996154785,4|0,0:0|1:0,0:0:0:0:
365,358,7493,1,0,1:0:0:0:
240,268,7686,2,0,L|312:260,1,62.9999980773926,0|0,0:0|1:0,0:0:0:0:
172,352,8070,1,8,0:0:0:0:
112,252,8263,6,0,P|112:204|115:174,1,62.9999980773926,2|0,0:0|0:0,0:0:0:0:
304,80,8647,1,0,1:0:0:0:
304,80,8839,2,0,P|305:111|305:142,1,62.9999980773926,8|0,0:0|1:0,0:0:0:0:
300,176,9128,1,0,1:0:0:0:
300,176,9224,1,2,0:0:0:0:
392,280,9416,1,0,1:0:0:0:
504,168,9609,2,0,P|464:156|416:152,1,62.9999980773926,4|0,0:0|0:0,0:0:0:0:
248,152,9993,5,4,0:0:0:0:
288,264,10186,1,0,0:0:0:0:
168,124,10570,5,0,0:0:0:0:
216,312,10763,1,2,0:0:0:0:
80,112,11147,5,2,0:0:0:0:
120,336,11339,1,0,0:0:0:0:
224,237,11532,6,0,P|280:233|312:233,1,62.9999980773926,4|0,0:0|0:0,0:0:0:0:
432,300,11916,1,4,0:0:0:0:
432,300,12301,5,0,1:2:0:0:
429,274,12397,1,0,1:0:0:0:
427,248,12493,1,0,1:0:0:0:
425,222,12589,1,0,1:0:0:0:
423,196,12686,2,0,L|420:144,1,31.4999990386963,0|0,1:0|3:0,0:0:0:0:
336,112,12878,1,0,3:0:0:0:
328,131,12974,1,0,3:0:0:0:
320,149,13070,6,0,L|228:145,1,76.5000014591217,4|0,0:0|0:0,0:0:0:0:
46,172,13455,1,8,0:0:0:0:
128,66,13647,1,2,0:0:0:0:
174,251,13839,2,0,L|257:246,1,76.5000014591217,0|0,1:0|1:0,0:0:0:0:
417,121,14224,2,0,P|428:161|427:213,1,76.5000014591217,8|0,0:0|1:0,0:0:0:0:
358,282,14609,5,2,0:0:0:0:
273,154,14801,1,0,1:0:0:0:
180,327,14993,2,0,L|174:251,1,76.5000014591217,8|0,0:0|0:0,0:0:0:0:
112,106,15378,1,0,1:0:0:0:
55,266,15570,1,0,1:0:0:0:
210,171,15763,2,0,P|248:168|294:168,1,76.5000014591217,8|0,0:0|0:0,0:0:0:0:
449,251,16147,6,0,B|474:191|443:136|443:136|477:155,1,153.000002918243,2|8,0:0|0:0,0:0:0:0:
338,197,16724,1,0,0:0:0:0:
210,79,16916,2,0,P|248:74|286:79,1,76.5000014591217,0|0,1:0|1:0,0:0:0:0:
338,197,17301,1,8,0:0:0:0:
225,260,17493,1,0,0:0:0:0:
114,131,17686,6,0,P|91:161|80:198,1,76.5000014591217,0|0,0:0|1:0,0:0:0:0:
225,260,18070,1,8,0:0:0:0:
311,116,18263,1,0,0:0:0:0:
426,209,18455,2,0,P|414:245|387:284,1,76.5000014591217,0|0,1:0|1:0,0:0:0:0:
209,140,18839,2,0,P|221:104|248:65,1,76.5000014591217,8|0,0:0|0:0,0:0:0:0:
316,218,19224,6,0,P|257:266|182:270,1,153.000002918243,2|8,0:0|0:0,0:0:0:0:
88,161,19801,1,0,0:0:0:0:
173,50,19993,2,0,P|212:42|256:42,1,76.5000014591217,0|0,1:0|1:0,0:0:0:0:
429,136,20378,6,0,B|441:193|434:253|434:253|389:218,1,153.000002918243,8|2,0:0|0:0,0:0:0:0:
290,157,20955,1,0,1:0:0:0:
201,252,21147,2,0,P|198:299|206:336,1,76.5000014591217,8|0,0:0|0:0,0:0:0:0:
341,276,21532,1,0,1:0:0:0:
260,178,21724,1,0,1:0:0:0:
417,116,21916,2,0,P|423:153|426:191,1,76.5000014591217,8|0,0:0|0:0,0:0:0:0:
286,78,22301,6,0,P|218:111|144:96,1,153.000002918243,2|8,0:0|0:0,0:0:0:0:
286,78,22878,2,0,P|296:128|295:165,1,76.5000014591217,0|0,0:0|1:0,0:0:0:0:
222,290,23263,1,0,1:0:0:0:
82,228,23455,2,0,P|84:190|93:153,1,76.5000014591217,8|2,0:0|0:0,0:0:0:0:
180,66,23839,1,0,0:0:0:0:
272,219,24032,6,0,L|348:215,1,76.5000014591217,0|8,1:0|0:0,0:0:0:0:
435,118,24416,1,2,0:0:0:0:
435,118,24513,1,0,0:0:0:0:
435,118,24609,1,0,1:0:0:0:
324,52,24801,1,0,1:0:0:0:
197,187,24993,2,0,P|166:187|108:180,1,76.5000014591217,4|0,1:2|0:0,0:0:0:0:
280,300,25378,6,0,P|344:294|435:293,1,153.000002918243,4|8,0:0|0:0,0:0:0:0:
432,292,25955,1,0,0:0:0:0:
330,158,26147,2,0,P|330:124|340:76,1,76.5000014591217,0|0,1:0|1:0,0:0:0:0:
207,209,26532,6,0,P|169:175|62:175,1,153.000002918243,8|0,0:0|0:0,0:0:0:0:
117,268,27109,1,0,1:0:0:0:
256,95,27301,2,0,P|276:139|277:177,1,76.5000014591217,8|2,0:0|0:0,0:0:0:0:
416,198,27686,2,0,P|406:246|380:282,1,76.5000014591217,0|0,1:0|1:0,0:0:0:0:
191,252,28070,1,8,0:0:0:0:
283,345,28263,1,0,0:0:0:0:
319,137,28455,6,0,P|288:135|242:137,1,76.5000014591217,2|0,0:0|0:0,0:0:0:0:
137,185,28839,1,8,0:0:0:0:
298,301,29032,2,0,P|335:271|357:248,1,76.5000014591217,2|0,0:0|1:0,0:0:0:0:
419,160,29416,1,0,1:0:0:0:
211,77,29609,2,0,P|214:126|224:163,1,76.5000014591217,8|2,0:0|0:0,0:0:0:0:
367,270,29993,5,0,0:0:0:0:
328,170,30186,1,0,1:0:0:0:
156,293,30378,2,0,P|147:255|143:218,1,76.5000014591217,8|2,0:0|0:0,0:0:0:0:
328,170,30763,2,0,P|334:133|338:95,1,76.5000014591217,0|0,1:0|1:0,0:0:0:0:
160,33,31147,1,8,0:0:0:0:
62,178,31339,1,0,1:0:0:0:
62,178,31436,1,0,1:0:0:0:
62,178,31532,6,0,L|66:265,1,76.5000014591217,2|0,0:0|0:0,0:0:0:0:
232,304,31916,1,8,0:0:0:0:
180,120,32109,2,0,L|176:203,1,76.5000014591217,2|0,0:0|1:0,0:0:0:0:
372,288,32493,1,0,1:0:0:0:
312,76,32686,6,0,L|289:237,1,153.000002918243,8|2,0:0|0:0,0:0:0:0:
328,348,33263,1,0,0:0:0:0:
173,312,33455,2,0,P|160:273|156:226,1,76.5000014591217,8|2,0:0|0:0,0:0:0:0:
287,66,33839,2,0,P|282:103|269:140,1,76.5000014591217,0|0,1:0|1:0,0:0:0:0:
155,237,34224,1,8,0:0:0:0:
269,140,34416,1,2,0:0:0:0:
426,284,34609,6,0,L|350:288,1,76.5000014591217,0|0,1:0|0:0,0:0:0:0:
131,172,34993,1,8,0:0:0:0:
131,172,35186,2,0,P|118:223|121:262,1,76.5000014591217,2|0,0:0|1:0,0:0:0:0:
204,336,35570,1,0,1:0:0:0:
318,209,35763,2,0,P|352:202|399:194,1,76.5000014591217,8|2,0:0|0:0,0:0:0:0:
204,94,36147,6,0,P|166:86|128:79,1,76.5000014591217,0|0,0:0|1:0,0:0:0:0:
41,200,36532,1,8,0:0:0:0:
144,291,36724,2,0,L|187:294,1,38.2500007295609,2|0,0:0|0:0,0:0:0:0:
262,285,36916,1,4,1:2:0:0:
298,272,37013,1,0,1:0:0:0:
326,246,37109,1,0,1:0:0:0:
341,211,37205,1,0,1:0:0:0:
341,172,37301,1,0,1:0:0:0:
331,135,37397,1,0,1:0:0:0:
309,108,37493,2,0,L|265:107,1,38.2500007295609,0|0,1:0|1:0,1:0:0:0:
186,61,37686,6,0,L|199:204,1,125.999996154785,4|2,0:0|0:0,0:0:0:0:
172,276,38263,1,0,1:0:0:0:
259,344,38455,2,0,L|338:341,1,62.9999980773926,0|0,1:0|0:0,0:0:0:0:
484,248,38839,1,2,0:0:0:0:
394,374,39032,1,0,1:0:0:0:
314,221,39224,6,0,P|322:179|398:124,1,125.999996154785,0|2,1:0|0:0,0:0:0:0:
410,221,39801,1,0,1:0:0:0:
249,111,39993,2,0,L|168:117,1,62.9999980773926,2|0,1:2|0:0,0:0:0:0:
349,24,40378,1,4,1:2:0:0:
349,24,40763,6,0,P|355:89|358:155,1,125.999996154785,4|2,0:0|0:0,0:0:0:0:
357,149,41339,1,0,0:0:0:0:
246,283,41532,2,0,P|271:274|308:264,1,62.9999980773926,2|0,1:2|0:0,0:0:0:0:
422,300,41916,1,2,0:0:0:0:
295,246,42109,1,0,0:2:0:0:
441,103,42301,6,0,L|436:228,1,125.999996154785,2|2,1:2|0:0,0:0:0:0:
436,228,42878,1,0,0:0:0:0:
296,99,43070,2,0,P|247:96|208:102,1,62.9999980773926,2|0,0:0|0:0,0:0:0:0:
197,106,43359,1,0,0:0:0:0:
197,106,43455,1,4,1:2:0:0:
153,204,43647,1,0,0:0:0:0:
266,343,43839,6,0,L|284:269,1,76.5000014591217,4|0,0:0|0:0,0:0:0:0:
398,177,44224,1,2,0:0:0:0:
284,268,44416,1,0,0:0:0:0:
152,203,44609,2,0,P|160:129|218:81,1,153.000002918243,0|2,0:0|0:0,0:0:0:0:
333,187,45186,1,0,0:0:0:0:
333,187,45378,6,0,L|257:182,1,76.5000014591217,0|2,0:0|0:0,0:0:0:0:
69,275,45763,2,0,L|145:269,1,76.5000014591217,0|0,0:0|0:0,0:0:0:0:
328,338,46147,2,0,P|320:262|333:187,1,153.000002918243,4|4,0:0|0:2,0:0:0:0:
333,187,46724,1,0,0:2:0:0:
228,82,46916,6,0,P|186:85|152:96,1,76.5000014591217,4|0,0:0|0:0,0:0:0:0:
81,191,47301,1,8,0:0:0:0:
282,253,47493,2,0,P|288:287|295:334,1,76.5000014591217,4|0,0:2|0:0,0:0:0:0:
149,245,47878,1,0,1:0:0:0:
246,108,48070,6,0,L|334:100,2,76.5000014591217,8|0|0,0:0|1:0|1:0,0:0:0:0:
147,56,48647,1,8,0:0:0:0:
94,226,48839,1,8,0:0:0:0:
94,226,49224,2,0,L|101:283,1,38.2500007295609,0|0,1:0|0:0,0:0:0:0:
189,338,49416,2,0,L|196:290,1,38.2500007295609,0|0,0:0|0:0,0:0:0:0:
246,217,49609,2,0,P|279:213|372:217,1,114.750002188683,4|0,1:2|0:0,0:0:0:0:
404,237,49993,6,0,L|402:138,1,90,4|0,0:0|0:0,0:0:0:0:
210,56,50378,1,8,0:0:0:0:
302,152,50570,1,0,0:0:0:0:
184,219,50763,2,0,L|70:214,1,90,0|0,1:0|1:0,0:0:0:0:
94,215,51147,1,8,0:0:0:0:
222,353,51339,6,0,P|257:328|291:292,1,90,0|0,1:0|0:0,0:0:0:0:
227,87,51724,2,0,P|235:129|254:174,1,90,0|8,1:0|0:0,0:0:0:0:
462,215,52109,2,0,P|420:205|370:204,1,90,0|0,1:0|0:0,0:0:0:0:
285,271,52493,1,0,1:0:0:0:
428,123,52686,2,0,L|422:22,1,90,8|2,0:0|0:0,0:0:0:0:
295,189,53070,6,0,P|246:195|190:196,1,90,4|0,0:0|0:0,0:0:0:0:
57,138,53455,1,8,0:0:0:0:
189,298,53647,1,0,0:0:0:0:
84,240,53839,1,0,1:0:0:0:
183,78,54032,1,0,1:0:0:0:
295,189,54224,1,8,0:0:0:0:
302,65,54416,1,0,0:0:0:0:
181,186,54609,6,0,P|188:234|196:277,1,90,2|0,0:0|1:0,0:0:0:0:
263,93,54993,1,8,0:0:0:0:
354,183,55186,2,0,L|464:175,1,90,2|0,0:0|0:0,0:0:0:0:
263,279,55570,1,0,1:0:0:0:
150,135,55763,1,8,0:0:0:0:
150,135,56147,6,0,P|139:190|137:235,1,90,4|0,0:0|0:0,0:0:0:0:
225,341,56532,1,8,0:0:0:0:
136,223,56724,1,0,0:0:0:0:
225,341,56916,2,0,L|332:336,1,90,0|0,1:0|1:0,0:0:0:0:
458,186,57301,1,8,0:0:0:0:
458,186,57686,6,0,P|394:177|386:68,1,180,2|8,0:0|0:0,0:0:0:0:
289,181,58263,2,0,B|224:178|151:167|151:167|213:211,1,180,0|0,1:0|1:0,0:0:0:0:
291,268,58839,1,8,0:0:0:0:
362,129,59032,1,0,0:0:0:0:
481,279,59224,6,0,P|427:284|382:284,1,90,4|0,0:0|1:0,0:0:0:0:
248,112,59609,1,0,1:0:0:0:
135,185,59801,2,0,L|130:283,1,90,4|0,0:0|0:0,0:0:0:0:
232,344,60186,1,0,1:0:0:0:
303,161,60378,6,0,L|298:71,2,90,4|0|0,0:0|1:0|1:0,0:0:0:0:
448,304,60952,2,0,P|365:301|265:296,1,180,4|0,0:0|1:0,0:0:0:0:
148,198,61522,2,0,P|128:240|125:291,1,90,4|0,0:0|0:0,0:0:0:0:
270,135,61902,2,0,P|236:87|185:65,1,90,4|0,0:0|0:0,0:0:0:0:
252,274,62281,6,0,P|311:271|350:251,1,90,4|0,0:0|0:0,0:0:0:0:
458,161,62665,1,8,0:0:0:0:
442,280,62857,1,0,0:0:0:0:
305,143,63050,2,0,L|201:139,1,90,0|0,1:0|0:0,0:0:0:0:
92,214,63434,1,8,0:0:0:0:
215,139,63627,1,0,1:0:0:0:
107,45,63819,6,0,L|17:48,1,90,2|0,0:0|1:0,0:0:0:0:
117,192,64204,1,8,0:0:0:0:
253,50,64396,2,0,P|311:113|292:198,1,180,0|0,1:0|1:0,0:0:0:0:
292,198,64973,1,8,0:0:0:0:
292,198,65357,6,0,P|336:192|424:188,1,90,4|0,0:0|0:0,0:0:0:0:
488,257,65742,1,8,0:0:0:0:
428,368,65934,1,0,0:0:0:0:
307,332,66127,2,0,P|264:323|203:319,1,90,0|0,1:0|1:0,0:0:0:0:
50,364,66511,2,0,L|58:260,1,90,8|0,0:0|0:0,0:0:0:0:
170,77,66896,6,0,L|176:166,1,90,2|0,0:0|1:0,0:0:0:0:
273,254,67285,1,8,0:0:0:0:
467,120,67480,2,0,P|365:121|264:125,1,180,2|0,0:0|1:0,0:0:0:0:
176,166,68064,1,8,1:2:0:0:
176,166,68454,6,0,P|172:217|171:258,1,90,4|0,0:0|0:0,0:0:0:0:
275,312,68838,1,8,0:0:0:0:
398,173,69030,1,0,0:0:0:0:
452,263,69223,2,0,P|402:277|359:268,1,90,0|0,1:0|1:0,0:0:0:0:
348,80,69607,2,0,P|398:66|441:75,1,90,8|0,0:0|0:0,0:0:0:0:
283,177,69992,6,0,P|237:124|254:19,1,180,2|8,0:0|0:0,0:0:0:0:
379,116,70569,2,0,P|399:200|348:271,1,180,0|0,1:0|1:0,0:0:0:0:
237,304,71146,1,8,0:0:0:0:
26,103,71530,6,0,L|115:101,1,90,4|0,0:2|1:0,0:0:0:0:
231,22,71915,1,0,1:0:0:0:
389,194,72107,2,0,L|203:190,1,180,12|0,0:0|1:0,0:0:0:0:
86,228,72684,6,0,P|71:293|69:339,1,90,12|0,0:0|1:0,0:0:0:0:
231,268,73069,1,0,1:0:0:0:
148,98,73261,2,0,P|211:103|326:117,1,180,4|0,0:0|1:0,0:0:0:0:
436,261,73838,2,0,P|442:218|446:171,1,90,6|0,0:0|1:0,0:0:0:0:
231,268,74223,2,0,P|234:312|240:357,1,90,4|0,0:0|0:0,0:0:0:0:
305,109,74607,6,0,P|349:99|394:104,1,90,4|0,0:0|1:0,0:0:0:0:
454,189,74992,1,0,1:0:0:0:
238,166,75184,2,0,P|267:132|306:108,1,90,4|0,0:0|1:0,0:0:0:0:
454,189,75569,1,0,1:0:0:0:
221,252,75761,2,0,P|223:208|238:166,1,90,4|0,0:0|1:0,0:0:0:0:
454,189,76146,5,0,1:0:0:0:
259,332,76338,2,0,P|233:295|221:252,1,90,4|0,0:0|1:0,0:0:0:0:
241,83,76723,1,0,1:0:0:0:
339,173,76915,2,0,L|434:170,1,90,6|0,0:0|1:0,0:0:0:0:
221,252,77300,2,0,L|126:249,1,90,4|0,0:0|0:0,0:0:0:0:
327,358,77684,6,0,P|345:338|382:285,1,90,4|0,0:0|1:0,0:0:0:0:
435,174,78069,1,0,1:0:0:0:
213,89,78261,2,0,P|229:153|242:180,1,90,4|0,0:0|1:0,0:0:0:0:
344,258,78646,1,0,1:0:0:0:
165,356,78838,2,0,L|160:259,1,90,4|0,0:0|1:0,0:0:0:0:
239,174,79223,5,0,1:0:0:0:
35,107,79415,2,0,L|24:196,1,90,4|0,0:0|1:0,0:0:0:0:
160,266,79800,1,0,1:0:0:0:
255,101,79992,2,0,P|290:93|347:83,1,90,4|0,0:0|1:0,0:0:0:0:
491,236,80377,2,0,P|456:244|399:254,1,90,4|0,0:0|0:0,0:0:0:0:
278,207,80761,5,4,0:0:0:0:
278,207,80954,2,0,L|273:269,1,62.9999980773926,2|8,0:0|0:0,0:0:0:0:
377,155,81338,1,0,1:0:0:0:
255,100,81530,2,0,P|218:112|192:130,1,62.9999980773926,0|0,0:0|1:0,0:0:0:0:
176,249,81915,1,8,0:0:0:0:
289,308,82107,6,0,L|379:293,1,62.9999980773926,2|0,0:0|0:0,0:0:0:0:
452,169,82492,1,0,1:0:0:0:
267,195,82684,2,0,L|205:185,1,62.9999980773926,8|0,0:0|1:0,0:0:0:0:
205,185,82973,1,0,1:0:0:0:
205,185,83069,1,2,0:0:0:0:
77,252,83261,1,0,1:0:0:0:
205,185,83454,2,0,P|201:153|193:123,1,62.9999980773926,4|0,0:0|0:0,0:0:0:0:
100,38,83838,5,0,1:0:0:0:
271,106,84030,2,0,L|351:99,1,62.9999980773926,2|8,0:0|0:0,0:0:0:0:
457,34,84415,1,0,1:0:0:0:
457,34,84800,1,0,1:0:0:0:
410,216,84992,1,0,1:0:0:0:
256,192,85377,12,0,86531,0:0:0:0:
