osu file format v14

[General]
AudioFilename: galileo.mp3
AudioLeadIn: 0
PreviewTime: 49993
Countdown: 0
SampleSet: Soft
StackLeniency: 0.7
Mode: 0
LetterboxInBreaks: 0
WidescreenStoryboard: 1

[Editor]
Bookmarks: 6529
DistanceSpacing: 1
BeatDivisor: 4
GridSize: 4
TimelineZoom: 1.8

[Metadata]
Title:Climber (TV Ver.)
TitleUnicode:クライマー(TV Ver.)
Artist:Galileo Galilei
ArtistUnicode:Galileo Galilei
Creator:Trust
Version:Easy
Source:ハイキュー!! セカンドシーズン
Tags:haikyuu haikyu season 2 tv size ending umi
BeatmapID:846143
BeatmapSetID:383785

[Difficulty]
HPDrainRate:2
CircleSize:3.2
OverallDifficulty:2
ApproachRate:3
SliderMultiplier:0.999999999999999
SliderTickRate:1

[Events]
//Background and Video events
Video,0,"Haikyu!! ED.avi"
0,0,"7OhyjLO.jpg",0,0
//Break Periods
//Storyboard Layer 0 (Background)
//Storyboard Layer 1 (Fail)
//Storyboard Layer 2 (Pass)
//Storyboard Layer 3 (Foreground)
//Storyboard Sound Samples

[TimingPoints]
763,384.615384615385,4,2,0,70,1,0
955,-100,4,2,0,60,0,0
1339,-100,4,2,0,70,0,0
1532,-100,4,2,0,60,0,0
1916,-100,4,2,0,70,0,0
2109,-100,4,2,0,60,0,0
2493,-100,4,2,0,70,0,0
2686,-100,4,2,0,60,0,0
3070,-100,4,2,0,70,0,0
4032,-100,4,2,0,60,0,0
4416,-100,4,2,0,70,0,0
4609,-100,4,2,0,60,0,0
4993,-100,4,2,0,70,0,0
5186,-100,4,2,0,60,0,0
5570,-100,4,2,0,70,0,0
5763,-100,4,2,0,60,0,0
6147,-100,4,2,0,70,0,0
6339,-100,4,2,0,65,0,0
7109,-100,4,2,0,40,0,0
11532,-111.111111111111,4,2,0,40,0,0
11916,-100,4,2,0,40,0,0
13070,-100,4,2,0,40,0,0
37686,-100,4,2,0,50,0,0
40763,-100,4,2,0,60,0,0
43839,-100,4,2,0,65,0,0
45378,-100,4,2,0,45,0,0
45570,-100,4,2,0,65,0,0
46916,-100,4,2,0,70,0,0
49993,-90.9090909090909,4,2,0,75,0,1
54801,-90.9090909090909,4,2,0,75,0,0
54993,-90.9090909090909,4,2,0,75,0,1
59416,-90.9090909090909,4,2,0,55,0,1
59609,-90.9090909090909,4,2,0,55,0,1
59801,-90.9090909090909,4,2,0,75,0,1
60186,-90.9090909090909,4,2,0,55,0,1
60378,-90.9090909090909,4,2,0,65,0,1
60570,-90.9090909090909,4,2,0,55,0,1
60763,379.746835443038,4,2,0,55,1,1
60952,-90.9090909090909,4,2,0,75,0,1
61332,-90.9090909090909,4,2,0,55,0,1
61522,-90.9090909090909,4,2,0,75,0,1
62281,384.615384615385,4,2,0,70,1,1
62377,-90.9090909090909,4,2,0,75,0,1
66896,389.61038961039,4,2,0,75,1,1
68454,384.615384615385,4,2,0,75,1,1
71723,-90.9090909090909,4,2,0,55,0,1
72107,-90.9090909090909,4,2,0,75,0,1
72492,-90.9090909090909,4,2,0,55,0,1
72684,-90.9090909090909,4,2,0,65,0,1
72877,-90.9090909090909,4,2,0,55,0,1
73261,-90.9090909090909,4,2,0,75,0,1
74607,-90.9090909090909,4,2,0,80,0,1
74800,-90.9090909090909,4,2,0,60,0,1
75184,-90.9090909090909,4,2,0,75,0,1
75377,-90.9090909090909,4,2,0,60,0,1
75761,-90.9090909090909,4,2,0,76,0,1
75954,-90.9090909090909,4,2,0,60,0,1
76338,-90.9090909090909,4,2,0,77,0,1
76530,-90.9090909090909,4,2,0,60,0,1
76915,-90.9090909090909,4,2,0,78,0,1
77492,-90.9090909090909,4,2,0,70,0,1
77684,-90.9090909090909,4,2,0,75,0,1
77877,-90.9090909090909,4,2,0,60,0,1
78261,-90.9090909090909,4,2,0,76,0,1
78454,-90.9090909090909,4,2,0,60,0,1
78838,-90.9090909090909,4,2,0,77,0,1
79030,-90.9090909090909,4,2,0,60,0,1
79415,-90.9090909090909,4,2,0,78,0,1
79607,-90.9090909090909,4,2,0,60,0,1
79992,-90.9090909090909,4,2,0,79,0,1
80761,-90.9090909090909,4,2,0,65,0,1
81338,-100,4,2,0,55,0,0
85377,-100,4,2,0,15,0,0
86530,-100,4,2,0,5,0,0

[Colours]
Combo1 : 75,183,241
Combo2 : 190,100,244
Combo3 : 252,255,108
Combo4 : 85,236,160

[HitObjects]
148,224,763,6,0,P|64:240|-8:244,2,150,4|4|4,1:2|0:0|0:0,0:0:0:0:
280,152,2493,2,0,P|372:136|448:132,1,150,4|4,0:0|0:0,0:0:0:0:
512,188,3455,1,4,0:0:0:0:
456,272,3839,6,0,B|420:316|420:316|376:296|324:316,1,150,4|4,0:0|0:0,0:0:0:0:
184,352,4993,2,0,B|160:304|160:304|176:192,1,150,4|4,0:0|0:0,0:0:0:0:
196,60,6147,1,4,0:0:0:0:
292,28,6532,1,4,0:0:0:0:
372,92,6916,6,0,P|456:112|508:68,2,150,4|0|8,0:0|1:0|0:0,0:0:0:0:
292,28,8455,1,0,0:0:0:0:
196,60,8839,1,8,0:0:0:0:
100,32,9224,2,0,P|92:128|92:152,1,99.9999999999999,2|4,0:0|0:0,0:0:0:0:
143,217,9993,5,4,0:0:0:0:
424,300,11532,5,4,0:0:0:0:
356,228,11916,1,4,0:0:0:0:
420,152,12301,2,0,P|400:60|392:40,1,99.9999999999999,0|0,1:2|3:0,0:0:0:0:
304,92,13070,6,0,P|224:120|152:88,2,150,4|0|8,0:0|0:0|0:0,0:0:0:0:
398,54,14609,1,2,0:0:0:0:
428,148,14993,2,0,P|420:208|396:256,1,99.9999999999999,8|0,0:0|1:0,0:0:0:0:
316,296,15763,1,8,0:0:0:0:
232,240,16147,6,0,P|96:212|80:212,2,150,2|0|8,0:0|0:0|0:0,0:0:0:0:
316,296,17686,1,0,0:0:0:0:
416,276,18070,2,0,P|496:308|512:328,2,99.9999999999999,8|0|8,0:0|1:0|0:0,0:0:0:0:
316,296,19224,6,0,P|317:224|329:192,1,99.9999999999999,2|8,0:0|0:0,0:0:0:0:
365,105,19993,1,0,1:0:0:0:
427,186,20378,2,0,P|382:205|267:128,1,200,8|8,0:0|0:0,0:0:0:0:
204,55,21532,2,0,P|146:103|111:119,1,99.9999999999999,0|8,1:0|0:0,0:0:0:0:
40,65,22301,6,0,P|27:136|39:212,2,150,2|0|8,0:0|0:0|0:0,0:0:0:0:
131,24,23839,1,0,0:0:0:0:
212,76,24224,1,8,0:0:0:0:
242,171,24609,2,0,P|305:192|355:177,1,99.9999999999999,0|4,1:0|1:2,0:0:0:0:
399,107,25378,6,0,P|435:189|412:251,2,150,4|0|8,0:0|0:0|0:0,0:0:0:0:
308,63,26916,1,0,0:0:0:0:
223,115,27301,2,0,P|152:113|116:102,1,99.9999999999999,8|0,0:0|1:0,0:0:0:0:
65,185,28070,1,8,0:0:0:0:
125,264,28455,6,0,P|173:253|223:254,1,99.9999999999999,2|8,0:0|0:0,0:0:0:0:
291,323,29224,1,0,1:0:0:0:
385,289,29609,2,0,P|419:215|361:106,1,200,8|8,0:0|0:0,0:0:0:0:
279,76,30763,1,0,1:0:0:0:
198,135,31147,1,8,0:0:0:0:
104,99,31532,6,0,P|91:21|65:-11,2,99.9999999999999,2|8|0,0:0|0:0|1:0,0:0:0:0:
51,184,32686,2,0,P|68:262|187:269,1,200,8|8,0:0|0:0,0:0:0:0:
269,248,33839,1,0,1:0:0:0:
362,283,34224,1,8,0:0:0:0:
445,227,34609,6,0,P|435:173|457:77,2,150,0|0|8,1:0|0:0|0:0,0:0:0:0:
362,283,36147,1,0,0:0:0:0:
299,204,36532,1,8,0:0:0:0:
203,173,36916,2,0,P|103:183|91:186,1,99.9999999999999,4|0,1:2|1:0,0:0:0:0:
45,101,37686,6,0,P|172:75|255:83,1,200,4|0,0:0|1:0,0:0:0:0:
312,150,38839,1,2,0:0:0:0:
346,56,39224,2,0,P|398:99|377:229,1,200,0|2,1:0|1:2,0:0:0:0:
310,286,40378,1,4,1:2:0:0:
228,228,40763,6,0,P|161:215|109:225,1,99.9999999999999,4|2,0:0|0:0,0:0:0:0:
42,267,41532,2,0,P|25:211|31:148,1,99.9999999999999,2|2,1:2|0:0,0:0:0:0:
89,92,42301,1,2,1:2:0:0:
185,119,42686,1,2,0:0:0:0:
278,83,43070,2,0,P|351:62|387:59,1,99.9999999999999,2|4,0:0|1:2,0:0:0:0:
429,143,43839,6,0,P|427:150|529:247,2,150,4|2|2,0:0|0:0|0:0,0:0:0:0:
374,59,45378,2,0,P|294:59|270:51,1,99.9999999999999,4|0,0:0|0:0,0:0:0:0:
187,6,46147,1,4,0:0:0:0:
117,75,46532,1,4,0:2:0:0:
156,166,46916,6,0,P|67:162|23:107,2,150,4|4|8,0:0|0:2|0:0,0:0:0:0:
235,227,48455,2,0,P|304:211|346:215,1,99.9999999999999,0|8,1:0|0:0,0:0:0:0:
430,193,49224,2,0,P|425:263|410:297,1,99.9999999999999,0|4,1:0|1:2,0:0:0:0:
304,316,49993,5,4,0:0:0:0:
235,227,50378,2,0,P|246:191|253:155,2,55.0000016784668,8|0|0,0:0|0:0|1:0,0:0:0:0:
150,294,51147,1,8,0:0:0:0:
51,245,51532,2,0,P|18:150|17:122,2,110.000003356934,0|8|0,0:0|0:0|0:0,0:0:0:0:
150,294,52686,1,8,0:0:0:0:
251,250,53070,5,4,0:0:0:0:
345,307,53455,2,0,P|354:341|365:365,2,55.0000016784668,8|0|0,0:0|0:0|1:0,0:0:0:0:
422,229,54224,2,0,P|432:160|423:115,1,110.000003356934,8|2,0:0|0:0,0:0:0:0:
344,45,54993,2,0,P|387:9|399:-8,2,55.0000016784668,4|6|0,0:0|0:0|0:0,0:0:0:0:
246,96,55763,1,4,0:0:0:0:
340,148,56147,6,0,P|432:144|468:132,2,110.000003356934,4|8|0,0:0|0:0|1:0,0:0:0:0:
246,96,57301,1,8,0:0:0:0:
144,56,57686,2,0,P|80:64|28:93,2,110.000003356934,2|8|2,0:0|0:0|0:0,0:0:0:0:
246,96,58839,1,8,0:0:0:0:
188,188,59224,6,0,P|164:240|224:324,2,165.0000050354,4|4|4,0:0|0:0|0:0,0:0:0:0:
352,156,60952,2,0,P|384:72|324:8,1,165.0000050354,4|4,0:0|0:0,0:0:0:0:
256,84,61902,1,4,0:0:0:0:
184,152,62281,6,0,P|128:172|76:168,1,99.9999999999999,4|8,0:0|0:0,0:0:0:0:
56,64,63050,2,0,P|112:40|176:44,1,110.000003356934,0|8,1:0|0:0,0:0:0:0:
256,84,63819,1,2,0:0:0:0:
320,172,64204,2,0,P|324:248|308:296,1,110.000003356934,8|0,0:0|0:0,0:0:0:0:
220,336,64973,1,8,0:0:0:0:
128,272,65357,6,0,P|72:260|8:268,2,110.000003356934,4|8|0,0:0|0:0|1:0,0:0:0:0:
220,211,66511,1,8,0:0:0:0:
176,120,66896,1,2,0:0:0:0:
79,144,67285,2,0,P|23:144|7:142,2,50,8|2|0,0:0|0:0|0:0,0:0:0:0:
176,120,68064,1,8,0:2:0:0:
262,172,68454,6,0,P|315:185|370:176,1,99.9999999999999,4|8,0:0|0:0,0:0:0:0:
434,113,69223,2,0,P|458:169|447:228,1,99.9999999999999,0|8,1:0|0:0,0:0:0:0:
402,292,69992,1,2,0:0:0:0:
304,260,70377,2,0,P|280:204|284:149,1,99.9999999999999,8|2,0:0|0:0,0:0:0:0:
296,66,71146,1,8,0:0:0:0:
201,98,71530,6,0,P|77:102|41:90,1,150,4|12,0:2|0:0,0:0:0:0:
114,248,72684,2,0,P|206:244|280:267,1,165.0000050354,12|4,0:0|0:0,0:0:0:0:
404,160,73838,1,6,0:0:0:0:
328,84,74223,1,4,0:0:0:0:
220,112,74607,6,0,P|144:100|72:40,2,165.0000050354,4|4|4,0:0|0:0|0:0,0:0:0:0:
388,80,76338,2,0,P|384:168|408:240,1,165.0000050354,4|6,0:0|0:0,0:0:0:0:
492,312,77300,1,4,0:0:0:0:
388,348,77684,6,0,P|320:352|252:268,1,165.0000050354,4|4,0:0|0:0,0:0:0:0:
136,172,78838,2,0,P|144:256|112:328,2,165.0000050354,4|4|4,0:0|0:0|0:0,0:0:0:0:
118,66,80377,1,4,0:0:0:0:
58,152,80761,6,0,P|89:169|208:119,2,165.0000050354,4|0|8,0:0|1:0|0:0,0:0:0:0:
118,66,82300,1,0,0:0:0:0:
212,34,82684,1,8,0:0:0:0:
297,86,83069,2,0,P|329:90|401:66,1,99.9999999999999,2|12,0:0|0:0,0:0:0:0:
452,152,83838,6,0,P|460:224|488:304,2,150,0|0|0,1:0|1:0|1:0,0:0:0:0:
256,192,85377,12,0,86531,0:0:0:0:
