osu file format v14

[General]
AudioFilename: galileo.mp3
AudioLeadIn: 0
PreviewTime: 49993
Countdown: 0
SampleSet: Soft
StackLeniency: 0.7
Mode: 0
LetterboxInBreaks: 0
WidescreenStoryboard: 1

[Editor]
DistanceSpacing: 1.6
BeatDivisor: 4
GridSize: 4
TimelineZoom: 2.7

[Metadata]
Title:Climber (TV Ver.)
TitleUnicode:クライマー(TV Ver.)
Artist:Galileo Galilei
ArtistUnicode:Galileo Galilei
Creator:Trust
Version:Hard
Source:ハイキュー!! セカンドシーズン
Tags:haikyuu haikyu season 2 tv size ending umi
BeatmapID:879155
BeatmapSetID:383785

[Difficulty]
HPDrainRate:5.5
CircleSize:3.8
OverallDifficulty:5
ApproachRate:7.5
SliderMultiplier:1.5
SliderTickRate:1

[Events]
//Background and Video events
Video,0,"Haikyu!! ED.avi"
0,0,"7OhyjLO.jpg",0,0
//Break Periods
//Storyboard Layer 0 (Background)
//Storyboard Layer 1 (Fail)
//Storyboard Layer 2 (Pass)
//Storyboard Layer 3 (Foreground)
//Storyboard Sound Samples

[TimingPoints]
763,384.615384615385,4,2,0,70,1,0
955,-100,4,2,0,60,0,0
1339,-100,4,2,0,70,0,0
1532,-100,4,2,0,60,0,0
1916,-100,4,2,0,70,0,0
2109,-100,4,2,0,60,0,0
2493,-100,4,2,0,70,0,0
2686,-100,4,2,0,60,0,0
3070,-100,4,2,0,70,0,0
4032,-100,4,2,0,60,0,0
4416,-100,4,2,0,70,0,0
4609,-100,4,2,0,60,0,0
4993,-100,4,2,0,70,0,0
5186,-100,4,2,0,60,0,0
5570,-100,4,2,0,70,0,0
5763,-100,4,2,0,60,0,0
6147,-100,4,2,0,70,0,0
6339,-100,4,2,0,65,0,0
6916,-142.857142857143,4,2,0,65,0,0
7109,-142.857142857143,4,2,0,40,0,0
13070,-117.647058823529,4,2,0,40,0,0
37686,-142.857142857143,4,2,0,50,0,0
40763,-142.857142857143,4,2,0,60,0,0
43839,-117.647058823529,4,2,0,65,0,0
46916,-117.647058823529,4,2,0,70,0,0
49993,-100,4,2,0,75,0,1
59416,-100,4,2,0,55,0,1
59801,-100,4,2,0,75,0,1
60186,-100,4,2,0,55,0,1
60378,-100,4,2,0,65,0,1
60570,-100,4,2,0,55,0,1
60763,379.746835443038,4,2,0,55,1,1
60952,-100,4,2,0,75,0,1
61332,-100,4,2,0,55,0,1
61522,-100,4,2,0,75,0,1
62281,384.615384615385,4,2,0,70,1,1
62377,-100,4,2,0,75,0,1
66896,389.61038961039,4,2,0,75,1,1
68454,384.615384615385,4,2,0,75,1,1
71723,-100,4,2,0,55,0,1
72107,-100,4,2,0,75,0,1
72492,-100,4,2,0,55,0,1
72684,-100,4,2,0,65,0,1
72877,-100,4,2,0,55,0,1
73261,-100,4,2,0,75,0,1
74607,-100,4,2,0,80,0,0
74800,-100,4,2,0,60,0,0
75184,-100,4,2,0,75,0,0
75377,-100,4,2,0,60,0,0
75761,-100,4,2,0,76,0,0
75954,-100,4,2,0,60,0,0
76338,-100,4,2,0,77,0,0
76530,-100,4,2,0,60,0,0
76915,-100,4,2,0,78,0,0
77492,-100,4,2,0,70,0,0
77684,-100,4,2,0,75,0,0
77877,-100,4,2,0,60,0,0
78261,-100,4,2,0,76,0,0
78454,-100,4,2,0,60,0,0
78838,-100,4,2,0,77,0,0
79030,-100,4,2,0,60,0,0
79415,-100,4,2,0,78,0,0
79607,-100,4,2,0,60,0,0
79992,-100,4,2,0,79,0,0
80761,-142.857142857143,4,2,0,65,0,0
81338,-142.857142857143,4,2,0,55,0,0
85377,-142.857142857143,4,2,0,15,0,0
86146,-142.857142857143,4,2,0,25,0,0
86530,-142.857142857143,4,2,0,5,0,0

[Colours]
Combo1 : 75,183,241
Combo2 : 190,100,244
Combo3 : 252,255,108
Combo4 : 85,236,160

[HitObjects]
312,176,378,5,6,0:0:0:0:
312,176,763,6,0,P|380:172|404:168,2,75,4|0|0,1:2|1:0|1:0,0:0:0:0:
232,232,1339,2,0,P|164:228|140:224,2,75,4|0|0,0:0|1:0|1:0,0:0:0:0:
312,176,1916,2,0,P|308:108|304:84,2,75,4|0|0,0:0|1:0|1:0,0:0:0:0:
232,232,2493,6,0,P|236:300|240:324,2,75,4|0|0,0:0|1:0|1:0,0:0:0:0:
224,132,3070,1,4,0:0:0:0:
312,176,3263,1,0,1:0:0:0:
232,232,3455,1,4,0:0:0:0:
312,76,3839,6,0,P|376:56|416:56,2,75,4|0|0,0:0|1:0|1:0,0:0:0:0:
224,132,4416,1,4,0:0:0:0:
136,80,4609,1,0,1:0:0:0:
224,32,4801,1,0,1:0:0:0:
312,76,4993,2,0,P|328:140|324:180,1,75,4|0,0:0|1:0,0:0:0:0:
412,204,5378,5,0,1:0:0:0:
296,256,5570,2,0,P|280:320|284:360,1,75,4|0,0:0|1:0,0:0:0:0:
188,304,5955,1,0,1:0:0:0:
296,256,6147,2,0,P|363:254|392:248,1,75,4|0,0:0|1:0,0:0:0:0:
208,188,6532,2,0,P|141:190|112:196,1,75,4|0,0:0|0:0,0:0:0:0:
28,140,6916,5,4,0:0:0:0:
52,52,7109,2,0,P|61:19|61:3,2,26.2499991989136,2|0|0,0:0|0:0|1:0,0:0:0:0:
116,116,7493,2,0,P|173:107|229:79,1,104.999996795654,0|0,1:0|1:0,0:0:0:0:
284,32,8070,1,8,0:0:0:0:
364,72,8263,6,0,P|400:88|408:92,2,26.2499991989136,2|0|0,0:0|0:0|0:0,0:0:0:0:
320,148,8647,1,0,1:0:0:0:
232,136,8839,1,8,0:0:0:0:
220,224,9032,1,0,1:0:0:0:
220,224,9128,1,0,1:0:0:0:
220,224,9224,1,2,0:0:0:0:
314,237,9416,1,0,1:0:0:0:
320,148,9609,1,4,0:0:0:0:
168,304,9993,6,0,P|136:296|112:288,1,52.4999983978272,4|0,0:0|0:0,0:0:0:0:
269,162,10570,2,0,P|301:154|325:146,1,52.4999983978272,0|2,0:0|0:0,0:0:0:0:
148,80,11147,2,0,P|116:72|92:64,1,52.4999983978272,2|0,0:0|0:0,0:0:0:0:
20,20,11532,5,4,0:0:0:0:
20,20,11916,1,4,0:0:0:0:
68,192,12301,2,0,L|83:233,3,26.2499991989136,0|0|0|0,1:2|1:0|1:0|1:0,0:0:0:0:
122,222,12686,2,0,L|151:251,3,26.2499991989136,0|4|0|0,3:0|3:0|0:0|0:0,0:0:0:0:
186,212,13070,6,0,P|244:182|326:192,2,127.50000243187,4|8|0,0:0|0:0|1:0,0:0:0:0:
104,264,14032,1,0,1:0:0:0:
100,172,14224,1,8,0:0:0:0:
186,212,14416,2,0,P|192:312|186:352,1,127.50000243187,0|0,1:0|1:0,0:0:0:0:
284,264,14993,2,0,P|320:232|352:212,1,63.7500012159348,8|0,0:0|0:0,0:0:0:0:
200,220,15378,2,0,P|152:184|144:176,1,63.7500012159348,0|0,1:0|1:0,0:0:0:0:
304,204,15763,2,0,P|356:196|388:200,1,63.7500012159348,8|0,0:0|0:0,0:0:0:0:
159,163,16147,6,0,P|131:91|135:31,1,127.50000243187,2|8,0:0|0:0,0:0:0:0:
36,96,16724,2,0,P|28:164|28:188,2,63.7500012159348,0|0|0,0:0|1:0|1:0,0:0:0:0:
133,42,17301,1,8,0:0:0:0:
232,88,17493,2,0,P|296:92|360:48,1,127.50000243187,2|0,0:0|1:0,0:0:0:0:
288,136,18070,2,0,P|292:184|300:220,1,63.7500012159348,8|0,0:0|0:0,0:0:0:0:
197,197,18455,2,0,P|186:227|172:256,1,63.7500012159348,0|0,1:0|1:0,0:0:0:0:
260,284,18839,2,0,P|292:308|324:324,1,63.7500012159348,8|0,0:0|0:0,0:0:0:0:
294,199,19224,6,0,P|284:124|304:52,1,127.50000243187,2|8,0:0|0:0,0:0:0:0:
392,168,19801,2,0,P|432:144|464:116,2,63.7500012159348,0|0|0,0:0|1:0|1:0,0:0:0:0:
294,199,20378,1,8,0:0:0:0:
200,168,20570,2,0,P|144:156|60:160,1,127.50000243187,0|0,1:0|1:0,0:0:0:0:
24,84,21147,2,0,P|32:140|36:156,1,63.7500012159348,8|0,0:0|0:0,0:0:0:0:
190,231,21532,2,0,P|196:199|199:168,1,63.7500012159348,0|0,1:0|1:0,0:0:0:0:
268,96,21916,1,8,0:0:0:0:
199,167,22109,1,0,0:0:0:0:
304,188,22301,6,0,P|392:188|457:177,1,127.50000243187,2|8,0:0|0:0,0:0:0:0:
424,288,22878,2,0,P|476:284|516:288,2,63.7500012159348,0|0|0,0:0|1:0|1:0,0:0:0:0:
328,328,23455,1,8,0:0:0:0:
236,368,23647,2,0,P|184:360|116:312,1,127.50000243187,2|0,0:0|1:0,0:0:0:0:
52,200,24224,2,0,P|48:248|40:288,1,63.7500012159348,8|2,0:0|0:0,0:0:0:0:
40,276,24513,1,0,0:0:0:0:
34,289,24609,1,0,1:0:0:0:
122,319,24801,1,0,1:0:0:0:
207,272,24993,2,0,P|213:240|213:208,1,63.7500012159348,4|0,1:2|0:0,0:0:0:0:
121,171,25378,6,0,P|95:108|109:47,2,127.50000243187,4|8|0,0:0|0:0|1:0,0:0:0:0:
214,209,26339,1,0,1:0:0:0:
197,117,26532,1,8,0:0:0:0:
121,171,26724,2,0,P|123:237|138:304,1,127.50000243187,2|0,0:0|1:0,0:0:0:0:
240,340,27301,2,0,P|260:288|264:280,1,63.7500012159348,8|2,0:0|0:0,0:0:0:0:
270,268,27589,1,0,0:0:0:0:
279,255,27686,1,0,1:0:0:0:
366,216,27878,1,0,1:0:0:0:
453,260,28070,2,0,P|505:280|513:284,1,63.7500012159348,8|0,0:0|0:0,0:0:0:0:
381,201,28455,6,0,P|362:143|363:57,1,127.50000243187,2|8,0:0|0:0,0:0:0:0:
269,103,29032,1,0,0:0:0:0:
288,11,29224,2,0,P|239:22|212:24,2,63.7500012159348,0|0|8,1:0|1:0|0:0,0:0:0:0:
372,72,29801,2,0,P|429:72|499:45,1,127.50000243187,2|0,0:0|1:0,0:0:0:0:
409,153,30378,2,0,P|394:211|394:240,1,63.7500012159348,8|2,0:0|0:0,0:0:0:0:
391,232,30666,1,0,0:0:0:0:
392,252,30763,2,0,P|343:248|321:240,1,63.7500012159348,0|0,1:0|1:0,0:0:0:0:
239,197,31147,1,8,0:0:0:0:
175,277,31339,1,0,1:0:0:0:
184,290,31436,1,0,1:0:0:0:
198,305,31532,6,0,P|247:301|269:293,1,63.7500012159348,2|0,0:0|0:0,0:0:0:0:
129,363,31916,1,8,0:0:0:0:
54,303,32109,2,0,B|31:269|38:230|38:230|49:164,1,127.50000243187,2|0,0:0|1:0,0:0:0:0:
120,115,32686,1,8,0:0:0:0:
206,158,32878,2,0,P|264:168|336:132,1,127.50000243187,0|0,1:0|0:0,0:0:0:0:
372,58,33455,1,8,0:0:0:0:
428,135,33647,1,2,0:0:0:0:
428,135,33743,1,0,0:0:0:0:
428,135,33839,2,0,P|481:162|504:167,1,63.7500012159348,0|0,1:0|1:0,0:0:0:0:
325,141,34224,2,0,P|292:90|284:68,1,63.7500012159348,8|2,0:0|0:0,0:0:0:0:
191,74,34609,6,0,P|191:13|196:-10,2,63.7500012159348,0|0|8,1:0|0:0|0:0,0:0:0:0:
209,181,35186,2,0,P|163:228|94:226,1,127.50000243187,2|0,0:0|1:0,0:0:0:0:
13,182,35763,1,8,0:0:0:0:
13,182,35955,2,0,P|12:246|21:319,1,127.50000243187,2|0,0:0|1:0,0:0:0:0:
104,356,36532,1,8,0:0:0:0:
195,324,36724,1,2,0:0:0:0:
195,324,36820,1,0,0:0:0:0:
195,324,36916,2,0,L|234:309,3,31.8750006079674,4|0|0|0,1:2|0:0|1:0|0:0,0:0:0:0:
263,346,37301,2,0,L|277:318,3,31.8750006079674,0|0|0|0,1:0|0:0|1:0|0:0,0:0:0:0:
318,307,37686,6,0,P|373:268|429:274,1,104.999996795654,4|2,0:0|0:0,0:0:0:0:
480,316,38263,1,0,1:0:0:0:
484,232,38455,2,0,L|484:120,1,104.999996795654,0|2,1:0|0:0,0:0:0:0:
424,68,39032,1,0,1:0:0:0:
348,104,39224,2,0,P|287:119|230:102,1,104.999996795654,0|2,1:0|0:0,0:0:0:0:
180,57,39801,1,0,1:0:0:0:
99,79,39993,2,0,P|80:138|79:151,1,52.4999983978272,2|0,0:0|0:0,0:0:0:0:
91,257,40378,1,12,0:0:0:0:
91,257,40763,6,0,P|126:292|192:307,1,104.999996795654,4|2,0:0|0:0,0:0:0:0:
249,245,41339,1,0,0:0:0:0:
216,164,41532,2,0,L|228:44,1,104.999996795654,2|2,1:2|0:0,0:0:0:0:
136,8,42109,1,0,0:2:0:0:
136,8,42301,2,0,L|125:112,1,104.999996795654,2|2,1:2|0:0,0:0:0:0:
125,112,42878,1,0,0:0:0:0:
60,196,43070,2,0,B|84:236|84:236|76:288,1,78.7499975967408,2|0,0:0|0:0,0:0:0:0:
72,308,43455,1,4,1:2:0:0:
72,308,43647,1,0,0:0:0:0:
172,232,43839,6,0,P|212:224|200:292,1,127.50000243187,4|2,0:0|0:0,0:0:0:0:
172,232,44416,2,0,P|164:168|184:104,1,127.50000243187,0|0,0:0|0:0,0:0:0:0:
256,56,44993,1,2,0:0:0:0:
328,108,45186,2,0,P|408:112|452:88,1,127.50000243187,0|2,0:0|0:0,0:0:0:0:
404,200,45763,2,0,P|388:272|388:288,1,63.7500012159348,0|0,0:0|0:0,0:0:0:0:
312,312,46147,1,4,0:0:0:0:
188,176,46532,1,4,0:2:0:0:
312,36,46916,6,0,P|380:56|396:56,1,63.7500012159348,4|0,0:0|0:0,0:0:0:0:
306,141,47301,1,8,0:0:0:0:
306,141,47493,2,0,P|242:145|182:181,1,127.50000243187,4|0,0:2|1:0,0:0:0:0:
124,248,48070,1,8,0:0:0:0:
20,300,48263,6,0,P|36:248|32:220,1,63.7500012159348,0|0,1:0|1:0,0:0:0:0:
4,144,48647,1,8,0:0:0:0:
4,144,48839,1,8,0:0:0:0:
112,224,49032,1,0,1:0:0:0:
148,128,49224,1,0,1:0:0:0:
154,105,49320,1,0,0:0:0:0:
161,82,49416,2,0,L|173:42,2,31.8750006079674,0|0|4,0:0|0:0|1:2,0:0:0:0:
252,160,49993,6,0,P|304:148|345:124,1,75,4|0,0:0|0:0,0:0:0:0:
424,108,50378,2,0,P|424:172|428:196,1,75,8|0,0:0|0:0,0:0:0:0:
384,276,50763,2,0,P|330:249|289:239,1,75,0|0,1:0|1:0,0:0:0:0:
232,272,51147,1,8,0:0:0:0:
232,272,51339,6,0,P|176:268|176:168,1,150,0|0,1:0|1:0,0:0:0:0:
232,120,51916,1,8,0:0:0:0:
320,88,52109,2,0,P|252:88|172:32,1,150,0|0,0:0|1:0,0:0:0:0:
280,180,52686,2,0,P|296:244|296:288,1,75,8|2,0:0|0:0,0:0:0:0:
360,108,53070,6,0,P|365:70|376:35,1,75,4|0,0:0|0:0,0:0:0:0:
252,76,53455,2,0,P|216:87|179:92,1,75,8|0,0:0|0:0,0:0:0:0:
84,64,53839,1,0,1:0:0:0:
84,64,54032,1,0,1:0:0:0:
0,152,54224,2,0,L|16:228,1,75,8|0,0:0|1:0,0:0:0:0:
97,137,54609,6,0,L|81:49,1,75,2|0,0:0|1:0,0:0:0:0:
0,152,54993,1,4,0:0:0:0:
96,268,55186,2,0,L|80:354,2,75,6|0|0,0:0|0:0|1:0,0:0:0:0:
197,237,55763,1,4,0:0:0:0:
186,44,56147,6,0,P|149:51|112:52,1,75,4|0,0:0|0:0,0:0:0:0:
253,111,56532,2,0,P|291:110|328:104,1,75,8|0,0:0|0:0,0:0:0:0:
186,44,56916,1,0,1:0:0:0:
160,136,57109,1,0,1:0:0:0:
253,111,57301,2,0,P|276:56|281:19,1,75,8|0,0:0|0:0,0:0:0:0:
376,56,57686,6,0,P|426:36|472:36,1,75,2|0,0:0|1:0,0:0:0:0:
500,116,58070,1,8,0:0:0:0:
408,160,58263,2,0,P|384:212|432:292,1,150,0|0,1:0|1:0,0:0:0:0:
492,188,58839,2,0,P|504:144|492:100,1,75,8|0,0:0|0:0,0:0:0:0:
348,80,59224,6,0,P|360:36|344:-12,2,75,4|0|0,0:0|1:0|1:0,0:0:0:0:
288,172,59801,2,0,P|280:276|324:320,1,150,4|0,1:2|1:0,0:0:0:0:
164,208,60378,2,0,P|128:228|96:272,2,75,4|0|0,0:0|1:0|1:0,1:0:0:0:
288,172,60952,2,0,P|312:116|272:24,1,150,4|0,0:0|1:0,0:0:0:0:
56,56,61522,5,4,1:2:0:0:
284,35,61902,1,4,1:2:0:0:
56,56,62281,6,0,P|64:108|56:160,1,75,4|0,0:0|0:0,0:0:0:0:
32,240,62665,2,0,P|76:212|112:204,1,75,8|0,0:0|0:0,0:0:0:0:
207,175,63050,2,0,P|173:159|148:132,2,75,0|0|8,1:0|1:0|0:0,0:0:0:0:
300,216,63627,1,0,1:0:0:0:
300,216,63819,6,0,P|368:192|392:192,1,75,2|0,0:0|1:0,0:0:0:0:
469,184,64204,1,8,0:0:0:0:
405,257,64396,2,0,P|369:193|409:105,1,150,0|0,1:0|1:0,0:0:0:0:
512,47,64973,2,0,P|456:55|408:47,1,75,8|0,0:0|0:0,0:0:0:0:
348,24,65357,6,0,P|288:12|220:72,1,150,4|8,0:0|0:0,0:0:0:0:
303,99,65934,1,0,0:0:0:0:
163,140,66127,2,0,P|110:152|59:151,1,75,0|0,1:0|1:0,0:0:0:0:
254,196,66511,2,0,P|291:199|327:209,1,75,8|0,0:0|0:0,0:0:0:0:
163,245,66896,6,0,P|127:248|80:260,1,75,2|0,0:0|1:0,0:0:0:0:
0,221,67285,1,8,0:0:0:0:
133,149,67480,2,0,P|162:83|101:20,1,150,6|0,0:0|1:0,0:0:0:0:
247,36,68064,2,0,P|296:65|329:72,1,75,4|0,0:2|0:0,0:0:0:0:
404,102,68454,6,0,P|453:88|506:93,1,75,4|0,0:0|0:0,0:0:0:0:
323,156,68838,2,0,P|290:116|274:65,1,75,8|0,0:0|0:0,0:0:0:0:
408,195,69223,2,0,P|406:250|386:289,1,75,0|0,1:0|1:0,0:0:0:0:
333,340,69607,1,8,0:0:0:0:
333,340,69800,1,0,1:0:0:0:
247,292,69992,6,0,P|206:284|154:284,1,75,2|0,0:0|1:0,0:0:0:0:
79,297,70377,1,8,0:0:0:0:
154,357,70569,2,0,P|173:304|134:216,1,150,0|0,1:0|1:0,0:0:0:0:
52,175,71146,2,0,P|22:141|15:79,1,75,8|0,0:0|0:0,0:0:0:0:
32,25,71530,5,4,0:2:0:0:
124,13,71723,2,0,P|116:65|92:97,1,75,0|0,1:0|1:0,1:0:0:0:
177,141,72107,2,0,P|213:77|219:-4,1,150,4|0,0:0|1:0,0:0:0:0:
388,13,72684,6,0,P|396:65|420:97,1,75,4|0,0:0|1:0,1:0:0:0:
480,25,73069,1,0,1:0:0:0:
335,141,73261,2,0,P|299:77|293:-4,1,150,4|0,0:0|1:0,0:0:0:0:
420,179,73838,6,0,P|425:228|426:269,1,75,6|0,0:0|1:0,0:0:0:0:
512,174,74223,2,0,P|507:128|503:79,1,75,4|0,0:0|0:0,0:0:0:0:
410,59,74607,5,4,0:0:0:0:
410,59,74800,1,0,1:0:0:0:
372,142,74992,1,0,1:0:0:0:
280,65,75184,2,0,P|287:11|300:-19,1,75,4|0,0:0|1:0,0:0:0:0:
339,149,75569,1,0,1:0:0:0:
246,195,75761,2,0,P|192:188|162:175,1,75,4|0,0:0|1:0,0:0:0:0:
141,277,76146,5,0,1:0:0:0:
72,201,76338,2,0,P|51:133|51:116,1,75,4|0,0:0|1:0,0:0:0:0:
107,48,76723,1,0,1:0:0:0:
195,85,76915,2,0,P|232:84|269:77,1,75,6|0,0:0|1:0,0:0:0:0:
356,36,77300,2,0,P|423:44|463:38,1,75,4|0,0:0|0:0,0:0:0:0:
508,112,77684,6,0,L|496:205,1,75,4|0,0:0|1:0,0:0:0:0:
408,208,78069,1,0,1:0:0:0:
287,136,78261,2,0,L|306:226,1,75,4|0,0:0|1:0,0:0:0:0:
408,228,78646,1,0,1:0:0:0:
512,152,78838,2,0,L|499:261,1,75,4|0,0:0|1:0,0:0:0:0:
407,253,79223,5,0,1:0:0:0:
290,215,79415,2,0,P|227:209|181:221,1,75,4|0,0:0|1:0,0:0:0:0:
119,270,79800,1,0,1:0:0:0:
196,184,79992,2,0,P|195:131|184:100,1,75,4|0,0:0|1:0,0:0:0:0:
72,214,80377,2,0,P|90:246|119:270,1,75,4|0,0:0|0:0,0:0:0:0:
152,368,80761,5,4,0:0:0:0:
119,270,80954,1,2,0:0:0:0:
119,270,81050,1,0,0:0:0:0:
119,270,81146,1,8,0:0:0:0:
220,292,81338,2,0,P|284:289|332:257,1,104.999996795654,0|0,1:0|1:0,0:0:0:0:
408,320,81915,1,8,0:0:0:0:
470,235,82107,6,0,L|498:199,2,26.2499991989136,2|0|0,0:0|0:0|0:0,0:0:0:0:
408,320,82492,1,0,1:0:0:0:
408,320,82684,1,8,0:0:0:0:
312,272,82877,1,0,1:0:0:0:
312,272,82973,1,0,1:0:0:0:
312,272,83069,2,0,P|296:224|296:200,1,52.4999983978272,2|0,0:0|1:0,0:0:0:0:
300,124,83454,1,4,0:0:0:0:
496,80,83838,5,0,1:0:0:0:
461,177,84030,2,0,L|449:217,2,26.2499991989136,2|0|8,0:0|0:0|0:0,0:0:0:0:
400,100,84415,2,0,P|348:100|288:140,1,104.999996795654,0|0,1:0|1:0,0:0:0:0:
232,248,84992,2,0,P|240:216|236:184,1,52.4999983978272,0|0,1:0|0:0,0:0:0:0:
256,192,85377,12,0,86531,0:0:0:0:
