osu file format v14

[General]
AudioFilename: audio.mp3
AudioLeadIn: 0
PreviewTime: 211051
Countdown: 0
SampleSet: Soft
StackLeniency: 0.5
Mode: 0
LetterboxInBreaks: 0
WidescreenStoryboard: 0

[Editor]
Bookmarks: 8244
DistanceSpacing: 0.7
BeatDivisor: 4
GridSize: 4
TimelineZoom: 2.4

[Metadata]
Title:Circle Game
TitleUnicode:サークルゲーム
Artist:Galileo Galilei
ArtistUnicode:Galileo Galilei
Creator:NeKroMan4ik
Version:I love you <3
Source:劇場版 あの日見た花の名前を僕達はまだ知らない。
Tags:Ano Hi Mita Hana no Namae wo Bokutachi wa Mada Shiranai. Movie The Flower We Saw That Day anohana ending ed japanese anime full version ver jpop pop gekijou ban We Still Don't Know Name of
BeatmapID:3389921
BeatmapSetID:1660505

[Difficulty]
HPDrainRate:5
CircleSize:4.5
OverallDifficulty:6
ApproachRate:8
SliderMultiplier:1.4
SliderTickRate:1

[Events]
//Background and Video events
0,0,"FHnMxnKaMAIyMtj.jpg",0,0
//Break Periods
//Storyboard Layer 0 (Background)
//Storyboard Layer 1 (Fail)
//Storyboard Layer 2 (Pass)
//Storyboard Layer 3 (Foreground)
//Storyboard Layer 4 (Overlay)
//Storyboard Sound Samples

[TimingPoints]
440,487.80487804878,4,2,1,40,1,0
8244,-111.111111111111,4,2,1,40,0,0
23854,-90.9090909090909,4,2,1,60,0,0
34586,-80,4,2,1,60,0,0
35561,-90.9090909090909,4,2,1,60,0,0
39464,-100,4,2,1,50,0,0
54098,-80,4,2,1,50,0,0
55074,-66.6666666666667,4,2,1,50,0,0
55561,-100,4,2,1,50,0,0
69708,-66.6666666666667,4,2,1,50,0,0
70196,-55.5555555555556,4,2,1,50,0,0
70683,-100,4,2,1,50,0,0
77513,-80,4,2,1,50,0,0
78488,-100,4,2,1,50,0,0
85318,-100,4,2,1,60,0,0
86293,-86.9565217391304,4,2,1,70,0,0
93122,-80,4,2,1,70,0,0
93610,-50,4,2,1,70,0,0
94098,-86.9565217391304,4,2,1,70,0,0
99952,-80,4,2,1,70,0,0
101415,-66.6666666666667,4,2,1,70,0,0
101903,-86.9565217391304,4,2,1,70,0,0
109220,-80,4,2,1,70,0,0
109708,-86.9565217391304,4,2,1,70,0,0
113610,-74.0740740740741,4,2,1,70,0,0
114098,-86.9565217391304,4,2,1,70,0,0
115561,-74.0740740740741,4,2,1,70,0,0
116537,-80,4,2,1,70,0,0
123366,-111.111111111111,4,2,1,45,0,0
129281,-111.111111111111,4,2,1,5,0,0
129708,-111.111111111111,4,2,1,45,0,0
133122,-100,4,2,1,50,0,0
140439,-80,4,2,1,50,0,0
140927,-74.0740740740741,4,2,1,50,0,0
141415,-100,4,2,1,50,0,0
148732,-71.4285714285714,4,2,2,65,0,0
164342,-76.9230769230769,4,2,2,65,0,0
179464,-62.5,4,2,2,65,0,0
179952,-76.9230769230769,4,2,2,65,0,0
194586,-62.5,4,2,2,65,0,0
195561,-100,4,2,1,50,0,0
202391,-80,4,2,1,50,0,0
203366,-100,4,2,1,50,0,0
210196,-100,4,2,1,60,0,0
211171,-86.9565217391304,4,2,1,70,0,0
218000,-80,4,2,1,70,0,0
218976,-86.9565217391304,4,2,1,70,0,0
224830,-80,4,2,1,70,0,0
226781,-86.9565217391304,4,2,1,70,0,0
227757,-80,4,2,1,70,0,0
228488,-86.9565217391304,4,2,1,70,0,0
229708,-80,4,2,1,70,0,0
231171,-86.9565217391304,4,2,1,70,0,0
231659,-80,4,2,1,70,0,0
232147,-86.9565217391304,4,2,1,70,0,0
237269,-80,4,2,1,70,0,0
238000,-86.9565217391304,4,2,1,70,0,0
238488,-71.4285714285714,4,2,1,70,0,0
238976,-80,4,2,1,70,0,0
239952,-86.9565217391304,4,2,1,70,0,0
240439,-74.0740740740741,4,2,1,70,0,0
241415,-80,4,2,1,70,0,0
242391,-90.9090909090909,4,2,1,60,0,0
257025,-80,4,2,1,60,0,0
258000,-90.9090909090909,4,2,1,60,0,0
273610,-181.818181818182,4,2,1,50,0,0

[Colours]
Combo1 : 244,119,172
Combo2 : 239,199,209
Combo3 : 237,224,209

[HitObjects]
29,117,8000,37,0,0:0:0:0:
101,155,8244,2,0,P|131:146|162:141,1,62.9999980773926,2|0,1:0|0:0,0:0:0:0:
274,31,8732,2,0,P|243:39|212:44,1,62.9999980773926,2|0,0:2|0:0,0:0:0:0:
367,98,9220,2,0,P|411:85|422:28,1,94.499997116089,2|0,0:0|0:0,0:0:0:0:
414,22,9708,1,2,0:0:0:0:
504,150,9952,1,2,0:0:0:0:
424,235,10196,6,0,P|405:271|408:315,1,62.9999980773926,2|0,1:0|0:0,0:0:0:0:
337,192,10683,1,2,0:0:0:0:
489,296,10927,1,2,0:0:0:0:
327,359,11171,2,0,P|289:369|253:390,1,62.9999980773926,2|0,0:0|0:0,0:0:0:0:
71,363,11659,1,2,0:0:0:0:
170,307,11903,1,2,0:0:0:0:
71,363,12147,6,0,L|83:252,1,94.499997116089,2|0,0:1|0:0,0:0:0:0:
85,246,12635,1,2,0:0:0:0:
180,137,12879,1,2,0:0:0:0:
119,65,13122,2,0,B|98:39|65:39|65:39|44:73|4:68,1,125.999996154785,2|0,0:0|0:1,0:0:0:0:
247,203,14098,2,0,P|301:185|360:183,1,94.499997116089,2|0,0:0|0:0,0:0:0:0:
364,174,14586,5,2,0:0:0:0:
328,89,14830,1,2,0:0:0:0:
419,100,15074,1,2,0:0:0:0:
424,322,15561,5,2,0:0:0:0:
463,257,15805,1,2,1:2:0:0:
499,323,16049,6,0,P|422:294|354:303,1,125.999996154785,2|2,1:0|0:0,0:0:0:0:
463,257,16781,1,2,0:0:0:0:
322,372,17025,2,0,P|280:311|309:256,1,125.999996154785,2|2,0:0|0:0,0:0:0:0:
362,210,17757,1,2,0:0:0:0:
238,334,18000,6,0,P|200:341|167:357,1,62.9999980773926,2|0,0:1|0:0,0:0:0:0:
32,224,18488,1,2,0:0:0:0:
122,185,18732,1,2,0:0:0:0:
52,384,18976,2,0,P|39:343|48:316,1,62.9999980773926,2|0,0:0|0:0,0:0:0:0:
122,185,19464,5,2,0:0:0:0:
83,95,19708,1,2,0:0:0:0:
15,3,19952,6,0,L|108:18,1,94.499997116089,2|0,0:1|0:0,0:0:0:0:
132,27,20439,5,2,0:0:0:0:
238,27,20683,1,2,0:0:0:0:
180,106,20927,1,2,0:0:0:0:
43,318,21415,5,2,0:0:0:0:
32,224,21659,1,2,0:0:0:0:
137,358,21903,1,2,0:0:0:0:
341,323,22391,5,2,0:0:0:0:
410,271,22635,1,2,0:0:0:0:
495,283,22879,1,2,0:0:0:0:
436,384,23122,5,4,0:0:0:0:
466,171,23366,1,8,0:0:0:0:
489,130,23487,1,8,0:0:0:0:
466,89,23610,1,8,0:0:0:0:
489,48,23732,1,8,0:0:0:0:
466,7,23854,6,0,P|430:21|366:34,1,77.0000023498536,4|0,1:0|0:0,0:0:0:0:
230,201,24342,2,0,P|267:210|303:224,1,77.0000023498536,10|0,0:0|1:0,0:0:0:0:
459,258,24830,2,0,P|476:220|461:158,1,77.0000023498536,10|0,0:0|1:0,0:0:0:0:
256,0,25318,2,0,P|273:38|258:100,1,77.0000023498536,10|0,0:0|1:0,0:0:0:0:
75,219,25805,6,0,L|-30:201,1,77.0000023498536,2|0,1:2|1:0,0:0:0:0:
217,318,26293,2,0,L|322:336,1,77.0000023498536,10|0,0:2|1:0,0:0:0:0:
128,374,26781,5,10,0:0:0:0:
165,163,27025,1,2,1:2:0:0:
169,303,27269,5,10,0:0:0:0:
123,234,27513,1,2,1:2:0:0:
336,237,27757,5,2,1:2:0:0:
325,329,28000,1,2,1:2:0:0:
411,292,28244,1,10,0:0:0:0:
486,348,28488,1,0,1:0:0:0:
400,384,28732,5,10,0:0:0:0:
497,255,28976,1,0,1:0:0:0:
329,126,29220,1,10,0:0:0:0:
250,274,29464,1,0,1:0:0:0:
421,199,29708,6,0,P|427:157|430:119,1,77.0000023498536,2|0,1:2|1:0,0:0:0:0:
250,0,30196,2,0,P|244:42|241:80,1,77.0000023498536,10|0,0:2|1:0,0:0:0:0:
117,214,30683,5,10,0:0:0:0:
0,54,30927,1,2,1:2:0:0:
121,99,31171,1,10,0:0:0:0:
2,311,31415,1,4,1:2:0:0:
1,321,31537,1,2,0:0:0:0:
0,333,31659,6,0,P|41:331|77:295,1,77.0000023498536,2|0,1:2|1:0,0:0:0:0:
239,169,32147,2,0,P|220:205|233:254,1,77.0000023498536,10|0,0:2|1:0,0:0:0:0:
410,384,32635,2,0,P|428:347|415:298,1,77.0000023498536,10|0,0:2|1:0,0:0:0:0:
214,377,33122,2,0,P|277:356|321:354,1,77.0000023498536,10|0,0:0|1:0,0:0:0:0:
463,209,33610,6,0,P|407:194|399:128,1,115.50000352478,2|0,1:2|0:0,0:0:0:0:
367,62,34098,2,0,P|407:69|450:79,1,77.0000023498536,10|0,0:0|1:0,0:0:0:0:
215,144,34586,6,0,P|213:128|217:144,1,43.75,10|0,0:0|0:0,0:0:0:0:
108,37,34830,6,0,P|106:53|110:37,1,43.75,2|0,1:2|0:0,0:0:0:0:
57,161,35074,6,0,P|65:200|78:233,1,43.75,10|0,0:0|0:0,0:0:0:0:
186,358,35318,6,0,P|194:319|207:286,1,43.75,2|0,1:2|0:0,0:0:0:0:
15,358,35561,5,2,1:2:0:0:
15,358,35805,1,2,1:2:0:0:
15,358,36049,2,0,P|62:345|73:317,1,77.0000023498536,10|0,0:0|1:0,0:0:0:0:
257,219,36537,2,0,P|220:207|163:202,1,77.0000023498536,10|0,0:0|1:0,0:0:0:0:
0,18,37025,2,0,P|38:12|74:0,1,77.0000023498536,10|0,0:0|1:0,0:0:0:0:
37,216,37513,6,0,P|44:178|59:142,1,77.0000023498536,2|0,1:2|1:0,0:0:0:0:
210,0,38000,2,0,P|217:38|232:74,1,77.0000023498536,10|0,0:2|1:0,0:0:0:0:
182,202,38488,1,10,0:0:0:0:
86,33,38732,1,4,1:2:0:0:
339,23,38976,5,8,0:0:0:0:
377,18,39098,1,8,0:0:0:0:
411,36,39220,1,8,0:0:0:0:
431,68,39342,1,8,0:0:0:0:
430,106,39464,6,0,P|418:156|415:205,1,70,4|0,1:0|1:0,0:0:0:0:
495,352,39952,2,0,P|515:307|477:261,1,105,10|0,0:0|0:0,0:0:0:0:
469,262,40439,2,0,P|436:275|402:283,1,70,10|2,0:0|1:2,0:0:0:0:
244,217,40927,1,10,0:0:0:0:
319,365,41171,1,2,1:2:0:0:
158,311,41415,6,0,L|70:330,1,70,2|0,1:2|1:0,0:0:0:0:
24,272,41903,5,10,0:0:0:0:
65,106,42147,1,2,1:2:0:0:
101,186,42391,5,10,0:0:0:0:
29,26,42635,1,2,1:2:0:0:
204,95,42879,5,10,0:0:0:0:
288,118,43122,1,2,1:2:0:0:
349,56,43366,2,0,L|338:-29,1,70,2|0,1:2|1:0,0:0:0:0:
501,130,43854,6,0,P|466:139|421:158,1,70,10|0,0:0|1:0,0:0:0:0:
275,262,44342,2,0,P|310:271|355:290,1,70,10|0,0:0|1:0,0:0:0:0:
480,384,44830,2,0,P|511:335|490:308,1,70,10|0,0:0|1:0,0:0:0:0:
350,186,45318,1,2,1:2:0:0:
350,186,45805,6,0,L|250:206,1,70,10|0,0:0|1:0,0:0:0:0:
124,359,46293,2,0,P|159:348|194:341,1,70,10|0,0:0|1:0,0:0:0:0:
10,198,46781,5,8,0:0:0:0:
98,245,47025,1,4,1:2:0:0:
34,374,47269,5,0,1:0:0:0:
15,307,47513,1,2,1:2:0:0:
96,134,47757,1,10,0:0:0:0:
77,67,48001,1,0,1:2:0:0:
176,169,48244,6,0,P|230:156|266:161,1,70,10|0,0:0|1:0,0:0:0:0:
58,0,48732,2,0,P|24:11|-9:12,1,70,8|2,0:0|1:2,0:0:0:0:
86,100,49220,5,0,1:2:0:0:
86,100,49708,2,0,P|79:134|78:182,1,70,10|0,0:0|1:0,0:0:0:0:
244,361,50196,2,0,P|251:327|252:279,1,70,10|0,0:0|1:0,0:0:0:0:
51,316,50683,2,0,L|127:303,1,70,10|0,0:0|1:0,0:0:0:0:
243,156,51171,6,0,P|289:187|353:194,1,105,2|0,1:2|0:0,0:0:0:0:
364,208,51659,2,0,L|354:160,1,35,10|0,0:0|0:0,0:0:0:0:
474,268,51903,2,0,L|461:361,1,70,2|8,1:2|0:0,0:0:0:0:
252,291,52391,6,0,L|242:243,1,35,2|0,1:2|0:0,0:0:0:0:
326,353,52635,1,8,0:0:0:0:
437,106,52879,2,0,L|430:147,1,35,2|0,1:2|0:0,0:0:0:0:
366,58,53122,5,2,1:2:0:0:
512,0,53366,1,2,1:2:0:0:
364,208,53610,1,10,0:0:0:0:
283,1,53854,1,2,1:2:0:0:
474,132,54098,6,0,P|484:143|475:130,1,43.75,8|0,0:0|0:0,0:0:0:0:
364,208,54342,6,0,P|363:222|366:207,1,43.75,2|0,1:2|0:0,0:0:0:0:
232,183,54586,6,0,P|221:193|234:184,1,43.75,10|0,0:0|0:0,0:0:0:0:
156,71,54830,6,0,P|141:70|156:73,1,43.75,2|0,1:2|0:0,0:0:0:0:
243,99,55074,6,0,B|158:75|176:142|58:126,1,157.500006008148,4|0,1:0|0:0,0:0:0:0:
26,75,55561,2,0,P|35:32|36:-2,1,70,10|0,0:0|1:0,0:0:0:0:
119,216,56049,5,10,0:0:0:0:
149,331,56293,1,2,1:2:0:0:
35,363,56537,1,10,0:2:0:0:
3,247,56781,1,2,1:2:0:0:
169,347,57025,6,0,P|202:353|242:362,1,70,2|0,1:2|1:0,0:0:0:0:
487,191,57513,2,0,P|459:211|424:212,1,70,10|0,0:2|1:0,0:0:0:0:
302,159,58000,5,10,0:0:0:0:
343,314,58244,1,2,1:2:0:0:
299,150,58488,1,10,0:0:0:0:
346,324,58732,1,2,1:2:0:0:
376,85,58976,6,0,P|382:50|393:17,1,70,2|0,1:2|1:0,0:0:0:0:
209,221,59464,2,0,P|202:180|188:142,1,70,10|0,0:0|1:0,0:0:0:0:
4,48,59952,2,0,P|51:53|89:14,1,105,10|0,0:0|0:0,0:0:0:0:
83,0,60439,2,0,L|71:81,1,70,10|0,0:0|1:0,0:0:0:0:
0,236,60927,2,0,L|-10:166,1,70,2|0,1:2|1:0,0:0:0:0:
156,238,61415,5,10,0:0:0:0:
174,322,61659,1,2,1:2:0:0:
95,171,61903,5,10,0:0:0:0:
245,374,62147,1,2,1:2:0:0:
43,326,62391,1,10,0:0:0:0:
217,165,62635,1,2,1:2:0:0:
328,286,62879,5,0,1:2:0:0:
328,286,63122,1,2,1:2:0:0:
328,286,63366,2,0,P|365:294|402:316,1,70,10|0,0:0|1:0,0:0:0:0:
394,134,63854,2,0,P|414:165|425:207,1,70,10|0,0:0|1:0,0:0:0:0:
512,35,64342,2,0,P|503:71|481:109,1,70,8|2,0:0|1:2,0:0:0:0:
313,195,64830,6,0,P|266:169|166:161,1,140,2|8,1:2|0:0,0:0:0:0:
271,59,65561,1,2,1:2:0:0:
224,258,65805,1,10,0:2:0:0:
271,59,66049,1,2,1:2:0:0:
224,258,66293,1,10,0:0:0:0:
94,141,66537,5,0,1:2:0:0:
25,91,66781,2,0,P|12:51|38:3,1,70,2|0,1:2|1:0,0:0:0:0:
181,158,67269,1,10,0:0:0:0:
79,296,67513,2,0,P|40:279|-9:301,1,70,2|8,1:2|0:0,0:0:0:0:
181,158,68000,2,0,L|263:170,1,70,2|8,1:2|0:0,0:0:0:0:
346,338,68488,5,0,1:0:0:0:
371,266,68732,1,2,1:2:0:0:
447,253,68976,1,2,1:2:0:0:
497,312,69220,1,10,0:0:0:0:
470,384,69464,1,2,1:2:0:0:
360,168,69708,6,0,P|354:151|363:167,1,52.5000020027161,10|0,0:0|0:0,0:0:0:0:
507,34,69952,6,0,P|513:17|504:33,1,52.5000020027161,2|0,1:2|0:0,0:0:0:0:
499,126,70196,6,0,B|419:118|434:31|309:66,1,188.999994232178,14|0,0:0|0:0,0:0:0:0:
255,21,70683,6,0,P|290:55|263:165,1,140,4|8,1:0|0:0,0:0:0:0:
196,308,71415,1,2,0:0:0:0:
206,300,71537,1,8,0:0:0:0:
213,294,71659,2,0,P|216:259|200:229,1,70,2|0,1:2|1:0,0:0:0:0:
123,147,72147,2,0,L|37:134,1,70,8|2,0:0|1:2,0:0:0:0:
168,378,72635,6,0,P|221:333|308:345,1,140,2|8,1:2|0:0,0:0:0:0:
459,285,73366,1,2,0:0:0:0:
466,291,73488,1,8,0:0:0:0:
473,297,73610,2,0,P|493:332|486:373,1,70,2|0,1:2|1:0,0:0:0:0:
361,242,74098,1,8,0:0:0:0:
475,91,74342,2,0,L|469:125,1,35,2|2,1:2|0:0,0:0:0:0:
367,125,74586,5,2,1:2:0:0:
349,31,74830,1,2,0:2:0:0:
359,126,75074,1,10,0:0:0:0:
340,34,75318,1,2,0:0:0:0:
448,56,75561,5,2,1:2:0:0:
260,98,75805,1,2,1:2:0:0:
448,56,76049,1,10,0:0:0:0:
251,107,76293,6,0,L|149:93,1,70,2|2,1:2|1:2,0:0:0:0:
103,227,76781,1,2,0:0:0:0:
11,19,77025,2,0,P|27:58|12:100,1,70,10|2,0:0|0:0,0:0:0:0:
0,155,77391,1,8,0:0:0:0:
6,162,77513,6,0,L|19:219,1,43.75,2|0,1:2|0:0,0:0:0:0:
102,286,77757,2,0,P|106:260|115:229,1,43.75,2|0,1:2|0:0,0:0:0:0:
2,377,78000,6,0,L|51:366,1,43.75,10|0,0:0|0:0,0:0:0:0:
240,296,78244,2,0,L|197:286,1,43.75,2|0,1:2|0:0,0:0:0:0:
338,373,78488,6,0,B|413:361|413:361|437:384|487:386,1,140,6|8,1:2|0:0,0:0:0:0:
483,123,79342,1,8,0:0:0:0:
490,132,79464,2,0,P|499:188|509:225,1,70,2|0,1:2|1:0,0:0:0:0:
307,83,79952,2,0,P|298:27|288:-10,1,70,8|2,0:2|1:2,0:0:0:0:
490,33,80439,6,0,P|423:57|394:147,2,140,2|10|2,1:2|0:0|1:2,0:0:0:0:
258,228,81903,2,0,L|206:222,1,35,10|0,0:0|0:0,0:0:0:0:
159,273,82147,2,0,L|107:267,1,35,2|0,1:2|0:0,0:0:0:0:
40,306,82391,6,0,P|21:218|-9:161,1,140,6|8,1:2|0:0,0:0:0:0:
83,0,83123,1,2,0:0:0:0:
73,8,83245,1,8,0:0:0:0:
66,14,83367,2,0,P|63:49|79:79,1,70,2|0,1:2|1:0,0:0:0:0:
169,142,83854,2,0,P|213:127|253:127,1,70,8|2,0:0|1:2,0:0:0:0:
379,0,84342,5,2,1:2:0:0:
180,37,84586,1,2,0:0:0:0:
217,236,84830,1,10,0:0:0:0:
416,199,85074,1,2,0:0:0:0:
498,107,85318,6,0,L|407:96,1,70,6|0,1:2|1:0,0:0:0:0:
115,363,85805,2,0,P|149:358|184:354,1,70,14|0,0:2|1:0,0:0:0:0:
261,337,86171,1,8,0:0:0:0:
271,328,86293,6,0,P|274:287|247:246,1,80.5000015354157,4|0,1:0|0:0,0:0:0:0:
442,19,86781,2,0,P|433:58|428:109,1,80.5000015354157,10|0,3:2|0:0,0:0:0:0:
367,161,87147,1,8,0:0:0:0:
362,168,87269,6,0,L|299:156,1,40.2500007677078,2|0,1:3|0:0,0:0:0:0:
232,103,87513,2,0,L|192:110,1,40.2500007677078,2|0,1:2|0:0,0:0:0:0:
119,169,87757,1,10,3:2:0:0:
0,75,88000,2,0,P|-9:40|5:-1,1,80.5000015354157,2|2,1:2|1:3,0:0:0:0:
119,169,88488,6,0,L|107:259,1,80.5000015354157,2|8,0:0|3:2,0:0:0:0:
0,384,88976,2,0,P|-16:344|12:311,1,80.5000015354157,2|2,0:0|1:3,0:0:0:0:
210,271,89464,5,2,1:2:0:0:
13,176,89708,1,10,3:2:0:0:
232,103,89952,1,2,1:2:0:0:
93,356,90196,1,2,1:3:0:0:
93,356,90683,6,0,P|138:343|179:346,1,80.5000015354157,10|0,3:2|0:0,0:0:0:0:
251,316,91049,1,8,0:0:0:0:
260,308,91171,2,0,P|278:260|265:215,1,80.5000015354157,2|0,1:3|1:0,0:0:0:0:
199,37,91659,1,10,3:2:0:0:
397,181,91903,1,2,1:2:0:0:
186,254,92147,6,0,P|149:246|106:241,1,80.5000015354157,2|0,1:3|0:0,0:0:0:0:
365,41,92635,2,0,P|402:49|444:53,1,80.5000015354157,10|0,3:2|0:0,0:0:0:0:
385,133,93000,1,8,0:0:0:0:
390,141,93122,6,0,L|397:185,1,43.75,2|0,1:3|0:0,0:0:0:0:
484,276,93366,2,0,L|491:232,1,43.75,2|0,1:2|0:0,0:0:0:0:
415,365,93610,6,0,B|409:325|352:274|295:303|295:303|340:308|358:365,1,210,14|0,0:2|0:0,0:0:0:0:
279,379,94098,6,0,L|187:368,1,80.5000015354157,4|2,1:0|0:0,0:0:0:0:
76,247,94586,1,10,3:2:0:0:
155,136,94830,2,0,P|179:178|165:235,1,80.5000015354157,2|2,0:0|1:3,0:0:0:0:
22,384,95318,2,0,P|-2:341|11:284,1,80.5000015354157,2|10,1:2|3:2,0:0:0:0:
76,247,95805,1,2,1:2:0:0:
0,85,96049,6,0,P|58:134|142:125,1,161.000003070831,2|10,1:3|3:2,0:0:0:0:
279,3,96781,1,2,0:0:0:0:
276,10,96903,1,8,0:0:0:0:
273,17,97025,2,0,P|266:59|269:109,1,80.5000015354157,2|0,1:3|1:0,0:0:0:0:
421,285,97513,2,0,P|428:243|425:193,1,80.5000015354157,8|2,3:2|1:2,0:0:0:0:
472,368,98000,6,0,P|424:324|306:356,1,161.000003070831,6|10,1:2|3:2,0:0:0:0:
58,210,98732,2,0,P|138:219|222:228,1,161.000003070831,2|2,0:0|1:2,0:0:0:0:
151,105,99464,1,8,3:2:0:0:
124,327,99708,1,2,1:2:0:0:
151,105,99952,6,0,P|144:56|126:0,1,87.5,2|2,1:3|0:0,0:0:0:0:
438,213,100439,2,0,P|444:261|462:317,1,87.5,10|2,3:2|0:0,0:0:0:0:
310,279,100927,5,2,1:3:0:0:
266,51,101171,1,0,1:0:0:0:
334,109,101415,6,0,L|321:175,1,52.5000020027161,14|0,0:0|0:0,0:0:0:0:
247,334,101659,1,0,1:0:0:0:
226,359,101781,1,8,0:0:0:0:
229,384,101903,6,0,P|188:375|136:371,1,80.5000015354157,4|0,1:0|0:0,0:0:0:0:
0,192,102391,2,0,P|39:187|83:161,1,80.5000015354157,10|0,3:2|0:0,0:0:0:0:
41,316,102879,1,2,1:3:0:0:
220,155,103122,1,2,1:2:0:0:
23,50,103366,1,8,3:2:0:0:
141,0,103610,6,0,L|127:99,1,80.5000015354157,2|2,1:2|1:3,0:0:0:0:
295,295,104098,2,0,P|312:250|291:205,1,80.5000015354157,2|8,0:0|3:2,0:0:0:0:
418,107,104586,2,0,P|465:116|501:136,1,80.5000015354157,2|2,0:0|1:3,0:0:0:0:
248,0,105074,6,0,L|257:59,1,40.2500007677078,2|0,1:2|0:0,0:0:0:0:
320,135,105318,2,0,P|323:112|328:91,1,40.2500007677078,10|0,3:2|0:0,0:0:0:0:
211,186,105561,6,0,L|220:245,1,40.2500007677078,2|0,1:2|0:0,0:0:0:0:
295,295,105805,1,2,1:3:0:0:
295,295,106293,6,0,P|341:311|394:306,1,80.5000015354157,10|0,3:2|0:0,0:0:0:0:
446,281,106659,1,8,0:0:0:0:
453,289,106781,2,0,P|472:332|463:392,1,80.5000015354157,2|0,1:3|1:0,0:0:0:0:
299,208,107269,1,10,3:2:0:0:
418,107,107513,2,0,P|460:117|502:124,1,80.5000015354157,2|2,1:2|1:3,0:0:0:0:
441,192,107879,1,2,0:0:0:0:
438,201,108000,5,2,0:0:0:0:
251,96,108244,1,10,3:2:0:0:
405,16,108488,1,2,0:0:0:0:
259,229,108732,2,0,P|217:219|175:212,1,80.5000015354157,2|0,1:3|1:0,0:0:0:0:
4,149,109220,6,0,P|18:130|23:89,1,43.75,10|0,3:2|0:0,0:0:0:0:
108,30,109464,2,0,P|122:49|127:90,1,43.75,2|0,1:2|0:0,0:0:0:0:
0,0,109708,5,4,1:2:0:0:
103,157,109952,1,2,0:0:0:0:
0,347,110196,1,10,3:2:0:0:
97,384,110439,2,0,L|84:300,1,80.5000015354157,2|2,0:0|1:3,0:0:0:0:
283,294,110927,1,0,1:0:0:0:
233,148,111171,2,0,L|220:232,1,80.5000015354157,8|2,3:2|1:2,0:0:0:0:
343,362,111659,6,0,P|409:331|470:343,1,120.750002303124,2|0,1:3|0:0,0:0:0:0:
512,282,112147,1,10,3:2:0:0:
352,105,112391,1,2,0:0:0:0:
356,112,112513,1,8,0:0:0:0:
359,120,112635,2,0,P|340:155|359:199,1,80.5000015354157,2|2,1:3|1:2,0:0:0:0:
512,71,113122,6,0,B|533:55|529:4|489:-10|489:-10|472:0,1,120.750002303124,10|0,3:2|0:0,0:0:0:0:
415,57,113610,6,0,B|335:91|327:6|220:49,1,189.000000720978,4|10,1:0|3:2,0:0:0:0:
33,36,114342,5,2,0:0:0:0:
29,27,114464,1,8,0:0:0:0:
25,16,114586,1,2,1:3:0:0:
198,163,114830,1,0,1:2:0:0:
30,305,115074,2,0,L|11:212,1,80.5000015354157,8|2,3:2|1:2,0:0:0:0:
190,344,115561,6,0,P|180:353|196:347,1,47.2500001802444,2|0,1:3|0:0,0:0:0:0:
331,226,115805,2,0,P|340:216|324:222,1,47.2500001802444,2|0,0:0|0:0,0:0:0:0:
198,163,116049,6,0,P|205:189|206:242,1,47.2500001802444,10|0,3:2|0:0,0:0:0:0:
338,380,116293,2,0,P|331:354|337:303,1,47.2500001802444,2|0,0:2|0:0,0:0:0:0:
433,183,116537,6,0,L|418:81,1,87.5,2|0,1:3|1:0,0:0:0:0:
409,86,116903,1,2,0:0:0:0:
392,74,117025,5,10,3:2:0:0:
512,124,117269,1,2,1:2:0:0:
254,286,117513,1,4,1:0:0:0:
256,192,117635,12,0,123366,0:2:0:0:
344,107,124830,5,8,0:0:0:0:
482,271,125074,1,2,1:0:0:0:
492,254,125196,1,2,0:1:0:0:
478,218,125318,6,0,P|407:228|349:263,1,125.999996154785,4|8,1:2|0:0,0:0:0:0:
171,368,126171,1,8,0:0:0:0:
189,346,126293,2,0,L|197:296,1,31.4999990386963,2|0,1:2|0:0,0:0:0:0:
111,264,126537,2,0,L|116:295,1,31.4999990386963,2|0,1:2|0:0,0:0:0:0:
58,354,126781,2,0,P|26:365|-11:387,1,62.9999980773926,8|0,0:0|1:0,0:0:0:0:
114,163,127269,6,0,P|173:195|237:212,1,125.999996154785,2|8,1:2|0:0,0:0:0:0:
493,372,128122,1,8,0:0:0:0:
481,360,128244,2,0,P|476:345|472:329,1,31.4999990386963,2|0,1:2|0:0,0:0:0:0:
390,331,128488,2,0,P|394:345|398:361,1,31.4999990386963,2|0,1:2|0:0,0:0:0:0:
429,256,128732,1,8,0:0:0:0:
261,353,128976,5,2,1:0:0:0:
224,383,129098,1,2,0:1:0:0:
196,373,129220,2,0,L|199:349,1,15.7499995193482,2|0,1:0|0:0,0:0:0:0:
93,6,130074,5,8,0:0:0:0:
79,1,130196,2,0,P|52:22|63:62,1,62.9999980773926,2|2,1:2|1:2,0:0:0:0:
143,134,130683,2,0,P|170:112|159:73,1,62.9999980773926,10|2,0:2|1:2,0:0:0:0:
59,174,131171,6,0,P|118:173|167:225,1,125.999996154785,2|8,1:2|0:0,0:0:0:0:
313,150,132025,1,8,0:0:0:0:
317,163,132147,2,0,P|337:177|356:178,1,31.4999990386963,2|0,1:2|0:0,0:0:0:0:
411,220,132391,2,0,P|431:206|450:205,1,31.4999990386963,2|0,1:2|0:0,0:0:0:0:
512,162,132635,1,10,0:0:0:0:
464,309,132879,1,2,1:2:0:0:
412,120,133122,5,4,1:0:0:0:
412,120,133366,1,2,0:0:0:0:
412,120,133610,2,0,L|399:46,1,70,10|0,0:0|0:0,0:0:0:0:
392,36,133976,1,8,0:0:0:0:
403,22,134098,2,0,P|435:37|476:44,1,70,2|0,1:2|1:0,0:0:0:0:
317,163,134586,1,10,0:0:0:0:
233,28,134830,1,2,1:2:0:0:
97,111,135074,6,0,L|7:124,1,70,2|0,1:2|0:0,0:0:0:0:
139,31,135561,1,10,0:0:0:0:
86,214,135805,1,2,0:0:0:0:
88,223,135927,1,10,0:0:0:0:
90,231,136049,2,0,P|86:265|77:321,1,70,2|0,1:2|1:0,0:0:0:0:
176,272,136537,1,10,0:0:0:0:
1,252,136781,1,2,1:2:0:0:
67,384,137025,5,2,1:2:0:0:
230,211,137269,1,2,0:0:0:0:
82,149,137513,1,10,0:0:0:0:
219,348,137757,1,2,0:0:0:0:
225,353,137879,1,8,0:0:0:0:
231,358,138000,2,0,P|265:348|307:347,1,70,2|0,1:2|1:0,0:0:0:0:
481,341,138488,5,8,0:0:0:0:
379,238,138732,1,2,1:2:0:0:
486,349,138976,1,2,1:2:0:0:
394,30,139464,5,8,0:0:0:0:
493,144,139708,1,2,0:0:0:0:
502,125,139830,1,8,0:0:0:0:
491,107,139952,6,0,L|433:122,1,35,2|0,1:2|0:0,0:0:0:0:
398,178,140196,2,0,L|340:163,1,35,2|0,1:2|0:0,0:0:0:0:
268,151,140439,6,0,L|282:219,1,43.75,10|0,0:0|0:0,0:0:0:0:
326,76,140683,1,0,1:0:0:0:
246,267,140927,6,0,P|172:261|135:204,1,141.750000540733,6|0,1:2|0:0,0:0:0:0:
144,187,141415,1,10,0:0:0:0:
5,40,141659,1,2,0:0:0:0:
13,49,141781,1,8,0:0:0:0:
19,58,141903,2,0,P|35:100|22:143,1,70,2|0,1:2|1:0,0:0:0:0:
0,206,142391,1,10,0:0:0:0:
151,85,142635,1,2,1:2:0:0:
136,209,142879,6,0,L|125:295,1,70,2|0,1:2|0:0,0:0:0:0:
73,353,143366,1,10,0:0:0:0:
234,292,143610,2,0,L|246:342,1,35,2|8,0:0|0:0,0:0:0:0:
308,384,143854,2,0,L|320:334,1,35,2|0,1:2|0:0,0:0:0:0:
438,290,144098,5,0,1:0:0:0:
349,225,144342,1,10,0:0:0:0:
449,384,144586,1,2,1:2:0:0:
489,205,144830,1,2,1:2:0:0:
489,205,145318,6,0,L|477:122,1,70,10|2,0:0|0:0,0:0:0:0:
440,66,145683,1,8,0:0:0:0:
426,54,145805,2,0,P|460:48|493:37,1,70,2|0,1:2|1:0,0:0:0:0:
386,136,146293,5,10,0:0:0:0:
245,51,146537,1,2,1:2:0:0:
312,243,146781,1,6,1:2:0:0:
311,282,147757,5,8,0:0:0:0:
321,263,147879,1,8,0:0:0:0:
312,243,148000,2,0,L|262:254,1,35,2|0,0:0|0:0,0:0:0:0:
231,331,148244,5,10,0:0:0:0:
40,154,148488,1,10,0:0:0:0:
27,190,148610,1,8,0:0:0:0:
39,220,148732,6,0,L|89:209,1,48.9999985046387,4|0,1:0|0:0,0:0:0:0:
147,144,148976,1,2,0:3:0:0:
142,130,149098,1,2,0:3:0:0:
137,117,149220,1,8,0:0:0:0:
260,15,149464,5,2,0:3:0:0:
255,29,149586,1,8,0:0:0:0:
250,42,149708,2,0,P|278:38|307:22,1,48.9999985046387,2|2,0:3|0:3,0:0:0:0:
425,109,149952,2,0,P|404:100|370:98,1,48.9999985046387,4|0,1:2|0:3,0:0:0:0:
486,9,150196,6,0,L|496:65,1,48.9999985046387,10|0,0:0|0:0,0:0:0:0:
384,234,150439,2,0,L|374:178,1,48.9999985046387,2|0,0:3|0:0,0:0:0:0:
469,298,150683,6,0,P|485:326|459:303,2,97.9999970092774,2|2|8,1:2|1:3|0:0,0:0:0:0:
283,230,151415,1,2,0:3:0:0:
245,240,151536,1,8,0:0:0:0:
217,266,151658,1,2,0:3:0:0:
204,303,151780,1,2,0:3:0:0:
210,341,151903,6,0,P|243:346|263:358,1,48.9999985046387,4|0,1:2|0:0,0:0:0:0:
69,274,152147,2,0,L|16:286,1,48.9999985046387,10|0,0:2|0:0,0:0:0:0:
132,164,152391,2,0,L|185:176,1,48.9999985046387,2|0,0:3|0:0,0:0:0:0:
22,66,152635,6,0,P|15:41|5:14,1,48.9999985046387,2|0,1:2|0:0,0:0:0:0:
27,0,152879,1,2,0:3:0:0:
47,11,153000,1,2,0:3:0:0:
53,33,153122,1,8,0:0:0:0:
179,174,153367,5,2,0:3:0:0:
167,152,153488,1,8,0:0:0:0:
166,128,153610,1,2,0:3:0:0:
177,107,153732,1,2,0:3:0:0:
197,93,153854,6,0,L|268:81,1,48.9999985046387,4|0,1:2|0:0,0:0:0:0:
379,164,154098,2,0,L|330:172,1,48.9999985046387,10|0,0:2|0:0,0:0:0:0:
436,62,154342,2,0,L|507:50,1,48.9999985046387,2|0,0:3|0:0,0:0:0:0:
481,218,154586,6,0,L|466:342,1,97.9999970092774,2|2,1:2|1:3,0:0:0:0:
492,337,154952,2,0,L|432:349,1,48.9999985046387,2|8,0:3|0:0,0:0:0:0:
208,201,155318,6,0,P|212:230|222:260,1,48.9999985046387,2|8,0:3|0:0,0:0:0:0:
308,384,155561,1,2,0:3:0:0:
315,339,155683,1,2,0:3:0:0:
322,294,155805,5,4,1:2:0:0:
116,135,156049,1,10,0:0:0:0:
339,15,156293,1,2,0:3:0:0:
269,140,156537,5,2,1:2:0:0:
140,6,156781,1,2,0:3:0:0:
116,13,156903,1,2,0:3:0:0:
92,20,157025,1,8,0:0:0:0:
8,206,157269,6,0,L|75:217,1,48.9999985046387,2|8,0:3|0:0,0:0:0:0:
109,266,157513,1,2,0:3:0:0:
115,299,157635,1,2,0:3:0:0:
99,329,157757,1,4,1:2:0:0:
253,377,158000,6,0,P|280:370|320:366,1,48.9999985046387,8|0,0:0|0:0,0:0:0:0:
425,309,158244,2,0,L|377:302,1,48.9999985046387,2|0,0:3|0:0,0:0:0:0:
292,243,158488,6,0,P|282:189|300:145,1,97.9999970092774,2|2,1:2|1:3,0:0:0:0:
311,138,158854,1,2,0:3:0:0:
328,137,158976,1,8,0:0:0:0:
196,15,159220,5,2,0:3:0:0:
176,45,159341,1,8,0:0:0:0:
145,64,159463,1,2,0:3:0:0:
108,65,159585,1,2,0:3:0:0:
75,50,159708,6,0,L|63:114,1,48.9999985046387,4|0,1:2|0:0,0:0:0:0:
47,255,159952,2,0,P|23:261|-6:270,1,48.9999985046387,10|0,0:2|0:0,0:0:0:0:
124,190,160196,2,0,L|177:202,1,48.9999985046387,2|0,0:3|0:0,0:0:0:0:
255,315,160439,6,0,P|305:305|362:299,1,97.9999970092774,2|2,1:2|0:3,0:0:0:0:
370,310,160805,1,2,0:3:0:0:
372,328,160927,1,8,0:0:0:0:
480,229,161172,5,2,0:3:0:0:
468,207,161293,1,8,0:0:0:0:
467,183,161415,1,2,0:3:0:0:
478,162,161537,1,2,0:3:0:0:
498,148,161659,6,0,L|486:77,1,48.9999985046387,4|0,1:2|0:0,0:0:0:0:
405,7,161903,2,0,L|397:56,1,48.9999985046387,10|0,0:2|0:0,0:0:0:0:
311,157,162147,2,0,L|302:108,1,48.9999985046387,2|0,0:3|0:0,0:0:0:0:
209,19,162391,6,0,P|163:51|93:48,1,97.9999970092774,2|2,1:2|1:3,0:0:0:0:
1,7,162757,2,0,P|25:15|26:65,1,48.9999985046387,2|8,0:3|0:0,0:0:0:0:
13,231,163122,5,2,0:3:0:0:
13,231,163244,1,8,0:0:0:0:
13,231,163366,2,0,L|2:287,2,48.9999985046387,2|2|4,0:3|0:3|1:2,0:0:0:0:
87,261,163732,5,8,0:0:0:0:
102,269,163854,2,0,P|133:257|173:255,1,48.9999985046387,10|0,0:0|0:0,0:0:0:0:
306,341,164098,1,4,0:0:0:0:
207,384,164342,6,0,L|230:264,1,90.9999958343508,4|2,1:0|0:3,0:0:0:0:
237,281,164708,1,2,0:3:0:0:
248,270,164830,1,10,0:0:0:0:
150,133,165074,1,2,0:0:0:0:
146,141,165196,1,8,0:0:0:0:
143,149,165318,2,0,L|98:159,1,45.4999979171754,2|2,0:0|0:3,0:0:0:0:
38,224,165561,1,4,1:2:0:0:
222,83,165805,5,10,0:0:0:0:
162,289,166049,1,2,0:0:0:0:
337,210,166293,2,0,L|445:228,1,90.9999958343508,2|0,1:2|1:0,0:0:0:0:
443,229,166659,1,2,0:3:0:0:
458,233,166781,5,10,0:0:0:0:
386,331,167025,1,2,0:0:0:0:
372,119,167269,2,0,P|367:92|355:57,1,45.4999979171754,2|2,0:3|0:3,0:0:0:0:
438,55,167513,2,0,P|443:82|455:117,1,45.4999979171754,4|0,1:2|0:3,0:0:0:0:
382,0,167757,1,10,0:0:0:0:
117,46,168000,1,2,0:0:0:0:
170,113,168244,6,0,P|216:104|266:99,1,90.9999958343508,2|2,1:2|0:3,0:0:0:0:
110,272,168732,2,0,P|64:276|20:285,1,90.9999958343508,10|2,0:2|0:3,0:0:0:0:
12,297,169098,1,8,0:0:0:0:
5,310,169220,2,0,P|-14:354|15:396,1,90.9999958343508,2|4,0:0|1:2,0:0:0:0:
84,361,169708,5,10,0:0:0:0:
38,134,169952,1,2,0:0:0:0:
214,262,170196,1,2,1:2:0:0:
214,262,170683,5,10,0:0:0:0:
408,384,170927,1,2,0:3:0:0:
402,355,171049,1,8,0:0:0:0:
397,327,171171,2,0,L|390:269,1,45.4999979171754,2|2,0:3|0:3,0:0:0:0:
496,229,171415,2,0,L|504:184,1,45.4999979171754,4|0,1:2|0:0,0:0:0:0:
415,139,171659,5,10,0:0:0:0:
447,0,171903,1,2,0:0:0:0:
415,139,172147,6,0,P|371:130|313:124,1,90.9999958343508,2|2,1:2|0:3,0:0:0:0:
298,125,172513,1,2,0:3:0:0:
273,118,172635,2,0,P|258:71|288:33,1,90.9999958343508,10|2,0:0|0:3,0:0:0:0:
289,25,173000,1,8,0:0:0:0:
304,25,173122,1,2,0:0:0:0:
166,237,173366,1,2,1:3:0:0:
0,2,173610,5,10,0:0:0:0:
141,101,173854,1,2,0:0:0:0:
0,248,174098,2,0,P|-11:206|6:156,1,90.9999958343508,2|2,1:2|1:2,0:0:0:0:
18,165,174464,1,2,0:3:0:0:
30,171,174586,1,10,0:0:0:0:
136,334,174830,6,0,P|157:330|181:327,1,45.4999979171754,2|8,0:0|0:0,0:0:0:0:
255,282,175074,1,2,0:3:0:0:
261,249,175196,1,2,0:3:0:0:
245,219,175318,1,4,1:2:0:0:
446,137,175561,6,0,L|436:211,1,45.4999979171754,10|0,0:0|0:0,0:0:0:0:
424,268,175805,1,2,0:0:0:0:
316,82,176049,6,0,P|296:46|324:1,1,90.9999958343508,2|2,1:2|0:3,0:0:0:0:
332,7,176415,1,2,0:3:0:0:
344,14,176537,2,0,P|391:8|453:-4,1,90.9999958343508,10|2,0:0|0:3,0:0:0:0:
280,161,176903,1,8,0:0:0:0:
273,174,177025,2,0,P|225:179|163:192,1,90.9999958343508,2|4,0:0|1:2,0:0:0:0:
110,262,177513,5,10,0:0:0:0:
216,90,177757,1,2,0:0:0:0:
0,0,178000,1,2,1:2:0:0:
0,0,178488,6,0,L|19:110,1,90.9999958343508,10|2,0:0|0:3,0:0:0:0:
78,148,178854,1,8,0:0:0:0:
74,170,178976,1,2,0:3:0:0:
70,192,179098,1,2,0:3:0:0:
66,215,179220,1,4,1:2:0:0:
211,384,179464,6,0,P|210:354|190:318,1,56,10|0,0:0|0:0,0:0:0:0:
318,260,179708,6,0,P|319:244|316:258,1,56,2|0,0:0|0:0,0:0:0:0:
415,330,179952,6,0,P|461:332|506:370,1,90.9999958343508,4|2,1:0|0:3,0:0:0:0:
504,367,180318,1,2,0:3:0:0:
508,381,180440,1,10,0:0:0:0:
447,201,180684,1,2,0:0:0:0:
439,197,180806,1,8,0:0:0:0:
431,194,180928,2,0,L|438:145,1,45.4999979171754,2|2,0:0|0:3,0:0:0:0:
495,83,181171,1,4,1:2:0:0:
367,253,181415,5,10,0:0:0:0:
238,87,181659,1,2,0:0:0:0:
403,8,181903,1,2,1:2:0:0:
217,191,182147,1,2,1:2:0:0:
139,126,182391,6,0,L|32:113,1,90.9999958343508,10|2,0:0|0:0,0:0:0:0:
104,203,182757,1,8,0:0:0:0:
97,219,182879,2,0,L|107:277,1,45.4999979171754,2|0,0:3|0:0,0:0:0:0:
41,384,183122,2,0,L|33:339,1,45.4999979171754,4|0,1:2|0:0,0:0:0:0:
168,384,183367,1,10,0:0:0:0:
373,260,183610,1,2,0:0:0:0:
279,231,183854,6,0,P|262:279|285:332,1,90.9999958343508,2|2,1:2|0:3,0:0:0:0:
486,174,184342,2,0,P|435:178|388:144,1,90.9999958343508,10|2,0:2|0:3,0:0:0:0:
347,103,184708,1,8,0:0:0:0:
337,93,184830,2,0,L|354:-5,1,90.9999958343508,2|4,0:0|1:2,0:0:0:0:
244,29,185318,5,10,0:0:0:0:
445,61,185562,1,2,0:0:0:0:
244,29,185806,1,2,1:2:0:0:
235,38,186293,5,10,0:0:0:0:
100,116,186537,1,2,0:3:0:0:
106,87,186659,1,8,0:0:0:0:
111,59,186781,2,0,L|118:1,1,45.4999979171754,2|2,0:3|0:3,0:0:0:0:
0,142,187025,2,0,L|8:187,1,45.4999979171754,4|0,1:2|0:0,0:0:0:0:
144,309,187269,5,10,0:0:0:0:
0,384,187513,1,2,0:0:0:0:
126,216,187757,2,0,L|216:232,1,90.9999958343508,2|2,1:2|0:3,0:0:0:0:
276,280,188123,1,2,0:3:0:0:
289,294,188244,2,0,L|379:278,1,90.9999958343508,10|2,0:2|0:3,0:0:0:0:
455,306,188610,1,8,0:0:0:0:
465,313,188732,1,2,0:0:0:0:
355,384,188976,1,2,1:3:0:0:
444,181,189220,5,10,0:0:0:0:
318,68,189464,1,2,0:0:0:0:
469,1,189708,1,2,1:2:0:0:
350,206,189952,1,2,1:2:0:0:
173,48,190196,1,10,0:0:0:0:
324,22,190440,6,0,L|316:78,1,45.4999979171754,2|8,0:0|0:0,0:0:0:0:
360,143,190684,1,2,0:3:0:0:
366,176,190806,1,2,0:3:0:0:
350,206,190928,1,4,1:2:0:0:
411,282,191171,6,0,P|434:275|455:273,1,45.4999979171754,10|0,0:0|0:0,0:0:0:0:
511,211,191415,1,2,0:0:0:0:
335,360,191659,6,0,P|290:351|258:305,1,90.9999958343508,2|2,1:2|0:3,0:0:0:0:
251,301,192025,1,2,0:3:0:0:
240,284,192147,2,0,P|193:290|140:326,1,90.9999958343508,10|2,0:0|0:3,0:0:0:0:
147,327,192513,1,8,0:0:0:0:
144,343,192635,1,2,0:0:0:0:
1,236,192879,1,4,1:2:0:0:
130,192,193123,5,10,0:0:0:0:
9,379,193367,1,2,0:0:0:0:
130,192,193610,1,2,1:2:0:0:
135,185,194098,6,0,L|112:80,1,90.9999958343508,10|2,0:0|0:3,0:0:0:0:
166,16,194464,1,8,0:0:0:0:
173,26,194586,6,0,P|194:52|198:90,1,56,2|0,0:0|0:0,0:0:0:0:
39,161,194830,6,0,P|7:148|-30:152,1,56,4|0,1:2|0:0,0:0:0:0:
166,269,195074,6,0,P|193:267|219:255,1,56,10|0,0:2|0:0,0:0:0:0:
47,377,195318,6,0,P|40:339|23:299,1,56,2|0,0:3|0:0,0:0:0:0:
135,185,195561,6,0,P|188:221|276:234,1,140,4|8,1:0|0:0,0:0:0:0:
394,384,196293,1,2,0:0:0:0:
384,376,196415,1,8,0:0:0:0:
377,370,196537,2,0,P|374:335|390:305,1,70,2|0,1:2|1:0,0:0:0:0:
512,177,197025,2,0,L|503:266,1,70,8|2,0:2|1:2,0:0:0:0:
480,74,197513,6,0,P|424:105|335:110,1,140,2|8,1:2|0:0,0:0:0:0:
204,88,198244,1,2,0:0:0:0:
197,82,198366,1,8,0:0:0:0:
190,76,198488,2,0,L|202:1,1,70,2|0,1:2|1:0,0:0:0:0:
255,165,198976,1,8,0:0:0:0:
102,136,199220,2,0,L|67:144,1,35,2|2,1:2|0:0,0:0:0:0:
104,232,199464,5,2,1:2:0:0:
64,56,199708,1,2,0:2:0:0:
104,232,199952,2,0,P|97:268|90:315,1,70,10|0,0:0|0:0,0:0:0:0:
178,157,200439,5,2,1:2:0:0:
0,256,200683,1,2,1:2:0:0:
160,384,200927,1,10,0:0:0:0:
234,331,201171,6,0,L|316:321,1,70,2|2,1:2|1:2,0:0:0:0:
473,224,201659,1,2,0:0:0:0:
433,384,201903,2,0,P|417:345|432:303,1,70,10|2,0:0|0:0,0:0:0:0:
473,224,202269,1,8,0:0:0:0:
467,217,202391,6,0,L|454:160,1,43.75,2|0,1:2|0:0,0:0:0:0:
378,88,202635,2,0,P|377:114|368:145,1,43.75,2|0,1:2|0:0,0:0:0:0:
452,24,202878,6,0,L|495:15,1,43.75,10|0,0:0|0:0,0:0:0:0:
284,101,203122,2,0,L|241:91,1,43.75,2|0,1:2|0:0,0:0:0:0:
41,48,203366,6,0,P|107:31|164:-9,1,140,6|8,1:2|0:0,0:0:0:0:
109,142,204098,1,2,0:0:0:0:
100,151,204220,1,8,0:0:0:0:
93,160,204342,2,0,P|86:200|80:254,1,70,2|0,1:2|1:0,0:0:0:0:
235,381,204830,2,0,P|241:340|247:286,1,70,8|2,0:2|1:2,0:0:0:0:
346,357,205318,5,2,1:2:0:0:
140,332,205561,1,2,0:0:0:0:
346,357,205805,2,0,P|397:323|464:328,1,105,10|0,0:0|0:0,0:0:0:0:
460,321,206293,2,0,P|478:279|462:239,1,70,2|0,1:2|1:0,0:0:0:0:
368,71,206781,2,0,P|350:113|366:153,1,70,10|0,0:0|1:0,0:0:0:0:
369,151,207147,1,2,0:0:0:0:
381,163,207269,6,0,L|492:145,1,105,2|2,1:2|0:0,0:0:0:0:
503,140,207757,1,8,0:0:0:0:
344,246,208000,2,0,L|245:235,1,70,2|0,0:0|1:0,0:0:0:0:
128,327,208488,1,2,1:2:0:0:
155,170,208732,2,0,P|170:204|173:252,1,70,8|2,0:0|1:2,0:0:0:0:
61,384,209220,5,2,1:2:0:0:
35,185,209464,1,2,0:0:0:0:
61,384,209708,1,10,0:0:0:0:
35,185,209952,1,2,1:2:0:0:
122,251,210196,5,2,1:2:0:0:
169,28,210440,1,2,1:2:0:0:
391,75,210684,1,14,0:0:0:0:
344,298,210928,1,0,1:0:0:0:
256,162,211171,6,0,P|264:119|272:69,1,80.5000015354157,4|0,1:0|0:0,0:0:0:0:
483,274,211659,2,0,P|475:313|467:367,1,80.5000015354157,10|0,3:2|0:0,0:0:0:0:
388,297,212025,1,8,0:0:0:0:
383,290,212147,6,0,L|320:302,1,40.2500007677078,2|0,1:3|0:0,0:0:0:0:
258,354,212391,2,0,L|218:347,1,40.2500007677078,2|0,1:2|0:0,0:0:0:0:
133,279,212635,1,10,3:2:0:0:
223,206,212878,2,0,P|266:201|309:187,1,80.5000015354157,2|2,1:2|1:3,0:0:0:0:
25,384,213366,6,0,L|13:294,1,80.5000015354157,2|8,0:0|3:2,0:0:0:0:
108,77,213854,2,0,L|97:156,1,80.5000015354157,2|2,0:0|1:3,0:0:0:0:
0,0,214342,5,2,1:2:0:0:
196,127,214586,1,10,3:2:0:0:
16,212,214830,1,2,1:2:0:0:
158,0,215074,1,2,1:3:0:0:
158,0,215561,6,0,P|203:13|244:10,1,80.5000015354157,10|0,3:2|0:0,0:0:0:0:
307,44,215927,1,8,0:0:0:0:
316,52,216049,2,0,P|334:100|321:145,1,80.5000015354157,2|0,1:3|1:0,0:0:0:0:
273,314,216537,1,10,3:2:0:0:
196,127,216781,1,2,1:2:0:0:
401,262,217025,6,0,P|440:259|465:230,1,80.5000015354157,2|2,1:3|0:0,0:0:0:0:
162,375,217513,2,0,L|80:361,1,80.5000015354157,10|0,3:2|0:0,0:0:0:0:
273,314,218000,6,0,L|266:270,1,43.75,2|0,1:3|0:0,0:0:0:0:
213,199,218244,2,0,L|220:155,1,43.75,2|0,1:2|0:0,0:0:0:0:
279,86,218488,5,10,3:2:0:0:
168,284,218732,1,2,1:2:0:0:
41,139,218976,6,0,P|34:96|27:57,1,80.5000015354157,4|0,1:0|0:0,0:0:0:0:
137,91,219464,1,10,3:2:0:0:
0,270,219708,2,0,P|32:246|82:253,1,80.5000015354157,2|2,0:2|1:3,0:0:0:0:
303,371,220196,2,0,P|264:361|224:354,1,80.5000015354157,2|8,1:2|3:2,0:0:0:0:
429,329,220683,1,2,1:2:0:0:
375,249,220927,6,0,P|378:205|405:172,1,80.5000015354157,2|0,1:3|0:0,0:0:0:0:
486,104,221415,1,8,3:2:0:0:
305,0,221659,2,0,L|320:87,1,80.5000015354157,2|2,0:0|1:3,0:0:0:0:
167,222,222147,2,0,P|173:182|181:142,1,80.5000015354157,2|8,1:2|3:2,0:0:0:0:
0,238,222635,1,2,1:2:0:0:
53,0,222879,6,0,L|71:169,1,161.000003070831,2|10,1:3|3:2,0:0:0:0:
178,242,223610,1,2,0:0:0:0:
118,349,223854,5,2,1:3:0:0:
0,238,224098,1,0,1:0:0:0:
180,142,224342,1,8,3:2:0:0:
22,384,224586,1,2,1:2:0:0:
207,327,224830,5,2,1:3:0:0:
440,383,225074,1,2,0:2:0:0:
496,148,225318,1,10,3:2:0:0:
263,92,225561,1,2,1:2:0:0:
351,237,225805,5,10,0:0:0:0:
362,207,225927,1,8,0:0:0:0:
373,177,226049,2,0,L|363:121,1,43.75,4|0,0:0|0:0,0:0:0:0:
456,16,226293,1,10,0:0:0:0:
232,213,226537,6,0,L|202:205,2,21.875,8|0|8,0:0|0:0|0:0,0:0:0:0:
158,149,226781,5,4,1:0:0:0:
0,80,227025,1,2,0:0:0:0:
143,0,227269,1,10,0:2:0:0:
5,221,227513,1,2,0:0:0:0:
10,232,227635,1,8,0:0:0:0:
15,243,227757,6,0,L|26:296,1,43.75,2|0,3:1|0:0,0:0:0:0:
178,376,228000,2,0,L|166:322,1,43.75,6|0,1:2|0:0,0:0:0:0:
63,384,228244,1,10,0:0:0:0:
233,249,228488,6,0,P|276:259|323:292,1,80.5000015354157,2|0,0:0|1:0,0:0:0:0:
487,112,228976,2,0,P|452:131|412:140,1,80.5000015354157,2|8,1:2|0:0,0:0:0:0:
456,352,229464,5,2,0:0:0:0:
449,326,229586,1,8,0:0:0:0:
442,300,229708,2,0,L|452:236,1,43.75,2|0,0:3|0:0,0:0:0:0:
290,103,229952,2,0,L|296:146,1,43.75,4|0,1:2|0:0,0:0:0:0:
412,47,230196,6,0,P|392:43|367:35,1,43.75,10|0,0:0|0:0,0:0:0:0:
180,220,230439,2,0,P|200:224|225:232,1,43.75,2|0,0:0|0:0,0:0:0:0:
64,73,230683,1,2,1:0:0:0:
64,73,231171,6,0,L|83:171,1,80.5000015354157,10|0,0:0|0:0,0:0:0:0:
11,286,231537,1,8,0:0:0:0:
4,281,231659,6,0,P|-3:255|13:222,1,43.75,2|0,0:3|0:0,0:0:0:0:
111,337,231903,2,0,L|103:399,1,43.75,0|0,1:2|0:0,0:0:0:0:
222,294,232147,6,0,L|316:311,1,80.5000015354157,10|0,0:0|1:0,0:0:0:0:
449,170,232635,1,2,1:0:0:0:
501,361,232879,1,2,1:2:0:0:
443,156,233122,1,10,0:0:0:0:
317,286,233366,1,2,0:0:0:0:
309,297,233488,1,8,0:0:0:0:
301,308,233610,5,2,3:2:0:0:
247,97,233854,1,4,1:2:0:0:
458,43,234098,1,10,0:0:0:0:
512,254,234342,1,2,0:0:0:0:
248,210,234586,6,0,L|149:197,1,80.5000015354157,4|2,1:0|0:0,0:0:0:0:
2,107,235074,1,8,0:0:0:0:
122,38,235318,5,2,0:0:0:0:
115,64,235439,1,8,0:0:0:0:
20,263,235683,1,2,0:0:0:0:
13,237,235804,1,4,1:2:0:0:
105,323,236049,6,0,P|153:329|186:365,1,80.5000015354157,10|0,0:0|0:0,0:0:0:0:
250,384,236415,1,2,0:0:0:0:
258,372,236537,2,0,P|266:328|267:275,1,80.5000015354157,2|0,1:2|1:0,0:0:0:0:
500,172,237025,1,10,3:2:0:0:
411,54,237269,5,2,0:0:0:0:
423,69,237391,2,0,L|432:127,1,43.75,8|2,0:0|0:1,0:0:0:0:
334,230,237635,5,8,0:0:0:0:
346,215,237757,2,0,L|355:157,1,43.75,4|2,1:2|0:1,0:0:0:0:
279,116,238000,6,0,L|189:134,1,80.5000015354157,10|2,0:0|0:0,0:0:0:0:
81,70,238366,1,2,0:0:0:0:
65,62,238488,6,0,P|24:117|38:209,1,146.999995513916,4|0,1:0|0:0,0:0:0:0:
72,252,238976,1,10,0:0:0:0:
53,351,239220,5,2,0:1:0:0:
48,361,239342,1,8,0:0:0:0:
41,371,239464,2,0,P|16:382|-7:385,1,43.75,2|0,0:3|0:0,0:0:0:0:
152,316,239708,2,0,P|173:320|193:329,1,43.75,4|0,1:2|0:0,0:0:0:0:
301,384,239952,2,0,L|390:367,1,80.5000015354157,10|0,0:0|0:0,0:0:0:0:
441,323,240318,1,2,0:0:0:0:
452,309,240439,5,2,1:2:0:0:
288,136,240683,1,2,1:2:0:0:
504,55,240927,1,8,0:0:0:0:
342,292,241171,2,0,L|295:300,1,47.2500001802444,2|8,0:0|0:0,0:0:0:0:
193,362,241415,5,2,0:3:0:0:
43,270,241659,1,8,0:0:0:0:
12,226,241780,1,8,0:0:0:0:
13,175,241902,1,8,0:2:0:0:
45,134,242024,1,8,0:0:0:0:
75,92,242147,1,8,0:0:0:0:
76,40,242269,1,8,0:0:0:0:
46,0,242391,6,0,L|165:17,1,115.50000352478,4|0,1:0|0:0,0:0:0:0:
245,84,242879,2,0,P|200:97|157:114,1,77.0000023498536,8|0,0:0|1:0,0:0:0:0:
411,13,243366,2,0,P|447:26|484:36,1,77.0000023498536,8|0,0:0|1:0,0:0:0:0:
375,240,243854,2,0,P|360:200|375:165,1,77.0000023498536,8|0,0:0|1:0,0:0:0:0:
480,351,244342,5,0,1:2:0:0:
480,351,244830,5,8,0:0:0:0:
314,378,245074,1,0,1:0:0:0:
345,240,245318,5,8,0:0:0:0:
179,267,245562,1,0,1:0:0:0:
9,384,245805,5,8,0:0:0:0:
50,231,246049,1,0,1:0:0:0:
54,219,246171,1,2,0:0:0:0:
60,206,246293,6,0,P|49:159|28:110,1,77.0000023498536,2|0,1:2|1:0,0:0:0:0:
201,0,246781,2,0,L|190:88,1,77.0000023498536,8|0,0:2|1:0,0:0:0:0:
325,209,247269,5,8,0:0:0:0:
351,65,247513,1,0,1:0:0:0:
510,292,247757,5,8,0:0:0:0:
483,147,248001,1,0,1:0:0:0:
363,331,248244,6,0,P|282:348|205:404,1,154.000004699707,2|8,1:2|0:0,0:0:0:0:
91,236,248976,1,0,1:0:0:0:
32,328,249220,5,8,0:0:0:0:
182,295,249464,1,0,1:0:0:0:
151,145,249708,1,8,0:0:0:0:
0,176,249952,1,4,1:2:0:0:
130,13,250196,5,2,1:2:0:0:
130,13,250439,1,0,1:0:0:0:
130,13,250683,2,0,L|207:28,1,77.0000023498536,8|0,0:0|1:0,0:0:0:0:
444,198,251171,2,0,L|367:213,1,77.0000023498536,8|0,0:0|1:0,0:0:0:0:
355,4,251659,6,0,P|361:40|372:81,1,77.0000023498536,8|0,0:0|1:0,0:0:0:0:
201,178,252147,1,2,1:2:0:0:
201,178,252635,5,8,0:0:0:0:
173,264,252879,1,0,1:0:0:0:
92,308,253122,1,8,0:0:0:0:
3,282,253366,1,0,1:0:0:0:
179,380,253610,5,8,0:0:0:0:
113,163,253854,1,0,1:0:0:0:
267,249,254098,6,0,P|309:240|361:234,1,77.0000023498536,2|0,1:2|1:0,0:0:0:0:
511,94,254586,2,0,P|472:88|435:80,1,77.0000023498536,8|0,0:2|1:0,0:0:0:0:
467,292,255074,6,0,P|468:250|459:206,1,77.0000023498536,8|0,0:0|1:0,0:0:0:0:
281,11,255561,2,0,P|279:52|288:96,1,77.0000023498536,8|0,0:0|1:0,0:0:0:0:
193,171,256049,6,0,P|137:136|64:147,1,115.50000352478,2|0,1:2|0:0,0:0:0:0:
11,164,256537,2,0,P|-3:125|3:78,1,77.0000023498536,10|0,0:0|1:0,0:0:0:0:
64,321,257025,6,0,P|88:305|112:307,1,43.75,10|0,0:0|0:0,0:0:0:0:
203,353,257269,6,0,P|227:369|251:367,1,43.75,2|0,1:2|0:0,0:0:0:0:
339,319,257513,6,0,L|331:267,1,43.75,10|0,0:0|0:0,0:0:0:0:
446,384,257757,1,4,1:2:0:0:
440,157,258000,6,0,L|428:242,1,77.0000023498536,4|0,1:0|1:0,0:0:0:0:
270,77,258488,5,10,0:0:0:0:
351,58,258732,1,0,1:0:0:0:
210,198,258976,5,10,0:0:0:0:
129,179,259220,1,0,1:0:0:0:
0,52,259464,5,8,0:0:0:0:
81,33,259708,1,2,1:2:0:0:
25,238,259952,6,0,P|17:280|-6:335,1,77.0000023498536,2|0,1:2|1:0,0:0:0:0:
210,198,260439,2,0,P|177:170|141:122,1,77.0000023498536,10|0,0:0|1:0,0:0:0:0:
143,360,260927,2,0,P|183:345|242:338,1,77.0000023498536,10|0,0:0|1:0,0:0:0:0:
384,375,261415,1,8,0:0:0:0:
343,158,261659,1,2,1:2:0:0:
428,219,261903,6,0,P|466:225|504:236,1,77.0000023498536,2|0,1:2|1:0,0:0:0:0:
376,1,262391,2,0,P|385:38|399:74,1,77.0000023498536,10|0,0:2|1:0,0:0:0:0:
310,315,262879,2,0,P|300:277|286:241,1,77.0000023498536,10|0,0:2|1:0,0:0:0:0:
197,164,263366,1,8,0:0:0:0:
55,187,263610,1,2,1:2:0:0:
133,18,263854,6,0,L|122:118,1,77.0000023498536,2|0,1:2|1:0,0:0:0:0:
2,350,264342,2,0,P|-11:304|11:268,1,77.0000023498536,10|0,0:0|1:0,0:0:0:0:
188,379,264830,5,10,0:0:0:0:
347,350,265074,1,2,1:2:0:0:
319,191,265318,1,10,0:0:0:0:
159,219,265561,1,4,1:2:0:0:
363,275,265805,6,0,P|405:283|452:298,1,77.0000023498536,4|0,1:0|1:0,0:0:0:0:
396,81,266293,2,0,P|432:68|470:60,1,77.0000023498536,10|0,0:0|1:0,0:0:0:0:
318,169,266781,1,10,0:0:0:0:
209,84,267025,2,0,P|198:48|215:5,1,77.0000023498536,0|8,1:0|0:0,0:0:0:0:
318,169,267513,5,2,1:2:0:0:
187,251,267757,2,0,P|123:257|69:304,1,115.50000352478,2|0,1:2|0:0,0:0:0:0:
0,173,268244,2,0,P|39:180|95:186,1,77.0000023498536,10|0,0:0|1:0,0:0:0:0:
242,364,268732,2,0,P|203:357|147:351,1,77.0000023498536,10|0,0:0|1:0,0:0:0:0:
340,192,269220,1,8,0:0:0:0:
443,380,269464,1,2,1:2:0:0:
512,297,269708,6,0,P|519:256|505:207,1,77.0000023498536,2|0,1:2|1:0,0:0:0:0:
317,0,270196,2,0,P|309:40|323:89,1,77.0000023498536,10|0,0:2|1:0,0:0:0:0:
496,132,270683,2,0,P|444:141|328:186,1,154.000004699707,10|8,0:0|0:0,0:0:0:0:
240,289,271415,1,2,1:2:0:0:
89,215,271659,5,0,1:2:0:0:
226,139,271903,1,0,1:0:0:0:
123,0,272147,2,0,L|107:105,1,77.0000023498536,10|0,0:0|1:0,0:0:0:0:
0,297,272635,5,10,0:0:0:0:
226,139,272879,1,2,1:2:0:0:
13,50,273122,1,10,0:0:0:0:
155,315,273366,1,4,1:2:0:0:
266,290,273610,6,0,B|270:222|342:175|400:173|549:151|529:297|457:374|365:340|301:317|305:206|381:189|424:174|447:140|447:67|399:42|399:42|381:79|407:120,1,693.000021148682,2|0,0:0|0:0,0:0:0:0:
