osu file format v14

[General]
AudioFilename: audio.mp3
AudioLeadIn: 0
PreviewTime: 195271
Countdown: 0
SampleSet: Soft
StackLeniency: 0.7
Mode: 0
LetterboxInBreaks: 0
WidescreenStoryboard: 0

[Editor]
Bookmarks: 778,13750,26723,42940,78615,91588,104561,117534,133750,169426,182399,195372,195473,195575,195676,195777,195879,195980,196082,196183,196284,196386,196487,196588,196690,196791,196892,196994,197095,197196,197298,197399,197500,197602,197703,197805,197906,198007,198109,198210,198311,198413,198514,198615,198717,198818,198919,199021,199122,199223,199325,199426,199527,199629,199730,199832,199933,200034,200136,200237,200338,200440,200541,200642,200744,200845,200946,201048,201149,201250,201352,201453,201555,201656,201757,201859,201960,202061,202163,202264,202365,202467,202568,202669,202771,202872,202973,203075,203176,203277,203379,203480,203582,203683,203784,203886,203987,204088,204190,204291,204392,204494,204595,204696,204798,204899,205000,205102,205203,205305,205406,205507,205609,205710,205811,205913,206014,206115,206217,206318,206419,206521,206622,206723,206825,206926,207027,207129,207230,207332,207433,207534,208345,256994,269967,275642
DistanceSpacing: 0.9
BeatDivisor: 4
GridSize: 4
TimelineZoom: 1

[Metadata]
Title:Banana Fish no Hamabe to Kuroi Niji with Aimer
TitleUnicode:バナナフィッシュの浜辺と黒い虹 with Aimer
Artist:Galileo Galilei
ArtistUnicode:Galileo Galilei
Creator:Kowari
Version:Insane
Source:
Tags:ガリレオガリレイ エメ See More Glass japanese rock j-rock jrock
BeatmapID:2820118
BeatmapSetID:1363146

[Difficulty]
HPDrainRate:6
CircleSize:4
OverallDifficulty:7
ApproachRate:8.5
SliderMultiplier:1.6
SliderTickRate:1

[Events]
//Background and Video events
0,0,"Banana.jpg",0,0
//Break Periods
2,195572,207433
//Storyboard Layer 0 (Background)
//Storyboard Layer 1 (Fail)
//Storyboard Layer 2 (Pass)
//Storyboard Layer 3 (Foreground)
//Storyboard Layer 4 (Overlay)
//Storyboard Sound Samples

[TimingPoints]
778,405.405405405405,4,2,1,80,1,0
13750,-111.111111111111,4,2,1,65,0,0
26723,-111.111111111111,4,2,1,60,0,0
39696,-111.111111111111,4,2,1,65,0,0
42940,-100,4,2,1,80,0,1
68886,-90.9090909090909,4,2,1,90,0,1
78615,-100,4,2,1,70,0,0
91588,-125,4,2,1,60,0,0
104561,-111.111111111111,4,2,1,65,0,0
117534,-125,4,2,1,60,0,0
130507,-125,4,2,1,65,0,0
133750,-100,4,2,1,80,0,1
159696,-90.9090909090909,4,2,1,90,0,1
169426,-100,4,2,1,70,0,0
208345,-100,4,2,1,80,0,1
234291,-90.9090909090909,4,2,1,90,0,1
256994,-100,4,2,1,70,0,0
275642,-100,4,2,1,5,0,0

[Colours]
Combo1 : 17,254,176
Combo2 : 173,255,95
Combo3 : 255,88,100
Combo4 : 255,105,55

[HitObjects]
320,135,12940,5,0,1:0:0:0:
320,135,13142,1,0,1:0:0:0:
208,248,13345,1,12,0:0:0:0:
358,297,13548,1,12,0:0:0:0:
426,232,13750,6,0,B|466:187|458:119|386:95|386:95,1,143.999995605469,4|8,1:0|0:0,0:0:0:0:
408,107,14359,1,0,0:0:0:0:
319,214,14561,2,0,L|234:226,1,71.9999978027344,0|0,1:0|1:0,0:0:0:0:
192,144,14967,2,0,L|277:132,1,71.9999978027344,8|0,0:0|0:0,0:0:0:0:
264,303,15372,5,0,1:0:0:0:
187,322,15575,2,0,P|139:311|112:279,1,71.9999978027344,0|8,0:0|0:0,0:0:0:0:
9,253,15980,2,0,B|4:185|57:145|119:164|119:164,1,143.999995605469,0|0,0:0|1:0,0:0:0:0:
173,96,16588,2,0,L|179:173,1,71.9999978027344,8|0,0:0|0:0,0:0:0:0:
288,289,16994,6,0,L|282:212,1,71.9999978027344,0|0,1:0|0:0,0:0:0:0:
335,99,17399,1,8,0:0:0:0:
421,190,17602,1,0,0:0:0:0:
282,217,17805,1,0,1:0:0:0:
421,190,18007,1,0,1:0:0:0:
379,313,18210,1,8,0:0:0:0:
256,205,18413,6,0,P|218:191|169:202,1,71.9999978027344,0|0,0:0|1:0,0:0:0:0:
158,314,18818,2,0,P|196:328|245:317,1,71.9999978027344,0|8,0:0|0:0,0:0:0:0:
78,248,19223,2,0,L|58:324,1,71.9999978027344,0|0,0:0|1:0,0:0:0:0:
158,314,19629,5,0,0:0:0:0:
187,194,19832,1,8,0:0:0:0:
78,248,20034,1,0,0:0:0:0:
26,173,20237,6,0,L|11:20,2,143.999995605469,0|8|0,1:0|0:0|1:0,0:0:0:0:
134,106,21250,1,0,1:0:0:0:
185,213,21453,2,0,P|223:230|272:230,1,71.9999978027344,8|0,0:0|0:0,0:0:0:0:
315,186,21859,5,0,1:0:0:0:
315,186,22061,2,0,L|307:102,1,71.9999978027344,0|8,0:0|0:0,0:0:0:0:
419,216,22467,2,0,B|463:183|470:122|422:74|422:74,1,143.999995605469,0|0,0:0|1:0,0:0:0:0:
307,16,23075,2,0,L|225:22,1,71.9999978027344,8|0,0:0|0:0,0:0:0:0:
191,85,23480,5,0,1:0:0:0:
252,206,23683,1,0,0:0:0:0:
190,255,23886,2,0,P|182:302|181:346,1,71.9999978027344,8|0,0:0|0:0,0:0:0:0:
288,384,24291,2,0,P|296:337|297:293,1,71.9999978027344,0|0,1:0|1:0,0:0:0:0:
252,206,24696,1,8,0:0:0:0:
252,206,24899,1,0,0:0:0:0:
179,172,25102,6,0,B|120:164|73:182|47:236|47:236,1,143.999995605469,0|8,1:0|0:0,0:0:0:0:
79,297,25710,1,0,1:0:0:0:
227,365,25913,1,4,1:2:0:0:
352,255,26115,1,8,0:3:0:0:
352,255,26217,1,8,0:3:0:0:
352,255,26318,1,4,0:3:0:0:
421,320,26521,2,0,L|416:365,1,35.9999989013672,4|0,3:3|3:0,0:0:0:0:
486,262,26723,6,0,P|483:216|468:174,1,71.9999978027344,4|4,1:0|0:3,0:0:0:0:
391,88,27129,1,8,0:0:0:0:
343,209,27332,1,8,0:0:0:0:
475,191,27534,1,4,1:3:0:0:
475,191,27737,1,4,1:3:0:0:
391,88,27940,1,8,0:0:0:0:
391,88,28345,6,0,P|338:97|301:107,1,71.9999978027344,0|0,1:0|0:0,0:0:0:0:
228,208,28750,1,8,0:0:0:0:
112,130,28953,1,8,0:0:0:0:
210,79,29156,1,4,1:3:0:0:
210,79,29359,1,4,1:3:0:0:
136,215,29561,1,8,0:0:0:0:
136,215,29967,6,0,L|121:333,1,107.999996704102,0|0,1:0|0:0,0:0:0:0:
122,322,30372,1,8,0:0:0:0:
242,283,30575,1,8,0:0:0:0:
136,215,30777,2,0,P|84:204|55:205,1,71.9999978027344,4|4,1:3|1:3,0:0:0:0:
127,359,31183,2,0,P|176:368|205:367,1,71.9999978027344,8|0,0:2|0:3,0:0:0:0:
340,314,31588,5,0,1:0:0:0:
221,258,31791,1,0,1:0:0:0:
340,315,31994,1,8,0:0:0:0:
387,192,32196,2,0,B|408:136|371:79|300:95|300:95,1,143.999995605469,8|4,0:0|1:3,0:0:0:0:
316,93,32805,1,8,0:0:0:0:
316,223,33007,5,8,0:3:0:0:
316,223,33109,1,4,0:3:0:0:
316,223,33210,2,0,P|389:225|449:234,1,107.999996704102,0|0,1:0|0:0,0:0:0:0:
423,229,33615,2,0,P|480:223|516:216,1,71.9999978027344,8|8,0:0|0:0,0:0:0:0:
350,294,34021,2,0,P|344:329|341:365,1,71.9999978027344,0|0,1:0|0:0,0:0:0:0:
428,384,34426,2,0,P|433:348|436:312,1,71.9999978027344,8|0,0:0|0:0,0:0:0:0:
361,217,34832,5,0,1:0:0:0:
263,198,35034,1,0,0:0:0:0:
290,53,35237,1,8,0:0:0:0:
388,72,35439,1,8,0:0:0:0:
427,157,35642,2,0,P|461:166|496:173,1,71.9999978027344,4|4,1:3|1:3,0:0:0:0:
477,18,36048,2,0,P|442:8|407:1,1,71.9999978027344,8|0,0:0|0:0,0:0:0:0:
269,88,36453,6,0,B|233:77|187:91|177:134|177:134,1,107.999996704102,4|0,1:2|0:0,0:0:0:0:
178,128,36859,2,0,P|190:186|190:216,1,71.9999978027344,8|8,0:0|0:0,0:0:0:0:
308,240,37264,2,0,P|304:275|296:310,1,71.9999978027344,0|0,1:0|0:0,0:0:0:0:
149,373,37669,2,0,L|61:358,1,71.9999978027344,8|0,0:0|1:0,0:0:0:0:
23,297,38075,5,0,1:0:0:0:
120,251,38277,1,0,0:0:0:0:
12,129,38480,1,8,0:0:0:0:
12,129,38683,1,8,0:0:0:0:
81,71,38886,5,0,1:0:0:0:
60,200,39088,1,0,1:0:0:0:
81,71,39291,1,8,0:0:0:0:
179,150,39494,5,0,3:0:0:0:
179,150,39595,1,0,3:0:0:0:
179,150,39696,2,0,P|229:162|270:158,1,71.9999978027344,0|0,1:0|0:0,0:0:0:0:
348,54,40102,2,0,P|298:42|257:46,1,71.9999978027344,8|0,0:0|0:0,0:0:0:0:
389,201,40507,5,0,1:0:0:0:
434,53,40710,1,12,0:0:0:0:
290,145,40913,1,12,0:0:0:0:
420,174,41115,1,0,1:0:0:0:
280,258,41318,5,0,1:0:0:0:
460,296,41521,1,12,0:0:0:0:
280,258,41723,1,12,0:0:0:0:
420,174,41926,1,0,1:0:0:0:
344,357,42128,1,12,0:0:0:0:
280,258,42332,1,8,0:0:0:0:
263,250,42433,1,8,0:0:0:0:
246,245,42534,1,8,0:0:0:0:
228,241,42636,1,8,0:0:0:0:
211,238,42737,1,8,0:0:0:0:
193,237,42838,1,8,0:0:0:0:
177,241,42940,6,0,B|178:298|185:333,1,80,4|0,1:0|0:0,0:0:0:0:
296,207,43345,2,0,B|295:150|288:115,1,80,8|0,0:0|0:0,0:0:0:0:
94,177,43751,2,0,B|89:199|88:256,1,80,0|0,1:0|0:0,0:0:0:0:
161,56,44156,6,0,B|101:17|31:42|18:113|18:113,2,160,8|0|8,0:0|1:0|0:0,0:0:0:0:
186,132,45169,1,2,0:3:0:0:
230,260,45372,1,0,1:0:0:0:
97,224,45575,1,2,0:1:0:0:
186,132,45777,1,8,0:2:0:0:
309,201,45980,5,8,0:0:0:0:
309,201,46082,1,8,0:0:0:0:
309,201,46183,2,0,P|364:211|413:214,1,80,4|0,1:0|0:0,0:0:0:0:
493,93,46588,2,0,P|438:83|389:80,1,80,8|0,0:0|0:0,0:0:0:0:
356,306,46994,2,0,P|395:301|434:293,1,80,0|0,1:0|0:0,0:0:0:0:
347,130,47399,6,0,P|265:139|186:156,1,160,8|0,0:0|1:0,0:0:0:0:
189,155,48007,1,0,0:0:0:0:
91,227,48210,2,0,P|74:169|77:137,1,80,8|2,0:0|0:3,0:0:0:0:
175,67,48615,1,0,1:0:0:0:
47,5,48818,1,2,0:1:0:0:
175,67,49021,1,8,0:0:0:0:
208,168,49223,5,8,0:3:0:0:
208,168,49325,1,4,0:3:0:0:
208,168,49426,2,0,B|224:206|219:254|181:293|181:293,1,120,4|0,1:0|0:0,0:0:0:0:
190,281,49832,2,0,P|129:274|101:266,1,80,8|0,0:0|0:0,0:0:0:0:
319,205,50237,2,0,P|380:212|408:220,1,80,0|0,1:0|0:0,0:0:0:0:
242,369,50642,6,0,P|166:367|72:350,2,160,8|0|8,0:0|1:0|0:0,0:0:0:0:
357,286,51656,1,2,0:3:0:0:
435,299,51859,2,0,P|447:345|442:377,1,80,0|2,1:0|0:1,0:0:0:0:
279,269,52264,1,8,0:0:0:0:
393,142,52467,5,8,0:0:0:0:
393,142,52568,1,8,0:0:0:0:
393,142,52670,1,4,1:2:0:0:
510,200,52872,1,0,0:0:0:0:
429,307,53075,1,8,0:0:0:0:
429,307,53480,5,0,1:0:0:0:
346,272,53683,1,2,0:3:0:0:
318,349,53886,1,8,0:0:0:0:
401,384,54089,1,2,0:3:0:0:
291,204,54291,6,0,P|270:250|262:306,1,80,2|0,1:1|0:0,0:0:0:0:
483,232,54696,2,0,P|484:184|471:141,1,80,10|0,0:1|0:0,0:0:0:0:
374,42,55102,1,0,1:0:0:0:
290,90,55305,1,8,0:0:0:0:
270,89,55406,1,8,0:0:0:0:
250,87,55507,1,8,0:3:0:0:
230,82,55609,1,8,0:3:0:0:
212,74,55710,1,4,0:3:0:0:
194,65,55811,1,4,0:3:0:0:
180,56,55913,6,0,P|125:42|95:40,1,80,4|0,1:0|0:0,0:0:0:0:
9,190,56318,2,0,P|64:204|94:206,1,80,8|0,0:0|0:0,0:0:0:0:
272,104,56723,2,0,P|286:49|288:19,1,80,0|0,1:0|0:0,0:0:0:0:
191,174,57129,6,0,B|170:236|222:293|288:272|288:272,2,160,8|0|8,0:0|1:0|0:2,0:0:0:0:
191,174,58345,1,0,1:0:0:0:
281,167,58548,1,2,0:1:0:0:
377,269,58750,1,8,0:0:0:0:
285,282,58953,5,8,0:0:0:0:
285,282,59055,1,8,0:0:0:0:
285,282,59156,2,0,P|278:321|273:370,1,80,4|0,1:2|0:0,0:0:0:0:
419,338,59561,2,0,P|426:299|431:250,1,80,8|0,0:2|0:0,0:0:0:0:
222,216,59967,2,0,P|202:274|205:318,1,80,0|0,1:0|0:0,0:0:0:0:
339,146,60372,6,0,L|173:104,1,160,8|0,0:0|1:0,0:0:0:0:
112,141,60980,1,2,0:0:0:0:
186,258,61183,1,8,0:0:0:0:
186,258,61386,1,2,0:3:0:0:
59,309,61588,1,0,1:0:0:0:
18,243,61791,1,2,0:3:0:0:
92,231,61994,1,10,0:1:0:0:
154,359,62196,5,8,0:3:0:0:
154,359,62298,1,4,0:3:0:0:
154,359,62399,2,0,P|206:373|287:380,1,120,4|0,1:0|0:0,0:0:0:0:
271,379,62805,2,0,L|380:358,1,80,8|0,0:0|0:0,0:0:0:0:
386,221,63210,2,0,L|277:242,1,80,0|0,1:0|0:0,0:0:0:0:
442,384,63615,2,0,P|447:334|424:289,1,80,8|0,0:0|0:0,0:0:0:0:
315,157,64021,6,0,P|307:235|307:245,2,80,0|0|8,1:0|0:0|0:0,0:0:0:0:
378,110,64629,1,0,3:0:0:0:
441,0,64832,1,2,1:3:0:0:
309,2,65034,1,2,0:1:0:0:
378,110,65237,1,8,0:0:0:0:
237,173,65440,5,8,0:0:0:0:
237,173,65541,1,8,0:0:0:0:
237,173,65642,1,4,1:2:0:0:
166,121,65845,2,0,P|119:104|79:103,1,80,8|0,0:0|1:0,0:0:0:0:
10,253,66250,1,0,3:0:0:0:
73,321,66453,2,0,B|143:309|165:227|98:177|98:177,1,160,12|0,0:0|1:0,0:0:0:0:
115,196,67061,1,8,3:2:0:0:
201,332,67264,5,4,1:1:0:0:
246,190,67467,1,12,0:0:0:0:
201,332,67669,2,0,P|241:335|297:342,1,80,12|0,0:0|0:0,0:0:0:0:
407,384,68075,1,12,0:0:0:0:
361,256,68277,5,8,0:0:0:0:
356,229,68378,1,8,0:0:0:0:
353,203,68479,1,8,0:0:0:0:
354,176,68581,1,8,0:0:0:0:
358,150,68682,1,8,0:0:0:0:
364,124,68783,1,8,0:0:0:0:
374,99,68885,1,4,1:2:0:0:
507,18,69088,1,0,0:0:0:0:
512,169,69291,1,8,0:0:0:0:
512,169,69494,1,0,0:0:0:0:
382,19,69696,6,0,L|231:0,1,132.00000402832,4|0,1:3|0:0,0:0:0:0:
251,2,70102,2,0,P|230:54|225:103,1,88.000002685547,8|0,0:0|0:0,0:0:0:0:
319,252,70507,2,0,P|340:200|345:151,1,88.000002685547,4|0,1:3|0:0,0:0:0:0:
175,225,70913,1,8,0:0:0:0:
262,343,71115,1,0,0:0:0:0:
187,378,71318,6,0,L|84:386,1,88.000002685547,4|2,1:3|0:3,0:0:0:0:
3,243,71723,2,0,L|106:235,1,88.000002685547,10|8,0:1|0:0,0:0:0:0:
90,236,72027,1,8,0:0:0:0:
90,236,72129,6,0,B|155:199|168:115|76:67|76:67,1,176.000005371094,4|8,1:2|0:0,0:0:0:0:
25,107,72737,1,0,0:0:0:0:
204,232,72940,2,0,P|227:156|230:127,1,88.000002685547,4|0,1:3|0:0,0:0:0:0:
127,3,73345,2,0,P|104:79|101:108,1,88.000002685547,12|0,0:0|0:0,0:0:0:0:
146,295,73750,6,0,L|286:274,1,132.00000402832,4|0,1:3|0:0,0:0:0:0:
276,275,74156,1,12,0:0:0:0:
465,249,74359,1,2,0:0:0:0:
390,368,74561,1,4,1:3:0:0:
272,141,74764,5,14,0:0:0:0:
437,117,74967,1,8,0:3:0:0:
383,273,75169,5,8,0:0:0:0:
383,273,75271,1,8,0:0:0:0:
383,273,75372,1,12,1:2:0:0:
359,184,75575,1,2,0:0:0:0:
339,96,75777,1,8,0:0:0:0:
339,96,75980,1,2,0:3:0:0:
397,30,76183,5,4,1:2:0:0:
276,169,76386,1,2,0:1:0:0:
162,45,76588,1,8,0:0:0:0:
162,45,76994,6,0,P|141:156|139:177,1,132.00000402832,4|0,1:2|0:0,0:0:0:0:
139,174,77399,1,8,0:0:0:0:
171,337,77602,1,2,0:1:0:0:
22,213,77805,5,4,1:3:0:0:
259,279,78210,5,4,1:3:0:0:
85,382,78615,6,0,B|49:344|51:261|129:237|129:237,2,160,4|8|0,1:0|0:0|1:0,0:0:0:0:
155,351,79629,1,0,1:0:0:0:
155,351,79832,2,0,P|215:344|254:340,1,80,8|0,0:0|0:0,0:0:0:0:
324,233,80237,6,0,P|264:240|225:244,1,80,0|0,1:0|0:0,0:0:0:0:
111,154,80642,2,0,P|102:97|104:23,1,120,8|0,0:0|0:0,0:0:0:0:
102,34,81048,1,0,1:0:0:0:
243,0,81250,2,0,P|247:47|246:95,1,80,2|8,0:1|0:0,0:0:0:0:
201,156,81656,1,2,0:3:0:0:
243,0,81859,6,0,B|298:-21|372:3|366:89|366:89,1,160,0|8,1:0|0:0,0:0:0:0:
364,68,82669,1,0,1:0:0:0:
312,167,82872,1,0,1:0:0:0:
408,233,83075,2,0,P|415:275|415:322,1,80,8|0,0:0|0:0,0:0:0:0:
282,166,83480,6,0,P|281:236|271:292,1,120,0|0,1:0|0:0,0:0:0:0:
272,285,83886,2,0,P|213:271|175:264,1,80,8|0,0:0|0:0,0:0:0:0:
54,293,84291,1,2,1:3:0:0:
54,293,84493,1,2,1:0:0:0:
150,384,84696,1,8,0:0:0:0:
194,267,84899,1,10,0:3:0:0:
131,220,85102,2,0,P|123:170|131:134,1,80,2|0,1:2|0:0,0:0:0:0:
282,18,85507,6,0,B|314:78|270:143|205:133|205:133,1,160,12|0,0:0|1:0,0:0:0:0:
178,64,86115,1,2,1:0:0:0:
59,50,86318,2,0,L|50:129,1,80,8|0,0:0|0:0,0:0:0:0:
85,281,86723,6,0,P|42:270|-2:264,2,80,0|0|8,1:0|0:0|0:0,0:0:0:0:
236,368,87332,2,0,P|249:306|251:269,1,80,2|0,0:1|1:0,0:0:0:0:
205,210,87737,1,2,1:3:0:0:
343,324,87940,2,0,P|333:248|322:195,1,120,10|0,0:1|0:0,0:0:0:0:
324,205,88345,6,0,B|370:165|447:180|466:259,2,160,0|8|0,1:0|0:0|1:0,0:0:0:0:
222,115,89359,1,0,1:0:0:0:
340,49,89561,1,8,0:1:0:0:
340,49,89764,1,2,0:1:0:0:
261,3,89967,5,2,1:3:0:0:
313,241,90372,1,10,0:0:0:0:
232,291,90575,1,8,0:0:0:0:
232,291,90676,1,8,0:0:0:0:
232,291,90777,1,8,0:0:0:0:
163,221,90980,1,8,1:3:0:0:
250,177,91183,1,8,0:3:0:0:
250,177,91386,1,4,0:3:0:0:
250,177,91588,6,0,P|256:135|257:95,1,64,4|0,1:2|1:0,0:0:0:0:
104,51,91994,2,0,P|99:82|96:114,1,64,8|8,0:2|0:0,0:0:0:0:
184,94,92399,2,0,P|188:62|191:30,1,64,0|0,1:2|1:0,0:0:0:0:
96,114,92805,1,8,0:0:0:0:
35,172,93007,6,0,B|8:221|21:273|98:291|98:291,1,128,4|0,0:3|1:0,0:0:0:0:
61,360,93615,2,0,L|142:351,1,64,8|8,0:0|0:0,0:0:0:0:
191,308,94021,1,0,1:0:0:0:
191,308,94223,1,0,1:0:0:0:
268,384,94426,2,0,P|273:340|273:274,1,96,8|0,0:0|0:0,0:0:0:0:
273,288,94832,6,0,P|264:231|261:201,1,64,0|0,1:0|1:0,0:0:0:0:
354,337,95237,2,0,P|396:346|438:342,1,64,8|8,0:0|0:0,0:0:0:0:
465,261,95642,2,0,P|423:252|381:256,1,64,0|0,1:0|1:0,0:0:0:0:
346,197,96048,1,8,0:0:0:0:
405,128,96250,1,8,0:3:0:0:
346,73,96453,6,0,P|339:29|335:-5,1,64,0|0,1:0|0:0,0:0:0:0:
409,132,96859,1,8,0:0:0:0:
409,132,97061,2,0,B|382:88|328:77|280:116|280:116,1,128,8|0,0:0|1:0,0:0:0:0:
212,190,97669,2,0,L|219:264,1,64,8|0,0:0|0:0,0:0:0:0:
305,274,98075,6,0,P|304:229|299:201,1,64,0|0,1:0|0:0,0:0:0:0:
212,190,98480,1,8,0:0:0:0:
133,252,98683,1,8,0:0:0:0:
65,211,98886,2,0,L|-5:202,1,64,0|0,1:0|1:0,0:0:0:0:
66,293,99291,1,8,0:0:0:0:
66,293,99494,1,0,1:0:0:0:
133,169,99696,6,0,B|177:141|181:74|117:45|117:45,1,128,0|8,1:0|0:0,0:0:0:0:
60,11,100305,2,0,L|52:82,1,64,8|0,0:0|1:0,0:0:0:0:
133,169,100710,1,0,1:0:0:0:
196,214,100912,2,0,P|229:220|271:215,1,64,8|0,0:0|0:0,0:0:0:0:
323,132,101318,5,0,1:0:0:0:
323,132,101521,1,0,1:0:0:0:
277,67,101723,2,0,L|270:-6,1,64,8|8,0:0|0:0,0:0:0:0:
393,23,102129,2,0,L|400:96,1,64,0|0,1:0|1:0,0:0:0:0:
457,187,102534,2,0,P|421:187|389:193,1,64,8|0,0:0|1:0,0:0:0:0:
327,255,102940,5,0,1:0:0:0:
418,330,103142,1,0,1:0:0:0:
323,384,103345,1,8,0:0:0:0:
251,350,103548,2,0,P|245:310|246:278,1,64,8|0,0:0|0:0,0:0:0:0:
301,135,103953,5,8,0:3:0:0:
327,255,104156,1,8,0:0:0:0:
301,135,104358,1,8,0:3:0:0:
202,212,104561,6,0,L|91:223,1,107.999996704102,4|0,1:2|0:0,0:0:0:0:
94,222,104967,2,0,P|75:179|70:141,1,71.9999978027344,8|8,0:0|0:0,0:0:0:0:
183,52,105372,2,0,P|201:94|206:132,1,71.9999978027344,0|0,1:0|1:0,0:0:0:0:
198,208,105777,5,8,0:0:0:0:
112,310,105980,1,0,0:0:0:0:
237,371,106183,1,0,1:0:0:0:
237,371,106386,2,0,P|314:360|333:358,1,71.9999978027344,0|8,1:0|0:0,0:0:0:0:
383,225,106791,2,0,B|436:259|445:309|404:368|404:368,1,143.999995605469,0|0,1:0|1:0,0:0:0:0:
294,272,107399,2,0,P|290:215|292:181,1,71.9999978027344,8|8,0:0|0:3,0:0:0:0:
290,200,107703,1,4,0:3:0:0:
290,200,107805,6,0,P|296:142|295:111,1,71.9999978027344,0|0,1:0|1:0,0:0:0:0:
216,37,108210,1,8,0:0:0:0:
164,146,108413,1,8,0:0:0:0:
92,93,108615,1,0,1:0:0:0:
92,93,108818,2,0,P|48:96|17:90,1,71.9999978027344,0|8,1:0|0:0,0:0:0:0:
123,199,109223,6,0,L|132:278,1,71.9999978027344,0|0,0:0|1:0,0:0:0:0:
26,347,109629,2,0,L|17:268,1,71.9999978027344,0|8,1:0|0:0,0:0:0:0:
123,199,110034,2,0,B|179:187|231:232|220:291|220:291,1,143.999995605469,8|0,0:2|1:0,0:0:0:0:
181,347,110642,1,8,0:0:0:0:
181,347,110845,1,8,0:0:0:0:
294,374,111048,6,0,P|331:379|374:377,1,71.9999978027344,0|0,1:0|0:0,0:0:0:0:
423,288,111453,1,8,0:0:0:0:
316,210,111656,1,8,0:0:0:0:
345,294,111859,2,0,P|351:247|360:170,1,107.999996704102,0|0,1:0|0:0,0:0:0:0:
358,186,112264,2,0,P|356:136|355:95,1,71.9999978027344,8|0,0:0|1:0,0:0:0:0:
443,20,112669,5,0,1:0:0:0:
507,67,112872,2,0,P|507:107|485:157,1,71.9999978027344,0|8,1:0|0:0,0:0:0:0:
355,114,113277,2,0,P|355:74|377:24,1,71.9999978027344,0|0,1:0|0:0,0:0:0:0:
417,179,113683,1,0,1:0:0:0:
297,243,113886,1,8,0:0:0:0:
297,243,114088,1,0,1:0:0:0:
229,174,114291,6,0,L|116:156,1,107.999996704102,0|0,1:0|0:0,0:0:0:0:
122,157,114696,2,0,P|101:199|98:237,1,71.9999978027344,8|8,0:0|0:0,0:0:0:0:
180,339,115102,2,0,P|184:283|168:244,1,71.9999978027344,0|0,1:0|1:0,0:0:0:0:
10,218,115507,2,0,P|13:266|34:307,1,71.9999978027344,8|0,0:0|1:0,0:0:0:0:
101,384,115913,5,0,1:0:0:0:
188,346,116115,1,0,1:0:0:0:
188,346,116217,1,0,1:0:0:0:
188,346,116318,1,8,0:0:0:0:
260,376,116521,2,8,B|319:357|339:294|281:232|281:232,1,143.999995605469,8|0,0:0|1:0,0:0:0:0:
194,185,117129,1,8,0:0:0:0:
271,98,117332,5,0,3:0:0:0:
271,98,117433,1,0,3:0:0:0:
271,98,117534,1,4,1:2:0:0:
333,49,117940,1,0,1:0:0:0:
401,88,118345,1,0,1:0:0:0:
345,146,118750,1,0,1:0:0:0:
240,23,118953,5,4,1:3:0:0:
240,23,119055,1,4,1:3:0:0:
240,23,119156,1,4,1:3:0:0:
164,5,119561,1,0,1:0:0:0:
107,57,119966,1,0,1:0:0:0:
149,178,120169,1,0,3:0:0:0:
151,188,120270,1,0,3:0:0:0:
153,198,120371,1,8,0:0:0:0:
154,209,120473,1,8,0:0:0:0:
155,220,120574,1,8,0:0:0:0:
155,230,120675,1,8,0:0:0:0:
155,241,120777,5,0,1:0:0:0:
84,277,121183,1,0,1:0:0:0:
31,219,121588,1,0,1:0:0:0:
100,181,121993,1,0,1:0:0:0:
170,243,122399,5,0,1:0:0:0:
202,325,122805,1,0,1:0:0:0:
130,380,123210,1,0,1:0:0:0:
130,380,123413,1,0,1:0:0:0:
38,292,123615,1,2,1:0:0:0:
163,230,123818,5,0,3:0:0:0:
163,230,123919,1,0,3:0:0:0:
163,230,124021,1,2,1:3:0:0:
239,213,124426,1,0,1:0:0:0:
294,268,124832,1,0,1:0:0:0:
367,251,125237,1,0,1:0:0:0:
430,128,125440,5,4,1:3:0:0:
430,128,125541,1,4,1:3:0:0:
430,128,125643,1,4,1:3:0:0:
473,62,126047,1,0,1:0:0:0:
396,52,126453,1,0,1:0:0:0:
314,152,126656,1,0,3:0:0:0:
314,167,126757,1,0,3:0:0:0:
316,183,126859,1,8,0:0:0:0:
318,199,126960,1,8,0:0:0:0:
322,215,127061,1,8,0:0:0:0:
326,230,127162,1,8,0:0:0:0:
331,245,127264,5,0,1:0:0:0:
400,299,127669,1,0,1:0:0:0:
334,363,128074,1,0,1:0:0:0:
266,306,128480,1,0,1:0:0:0:
203,237,128886,5,0,1:0:0:0:
302,158,129291,1,0,1:0:0:0:
219,66,129696,1,0,1:0:0:0:
119,141,130101,1,0,1:0:0:0:
117,302,130508,5,12,0:2:0:0:
117,302,130710,1,0,1:0:0:0:
44,245,130913,5,0,1:0:0:0:
143,216,131115,1,0,1:0:0:0:
39,109,131318,5,0,1:0:0:0:
173,137,131521,1,0,1:0:0:0:
39,109,131723,1,8,0:0:0:0:
143,0,131926,1,0,1:0:0:0:
287,83,132129,5,4,1:2:0:0:
288,95,132230,1,0,3:0:0:0:
289,108,132331,1,0,3:0:0:0:
289,121,132433,1,0,3:0:0:0:
287,134,132534,1,0,1:0:0:0:
286,147,132635,1,0,3:0:0:0:
283,159,132737,1,0,3:0:0:0:
279,171,132838,1,0,3:0:0:0:
274,189,132940,1,8,1:0:0:0:
267,207,133041,1,8,0:0:0:0:
262,225,133142,1,8,0:0:0:0:
257,243,133244,1,8,0:0:0:0:
254,261,133345,1,8,1:0:0:0:
251,279,133446,1,8,0:0:0:0:
249,298,133548,1,8,0:0:0:0:
249,317,133649,1,8,0:0:0:0:
251,336,133750,6,0,B|292:348|344:348,1,80,4|0,1:0|0:0,0:0:0:0:
471,239,134156,2,0,B|430:227|378:227,1,80,8|0,0:0|0:0,0:0:0:0:
279,113,134561,2,0,B|263:157|285:210|285:210,1,80,0|0,1:0|0:0,0:0:0:0:
500,95,134967,6,0,B|450:63|385:87|377:158,1,160,8|0,0:0|1:0,0:0:0:0:
392,227,135575,1,0,0:0:0:0:
290,301,135777,1,8,0:0:0:0:
402,366,135980,1,2,0:3:0:0:
324,372,136183,5,4,0:3:0:0:
435,294,136386,1,2,1:1:0:0:
316,228,136588,1,8,0:0:0:0:
223,264,136791,5,8,0:0:0:0:
223,264,136892,1,8,0:0:0:0:
223,264,136994,2,0,L|216:345,1,80,4|0,1:2|0:0,0:0:0:0:
348,286,137399,2,0,P|349:246|340:208,1,80,8|0,0:0|0:0,0:0:0:0:
123,301,137804,2,0,P|122:341|132:380,1,80,0|0,1:0|0:0,0:0:0:0:
15,179,138210,6,0,P|89:191|165:204,1,120,8|0,0:0|0:0,0:0:0:0:
133,198,138615,1,0,1:0:0:0:
233,123,138818,1,0,0:0:0:0:
178,43,139021,2,0,P|130:26|83:29,1,80,8|2,0:0|0:3,0:0:0:0:
233,123,139426,5,0,1:0:0:0:
326,49,139629,1,2,0:1:0:0:
426,125,139832,1,8,0:0:0:0:
374,197,140034,5,8,0:3:0:0:
374,197,140136,1,4,0:3:0:0:
374,197,140237,2,0,L|279:175,1,80,4|0,1:0|0:0,0:0:0:0:
398,339,140642,2,0,L|484:353,1,80,8|0,0:0|0:0,0:0:0:0:
300,293,141048,2,0,P|283:328|275:375,1,80,0|0,1:0|0:0,0:0:0:0:
438,254,141453,6,0,P|427:177|424:129,1,120,8|0,0:0|0:0,0:0:0:0:
424,133,141859,2,0,P|430:94|431:54,1,80,0|0,1:0|0:0,0:0:0:0:
279,4,142264,2,0,P|272:43|271:83,1,80,8|0,0:0|0:0,0:0:0:0:
302,151,142669,1,0,1:0:0:0:
186,220,142872,1,2,0:1:0:0:
76,139,143075,1,8,0:0:0:0:
127,66,143277,5,8,0:0:0:0:
127,66,143379,1,8,0:0:0:0:
127,66,143480,1,4,1:2:0:0:
206,135,143683,1,0,0:0:0:0:
98,249,143886,1,8,0:0:0:0:
98,249,144291,6,0,B|66:288|68:335|110:354|110:354,1,120,0|0,1:0|0:0,0:0:0:0:
108,353,144696,2,0,P|150:343|195:339,1,80,8|2,0:0|0:3,0:0:0:0:
309,248,145102,1,2,1:0:0:0:
278,383,145305,1,0,0:0:0:0:
309,248,145507,2,0,P|248:238|210:234,1,80,10|0,0:1|0:0,0:0:0:0:
98,249,145913,1,0,1:0:0:0:
32,172,146115,1,8,0:0:0:0:
25,152,146216,1,8,0:0:0:0:
21,133,146317,1,8,0:3:0:0:
18,113,146419,1,8,0:3:0:0:
16,93,146521,1,4,0:3:0:0:
15,73,146622,1,4,0:3:0:0:
21,54,146723,6,0,L|154:44,1,120,4|0,1:2|0:0,0:0:0:0:
140,45,147129,2,0,P|158:88|160:139,1,80,8|0,0:0|0:0,0:0:0:0:
279,206,147534,2,0,P|284:166|300:130,1,80,0|0,1:0|0:0,0:0:0:0:
128,274,147940,6,0,B|181:254|249:278|243:359|243:359,1,160,8|0,0:0|1:0,0:0:0:0:
329,382,148548,1,0,0:0:0:0:
410,341,148750,2,0,L|420:257,1,80,8|2,0:0|0:3,0:0:0:0:
476,168,149156,5,0,1:0:0:0:
353,203,149359,1,2,0:1:0:0:
271,109,149561,1,8,0:0:0:0:
389,81,149764,1,8,0:0:0:0:
389,81,149865,1,8,0:0:0:0:
389,81,149967,6,0,P|403:29|410:-6,1,80,4|0,1:0|0:0,0:0:0:0:
192,127,150372,2,0,P|200:166|211:204,1,80,8|0,0:0|0:0,0:0:0:0:
412,297,150777,2,0,P|433:226|446:168,1,120,0|0,1:0|0:0,0:0:0:0:
443,181,151183,2,0,L|352:192,1,80,8|0,0:0|0:0,0:0:0:0:
211,204,151588,5,0,1:0:0:0:
304,311,151791,1,0,0:0:0:0:
363,190,151994,1,8,0:0:0:0:
363,190,152196,1,2,0:3:0:0:
210,309,152399,5,4,1:3:0:0:
385,351,152602,1,2,1:1:0:0:
210,309,152805,1,8,0:0:0:0:
127,360,153007,5,8,0:3:0:0:
127,360,153109,1,4,0:3:0:0:
127,360,153210,2,0,L|26:356,1,80,4|0,1:2|0:0,0:0:0:0:
83,162,153615,2,0,B|129:164|157:203|150:252|150:252,1,120,8|0,0:0|0:0,0:0:0:0:
150,246,154021,2,0,L|63:241,1,80,0|0,1:0|0:0,0:0:0:0:
218,105,154426,6,0,P|248:201|245:271,2,160,8|0|8,0:0|1:0|0:0,0:0:0:0:
161,60,155440,1,2,3:0:0:0:
161,60,155541,1,0,3:0:0:0:
161,60,155642,1,0,1:0:0:0:
39,136,155845,1,2,0:1:0:0:
157,207,156048,1,8,0:0:0:0:
278,138,156250,5,8,0:0:0:0:
278,138,156352,1,8,0:0:0:0:
278,138,156453,1,4,1:2:0:0:
362,92,156656,2,0,P|372:48|366:5,1,80,8|0,0:0|1:0,0:0:0:0:
474,194,157061,2,0,L|487:88,1,80,0|8,0:0|0:0,0:0:0:0:
350,224,157467,1,4,0:3:0:0:
350,224,157568,1,8,0:0:0:0:
350,224,157669,1,4,0:3:0:0:
456,319,157872,1,4,1:3:0:0:
323,377,158075,5,12,0:0:0:0:
350,224,158277,1,12,0:0:0:0:
377,72,158481,1,12,0:0:0:0:
377,72,158683,2,0,P|330:57|286:61,1,80,2|0,0:0|1:0,0:0:0:0:
171,160,159088,1,8,0:0:0:0:
151,164,159189,1,8,0:0:0:0:
131,167,159290,1,8,0:0:0:0:
111,170,159392,1,8,0:0:0:0:
91,171,159493,1,8,0:0:0:0:
71,172,159594,1,8,0:0:0:0:
51,172,159696,1,4,1:2:0:0:
4,43,159899,1,0,0:0:0:0:
141,72,160102,1,8,0:0:0:0:
51,172,160305,1,0,0:0:0:0:
13,261,160507,6,0,P|0:310|-3:356,1,88.000002685547,4|0,1:3|0:0,0:0:0:0:
150,384,160913,2,0,P|163:335|166:289,1,88.000002685547,8|0,0:0|0:0,0:0:0:0:
295,131,161318,2,0,B|251:109|190:116|167:200|167:200,1,132.00000402832,4|0,1:3|0:0,0:0:0:0:
181,168,161723,5,8,0:0:0:0:
249,348,161926,1,2,0:3:0:0:
68,312,162129,1,4,1:3:0:0:
68,312,162332,1,2,0:1:0:0:
185,172,162534,1,8,0:0:0:0:
280,243,162737,5,8,0:0:0:0:
280,243,162838,1,8,0:0:0:0:
280,243,162940,2,0,L|384:257,1,88.000002685547,4|0,1:0|0:0,0:0:0:0:
498,156,163345,1,8,0:0:0:0:
356,51,163548,1,0,0:0:0:0:
427,13,163750,2,0,P|434:85|428:144,1,132.00000402832,4|0,1:3|0:0,0:0:0:0:
427,144,164156,2,0,L|323:130,1,88.000002685547,8|0,0:0|0:0,0:0:0:0:
179,43,164561,5,4,1:3:0:0:
215,208,164764,1,0,3:0:0:0:
215,208,164865,1,0,3:0:0:0:
215,208,164967,1,8,0:0:0:0:
179,43,165169,1,2,0:3:0:0:
116,122,165372,5,4,1:3:0:0:
291,161,165575,1,14,0:1:0:0:
110,268,165778,1,8,0:3:0:0:
264,300,165981,1,4,0:3:0:0:
168,363,166183,6,0,P|117:374|74:368,1,88.000002685547,4|0,1:2|0:0,0:0:0:0:
0,178,166588,2,0,P|43:174|86:185,1,88.000002685547,8|0,0:0|0:0,0:0:0:0:
187,284,166994,1,0,1:0:0:0:
300,206,167196,1,2,0:1:0:0:
202,117,167399,1,8,0:0:0:0:
202,117,167805,6,0,L|199:24,1,88.000002685547,4|0,1:3|0:0,0:0:0:0:
418,148,168210,2,0,B|405:90|369:66|301:78|301:78,1,132.00000402832,8|0,0:0|0:0,0:0:0:0:
322,76,168615,5,4,1:3:0:0:
225,242,169021,5,4,1:3:0:0:
345,369,169426,6,0,L|513:353,2,160,4|8|0,1:0|0:0|1:0,0:0:0:0:
288,316,170440,1,0,1:0:0:0:
379,242,170642,1,8,0:0:0:0:
379,242,170845,2,0,P|385:198|388:156,1,80,2|0,0:3|1:0,0:0:0:0:
261,83,171250,2,0,P|254:126|252:169,1,80,2|8,0:1|0:0,0:0:0:0:
370,69,171656,5,0,0:0:0:0:
370,69,171859,2,0,P|424:68|450:47,1,80,0|0,1:0|1:0,0:0:0:0:
257,166,172264,2,0,B|211:141|158:157|154:215|154:215,1,120,8|0,0:0|0:0,0:0:0:0:
158,199,172669,2,0,L|169:290,1,80,0|0,1:0|0:0,0:0:0:0:
68,380,173075,1,8,0:0:0:0:
8,334,173277,2,0,P|0:284|7:246,1,80,0|0,0:0|1:0,0:0:0:0:
153,377,173683,2,0,P|195:364|247:367,1,80,0|8,1:0|0:0,0:0:0:0:
230,363,174291,6,0,B|286:392|353:383|374:315|374:315,1,160,0|8,1:0|0:0,0:0:0:0:
368,326,174899,1,0,0:0:0:0:
292,198,175102,1,2,1:3:0:0:
375,229,175305,2,0,P|382:173|385:139,1,80,2|8,1:1|0:0,0:0:0:0:
309,25,175710,1,2,1:3:0:0:
233,76,175913,2,0,L|113:88,1,120,2|0,1:2|0:0,0:0:0:0:
113,87,176318,6,0,P|93:40|94:0,1,80,8|0,0:0|0:0,0:0:0:0:
196,165,176723,1,0,1:0:0:0:
10,228,176926,1,0,1:0:0:0:
10,228,177129,2,0,B|27:182|65:161|119:173|119:173,1,120,8|0,0:0|0:0,0:0:0:0:
105,171,177534,2,0,L|105:264,2,80,0|2|8,1:0|0:3|0:0,0:0:0:0:
224,288,178142,6,0,P|232:248|232:191,1,80,2|0,0:1|1:0,0:0:0:0:
139,341,178548,1,0,1:0:0:0:
264,370,178750,2,0,P|317:378|390:378,1,120,8|0,0:0|0:0,0:0:0:0:
383,378,179156,1,0,1:0:0:0:
476,293,179359,1,0,0:0:0:0:
378,213,179561,1,8,0:0:0:0:
441,167,179764,6,0,P|447:110|444:83,1,80,0|0,0:0|1:0,0:0:0:0:
304,143,180169,2,0,P|298:200|301:227,1,80,0|8,1:0|0:0,0:0:0:0:
378,213,180575,1,2,0:3:0:0:
367,76,180777,1,0,1:0:0:0:
367,76,180980,1,2,0:1:0:0:
230,133,181183,1,8,0:0:0:0:
227,222,181386,6,0,P|170:233|125:222,1,80,2|0,0:0|1:0,0:0:0:0:
50,176,181791,1,8,0:0:0:0:
48,156,181892,1,8,0:0:0:0:
47,136,181993,1,8,0:3:0:0:
45,116,182095,1,8,0:3:0:0:
44,96,182196,1,4,0:3:0:0:
7,340,182399,6,0,B|35:300|75:290|126:306,1,120,4|0,1:2|0:2,0:2:0:0:
112,302,182805,2,0,L|106:398,1,80,8|0,0:0|0:0,0:0:0:0:
234,259,183210,1,0,1:0:0:0:
182,198,183413,2,0,P|168:145|175:100,1,80,0|8,0:0|0:0,0:0:0:0:
319,211,183818,5,0,3:0:0:0:
319,211,183919,1,0,3:0:0:0:
319,211,184021,2,0,L|494:192,1,160,0|8,1:0|0:0,0:0:0:0:
401,373,184629,2,0,P|336:380|312:379,1,80,2|0,0:3|1:0,0:0:0:0:
385,290,185034,2,0,P|450:283|474:284,1,80,2|8,1:1|0:0,0:0:0:0:
319,211,185440,5,0,3:0:0:0:
319,211,185541,1,0,3:0:0:0:
319,211,185642,2,0,B|269:174|256:104|330:53|330:53,2,160,0|8|0,1:0|0:0|1:0,0:0:0:0:
385,103,186656,1,0,1:0:0:0:
456,141,186859,2,0,L|449:235,1,80,8|0,0:0|0:0,0:0:0:0:
301,368,187264,6,0,L|308:274,1,80,0|0,1:0|0:0,0:0:0:0:
313,209,187669,1,8,0:0:0:0:
313,209,187872,1,0,0:0:0:0:
259,132,188075,5,2,1:3:0:0:
375,72,188277,1,2,0:1:0:0:
264,0,188480,1,8,0:0:0:0:
375,72,188683,1,2,0:3:0:0:
455,79,188886,2,0,P|462:31|461:-5,1,80,2|0,1:2|0:0,0:0:0:0:
196,73,189291,6,0,B|140:46|56:81|62:165|62:165,1,160,12|0,0:0|1:0,0:0:0:0:
76,268,189899,1,0,1:0:0:0:
155,281,190102,2,0,P|163:228|155:179,1,80,8|0,0:0|0:0,0:0:0:0:
25,347,190507,6,0,L|203:369,1,160,0|8,1:0|0:0,0:0:0:0:
338,284,191115,2,0,P|380:276|433:282,1,80,2|0,0:3|1:0,0:0:0:0:
382,371,191521,2,0,P|340:379|287:373,1,80,2|8,1:1|0:0,0:0:0:0:
227,228,191926,1,0,0:0:0:0:
273,153,192129,6,0,P|281:79|284:26,1,120,0|0,1:0|0:0,0:0:0:0:
283,33,192534,2,0,L|187:20,1,80,8|0,0:0|0:0,0:0:0:0:
360,116,192940,5,0,1:0:0:0:
439,9,193142,1,2,1:3:0:0:
507,124,193345,1,8,0:0:0:0:
360,116,193548,2,0,P|354:159|353:205,1,80,2|0,0:1|1:0,0:0:0:0:
449,330,193953,5,0,0:0:0:0:
435,175,194156,1,8,0:0:0:0:
350,275,194359,5,8,0:0:0:0:
350,275,194460,1,8,0:0:0:0:
350,275,194561,1,8,1:3:0:0:
270,325,194764,1,8,0:3:0:0:
203,271,194967,1,4,1:3:0:0:
275,220,195169,1,4,0:3:0:0:
275,220,195372,1,4,1:2:0:0:
425,362,208345,6,0,P|438:272|439:235,1,120,4|0,1:0|0:0,0:0:0:0:
438,243,208750,2,0,P|429:186|429:146,1,80,8|0,0:0|0:0,0:0:0:0:
258,280,209156,2,0,P|315:289|355:289,1,80,0|0,1:0|0:0,0:0:0:0:
262,71,209561,6,0,B|231:129|263:208|349:192|349:192,2,160,8|0|8,0:0|1:0|0:0,0:0:0:0:
209,12,210575,1,2,0:3:0:0:
123,117,210777,1,0,1:0:0:0:
123,117,210980,1,2,0:1:0:0:
42,11,211183,1,8,0:0:0:0:
4,88,211386,5,8,0:0:0:0:
4,88,211487,1,8,0:0:0:0:
4,88,211588,2,0,P|-3:144|-3:197,1,80,4|0,1:2|0:0,0:0:0:0:
183,243,211994,2,0,P|190:187|190:134,1,80,8|0,0:2|0:0,0:0:0:0:
35,262,212399,2,0,P|21:316|17:360,1,80,0|0,1:0|0:0,0:0:0:0:
127,328,212805,6,0,P|163:344|259:365,1,120,8|0,0:0|0:0,0:0:0:0:
240,363,213210,2,0,L|339:345,1,80,0|0,1:0|0:0,0:0:0:0:
391,238,213615,2,0,L|312:251,1,80,8|2,0:0|0:3,0:0:0:0:
239,187,214021,1,0,1:0:0:0:
332,94,214223,1,2,0:1:0:0:
213,28,214426,1,8,0:0:0:0:
332,94,214629,5,8,0:3:0:0:
332,94,214730,1,4,0:3:0:0:
332,94,214832,2,0,P|341:37|341:-2,1,80,4|0,1:2|0:0,0:0:0:0:
460,182,215237,2,0,P|451:239|451:278,1,80,8|0,0:0|0:0,0:0:0:0:
265,170,215642,2,0,P|311:186|357:190,1,80,0|0,1:0|0:0,0:0:0:0:
512,318,216048,6,0,B|465:277|386:294|369:377|369:377,1,160,8|0,0:0|1:0,0:0:0:0:
378,353,216656,1,0,0:0:0:0:
279,290,216859,2,0,L|282:386,1,80,8|2,0:0|0:3,0:0:0:0:
156,217,217264,2,0,L|158:296,1,80,0|2,1:0|0:1,0:0:0:0:
345,118,217669,6,0,L|347:197,1,80,8|8,0:0|0:0,0:0:0:0:
347,197,217973,1,8,0:0:0:0:
347,197,218075,1,12,0:0:0:0:
442,93,218277,2,0,P|448:47|437:-3,1,80,0|8,0:0|0:0,0:0:0:0:
245,129,218683,2,0,B|188:102|119:131|109:199|109:199,1,160,0|0,0:0|1:0,0:0:0:0:
47,269,219291,2,0,L|139:280,1,80,8|2,0:0|3:2,0:0:0:0:
246,372,219696,5,0,1:0:0:0:
313,312,219899,2,0,P|358:298|421:307,1,80,0|8,0:0|0:0,0:0:0:0:
255,221,220305,1,0,0:0:0:0:
306,137,220507,1,0,1:0:0:0:
230,22,220710,1,8,0:0:0:0:
230,22,220811,1,8,0:0:0:0:
230,22,220913,1,8,0:3:0:0:
230,22,221014,1,8,0:3:0:0:
230,22,221115,1,4,0:3:0:0:
230,22,221217,1,4,0:3:0:0:
230,22,221318,6,0,P|222:80|225:112,1,80,4|0,1:2|0:0,0:0:0:0:
63,169,221723,2,0,P|71:111|68:79,1,80,8|0,0:2|0:0,0:0:0:0:
258,211,222129,2,0,L|173:198,1,80,0|0,1:0|0:0,0:0:0:0:
7,341,222534,6,0,B|38:282|96:261|164:309,1,160,8|0,0:0|1:0,0:0:0:0:
141,295,223142,1,0,0:0:0:0:
216,368,223345,2,0,P|261:370|311:363,1,80,8|2,0:0|0:3,0:0:0:0:
441,280,223750,5,0,1:0:0:0:
348,189,223953,1,2,0:1:0:0:
250,267,224156,1,8,0:0:0:0:
316,349,224359,5,8,0:0:0:0:
316,349,224460,1,8,0:0:0:0:
316,349,224561,2,0,L|324:262,1,80,4|0,1:2|0:0,0:0:0:0:
159,135,224967,2,0,P|148:174|151:222,1,80,8|0,0:2|0:0,0:0:0:0:
316,87,225372,2,0,P|316:47|306:8,1,80,0|0,1:2|0:0,0:0:0:0:
251,178,225777,6,0,L|419:200,1,160,8|0,0:0|1:0,0:0:0:0:
512,60,226386,1,0,0:0:0:0:
413,80,226588,2,0,P|403:23|402:-10,1,80,8|2,0:0|0:3,0:0:0:0:
510,165,226994,2,0,P|506:204|499:244,1,80,0|2,1:0|0:1,0:0:0:0:
387,327,227399,1,8,0:0:0:0:
304,332,227602,5,8,0:3:0:0:
304,332,227703,1,4,0:3:0:0:
304,332,227805,2,0,P|222:298|175:301,1,120,4|0,1:2|0:0,0:0:0:0:
192,298,228210,2,0,P|148:316|105:324,1,80,8|0,0:0|0:0,0:0:0:0:
0,168,228615,2,0,P|38:176|75:192,1,80,0|0,1:0|0:0,0:0:0:0:
115,19,229021,6,0,B|183:25|212:101|149:156,1,160,8|0,0:0|1:0,0:0:0:0:
75,192,229629,1,0,0:0:0:0:
23,253,229831,2,0,P|15:311|13:356,1,80,8|2,0:0|0:3,0:0:0:0:
205,373,230237,2,0,P|213:315|215:270,1,80,0|2,1:0|0:1,0:0:0:0:
150,154,230642,1,8,0:0:0:0:
281,82,230845,5,8,0:0:0:0:
281,82,230947,1,8,0:0:0:0:
281,82,231048,1,4,1:2:0:0:
343,197,231250,2,0,L|444:216,1,80,8|0,0:0|0:0,0:0:0:0:
487,124,231656,2,0,L|386:105,1,80,0|8,1:0|0:0,0:0:0:0:
252,186,232061,1,8,0:3:0:0:
365,302,232264,1,4,0:3:0:0:
263,343,232467,5,0,3:0:0:0:
263,343,232568,1,0,3:0:0:0:
263,343,232669,1,4,1:3:0:0:
434,241,232872,1,12,0:0:0:0:
298,110,233075,1,12,0:0:0:0:
252,186,233277,2,0,P|207:199|155:195,1,80,0|4,0:0|1:2,0:0:0:0:
33,45,233683,1,8,0:0:0:0:
57,34,233784,1,8,0:0:0:0:
83,30,233885,1,8,0:0:0:0:
110,32,233987,1,8,0:0:0:0:
135,40,234088,1,8,0:0:0:0:
158,53,234189,1,8,0:0:0:0:
178,71,234291,1,4,1:2:0:0:
272,199,234493,1,0,0:0:0:0:
126,277,234697,1,8,0:0:0:0:
126,277,234899,1,0,0:0:0:0:
279,306,235102,5,4,1:3:0:0:
134,179,235305,1,0,0:0:0:0:
295,120,235507,1,8,0:0:0:0:
357,215,235710,5,0,3:0:0:0:
357,215,235811,1,0,3:0:0:0:
357,215,235913,2,0,P|411:224|454:218,1,88.000002685547,4|0,1:3|0:0,0:0:0:0:
260,212,236318,1,8,0:0:0:0:
422,32,236521,2,0,B|353:20|287:69|314:152|314:152,1,176.000005371094,0|2,0:0|0:1,0:0:0:0:
438,308,237129,2,0,L|444:216,1,88.000002685547,8|8,0:0|0:0,0:0:0:0:
443,220,237433,1,8,0:0:0:0:
443,220,237534,6,0,P|455:167|455:108,1,88.000002685547,4|0,1:2|0:0,0:0:0:0:
239,31,237940,2,0,P|227:84|227:143,1,88.000002685547,8|0,0:0|0:0,0:0:0:0:
312,280,238345,1,4,1:3:0:0:
343,124,238548,1,0,0:0:0:0:
312,280,238750,1,8,0:0:0:0:
183,196,238953,5,0,1:0:0:0:
183,196,239055,1,0,1:0:0:0:
183,196,239156,2,0,L|10:179,1,132.00000402832,4|0,1:3|0:0,0:0:0:0:
51,183,239561,1,8,0:0:0:0:
114,290,239764,1,0,0:0:0:0:
143,97,239967,1,4,1:3:0:0:
253,295,240170,1,12,0:0:0:0:
282,102,240372,1,0,1:0:0:0:
340,210,240575,5,8,0:3:0:0:
340,210,240676,1,4,0:3:0:0:
340,210,240777,2,0,P|346:272|341:313,1,88.000002685547,4|0,1:2|0:0,0:0:0:0:
156,338,241183,2,0,B|155:285|191:249|252:256|252:256,1,132.00000402832,8|0,0:0|0:0,0:0:0:0:
240,255,241588,1,4,1:3:0:0:
343,297,241791,1,0,0:0:0:0:
417,140,241994,1,8,0:0:0:0:
315,99,242197,1,0,0:0:0:0:
239,166,242399,6,0,L|128:137,1,88.000002685547,4|0,1:3|0:0,0:0:0:0:
47,34,242805,1,8,0:0:0:0:
10,185,243007,1,0,0:0:0:0:
159,148,243210,1,4,1:3:0:0:
159,148,243413,1,0,0:0:0:0:
47,34,243615,1,8,0:0:0:0:
113,249,243818,5,8,0:0:0:0:
113,249,243919,1,8,0:0:0:0:
113,249,244021,2,0,B|111:303|79:354,1,88.000002685547,4|0,1:2|0:0,0:0:0:0:
332,377,244426,2,0,B|334:323|366:272,1,88.000002685547,8|0,0:2|0:0,0:0:0:0:
342,62,244832,2,0,P|385:70|428:77,1,88.000002685547,4|2,1:3|0:3,0:0:0:0:
183,146,245237,2,0,P|139:137|96:130,1,88.000002685547,8|2,0:0|0:1,0:0:0:0:
261,13,245642,6,0,B|231:102|301:102|264:198,2,176.000005371094,4|8|0,1:2|0:0|1:0,0:0:0:0:
176,220,246656,1,8,0:0:0:0:
196,250,246757,1,8,0:0:0:0:
226,271,246858,1,8,0:0:0:0:
261,279,246960,1,8,0:0:0:0:
297,275,247061,1,8,0:0:0:0:
330,258,247162,1,8,0:0:0:0:
354,231,247264,6,0,P|425:220|465:216,1,88.000002685547,4|0,1:2|0:0,0:0:0:0:
512,307,247669,1,8,0:0:0:0:
512,307,247872,1,0,0:0:0:0:
375,131,248075,2,0,P|304:142|264:146,1,88.000002685547,4|0,1:3|0:0,0:0:0:0:
399,13,248480,1,8,0:0:0:0:
474,128,248683,1,0,0:0:0:0:
354,231,248886,6,0,P|342:284|346:326,1,88.000002685547,4|0,1:3|0:0,0:0:0:0:
413,357,249291,1,8,0:0:0:0:
435,212,249494,1,2,0:3:0:0:
265,269,249697,1,0,1:0:0:0:
265,269,249899,1,2,0:1:0:0:
344,317,250102,1,8,0:0:0:0:
345,147,250305,5,8,0:0:0:0:
345,147,250406,1,8,0:0:0:0:
345,147,250507,2,0,B|287:114|211:146|197:231|197:231,1,176.000005371094,4|8,1:2|0:0,0:0:0:0:
98,356,251116,1,0,0:0:0:0:
13,227,251318,2,0,P|6:167|10:114,1,88.000002685547,4|0,1:3|0:0,0:0:0:0:
155,11,251723,2,0,P|162:71|158:124,1,88.000002685547,8|0,0:0|0:0,0:0:0:0:
13,227,252129,6,0,L|108:239,1,88.000002685547,4|0,1:3|0:0,0:0:0:0:
100,238,252433,1,0,0:0:0:0:
100,238,252534,1,8,0:0:0:0:
231,353,252737,1,2,0:3:0:0:
282,187,252940,1,4,1:2:0:0:
231,353,253142,1,2,0:1:0:0:
387,321,253345,2,0,P|403:257|398:213,1,88.000002685547,8|0,0:0|0:0,0:0:0:0:
298,89,253750,5,4,1:2:0:0:
491,80,253953,1,0,0:0:0:0:
402,235,254156,1,8,0:0:0:0:
344,11,254359,5,0,0:0:0:0:
245,169,254561,1,4,1:3:0:0:
344,11,254764,1,0,0:0:0:0:
446,153,254967,1,8,0:0:0:0:
446,153,255169,1,0,0:0:0:0:
231,67,255372,6,0,L|129:52,1,88.000002685547,4|8,1:2|0:2,0:0:0:0:
123,68,255676,1,8,0:0:0:0:
105,87,255777,1,8,0:3:0:0:
91,109,255878,1,8,0:3:0:0:
82,134,255980,1,4,0:3:0:0:
79,160,256081,1,4,0:3:0:0:
80,187,256182,5,4,1:3:0:0:
248,336,256588,5,4,1:3:0:0:
370,209,256994,6,0,B|381:141|441:113|506:142|506:142,2,160,4|8|0,1:2|0:0|1:0,0:0:0:0:
406,279,258007,1,0,1:0:0:0:
316,361,258210,1,8,0:0:0:0:
216,283,258413,2,0,L|206:196,1,80,2|0,0:3|1:0,0:0:0:0:
282,87,258818,2,0,L|292:174,1,80,2|8,0:1|0:0,0:0:0:0:
127,256,259223,6,0,P|63:261|0:248,1,120
8,250,259629,1,0,1:0:0:0:
95,357,259832,2,0,P|151:354|194:367,1,80,8|2,0:0|0:3,0:0:0:0:
70,168,260237,6,0,B|66:103|121:59|179:79|179:79,1,160,0|8,1:0|0:0,0:0:0:0:
174,77,260845,1,0,0:0:0:0:
265,181,261048,1,0,1:0:0:0:
265,181,261251,1,2,0:3:0:0:
352,133,261453,2,0,L|359:44,1,80,8|2,0:0|0:1,0:0:0:0:
181,170,261859,6,0,P|170:233|163:296,1,120,0|0,1:0|0:0,0:0:0:0:
163,288,262264,2,0,P|123:276|63:264,1,80,8|0,0:0|0:0,0:0:0:0:
112,361,262669,1,2,1:3:0:0:
249,266,262872,1,2,1:1:0:0:
319,382,263075,1,8,0:0:0:0:
227,368,263278,1,2,1:3:0:0:
340,303,263480,2,0,P|381:303|435:311,1,80,2|0,1:2|0:0,0:0:0:0:
492,92,263886,6,0,B|503:157|466:207|392:199|392:199,1,160,12|0,0:0|1:0,0:0:0:0:
403,199,264494,1,0,1:0:0:0:
330,142,264696,2,0,P|323:87|323:44,1,80,8|2,0:0|0:3,0:0:0:0:
400,4,265102,2,0,P|407:59|407:102,1,80,0|2,1:0|0:1,0:0:0:0:
330,142,265507,1,8,0:0:0:0:
241,39,265710,6,0,L|160:28,1,80,2|0,0:0|1:0,0:0:0:0:
57,106,266115,1,2,0:3:0:0:
147,198,266318,1,8,0:0:0:0:
147,198,266521,1,0,3:0:0:0:
63,234,266723,6,0,B|14:267|9:347|67:391,1,160,0|8,1:0|0:0,0:0:0:0:
121,344,267332,1,0,0:0:0:0:
121,344,267534,2,0,P|161:346|213:355,1,80,0|2,1:0|1:0,0:0:0:0:
325,265,267940,1,8,0:0:0:0:
218,163,268142,1,2,3:0:0:0:
304,116,268345,5,4,1:2:0:0:
151,226,268548,1,0,0:0:0:0:
289,341,268750,1,12,0:0:0:0:
289,341,268953,1,0,0:0:0:0:
431,229,269156,1,8,0:0:0:0:
384,147,269359,1,8,0:0:0:0:
380,127,269460,1,8,0:0:0:0:
377,107,269561,1,8,0:3:0:0:
375,87,269663,1,8,0:3:0:0:
373,67,269764,1,4,0:3:0:0:
372,47,269865,1,4,0:3:0:0:
372,27,269967,1,4,1:1:0:0:
256,192,270068,12,0,275642,0:0:0:0:
