osu file format v14

[General]
AudioFilename: audio.mp3
AudioLeadIn: 0
PreviewTime: 195271
Countdown: 0
SampleSet: None
StackLeniency: 0.7
Mode: 0
LetterboxInBreaks: 0
WidescreenStoryboard: 1

[Editor]
Bookmarks: 778,13750,26723,42940,78615,91588,104561,117534,133750,169426,182399,195372,195473,195575,195676,195777,195879,195980,196082,196183,196284,196386,196487,196588,196690,196791,196892,196994,197095,197196,197298,197399,197500,197602,197703,197805,197906,198007,198109,198210,198311,198413,198514,198615,198717,198818,198919,199021,199122,199223,199325,199426,199527,199629,199730,199832,199933,200034,200136,200237,200338,200440,200541,200642,200744,200845,200946,201048,201149,201250,201352,201453,201555,201656,201757,201859,201960,202061,202163,202264,202365,202467,202568,202669,202771,202872,202973,203075,203176,203277,203379,203480,203582,203683,203784,203886,203987,204088,204190,204291,204392,204494,204595,204696,204798,204899,205000,205102,205203,205305,205406,205507,205609,205710,205811,205913,206014,206115,206217,206318,206419,206521,206622,206723,206825,206926,207027,207129,207230,207332,207433,207534,208345,256994,269967,275642
DistanceSpacing: 0.9
BeatDivisor: 4
GridSize: 4
TimelineZoom: 1

[Metadata]
Title:Banana Fish no Hamabe to Kuroi Niji with Aimer
TitleUnicode:バナナフィッシュの浜辺と黒い虹 with Aimer
Artist:Galileo Galilei
ArtistUnicode:Galileo Galilei
Creator:Kowari
Version:Hard
Source:
Tags:ガリレオガリレイ エメ See More Glass japanese rock j-rock jrock
BeatmapID:3072088
BeatmapSetID:1363146

[Difficulty]
HPDrainRate:4.5
CircleSize:4
OverallDifficulty:5.5
ApproachRate:7
SliderMultiplier:1.4
SliderTickRate:1

[Events]
//Background and Video events
0,0,"Banana.jpg",0,0
//Break Periods
2,78815,90688
2,195572,207445
//Storyboard Layer 0 (Background)
//Storyboard Layer 1 (Fail)
//Storyboard Layer 2 (Pass)
//Storyboard Layer 3 (Foreground)
//Storyboard Layer 4 (Overlay)
//Storyboard Sound Samples

[TimingPoints]
778,405.405405405405,4,2,1,80,1,0
13750,-111.111111111111,4,2,1,65,0,0
26723,-111.111111111111,4,2,1,60,0,0
39696,-111.111111111111,4,2,1,65,0,0
42940,-100,4,2,1,80,0,1
68886,-90.9090909090909,4,2,1,90,0,1
78615,-100,4,2,1,70,0,0
91588,-125,4,2,1,60,0,0
104561,-111.111111111111,4,2,1,65,0,0
117534,-125,4,2,1,60,0,0
130507,-125,4,2,1,65,0,0
133750,-100,4,2,1,80,0,1
159696,-90.9090909090909,4,2,1,90,0,1
169426,-100,4,2,1,70,0,0
208345,-100,4,2,1,80,0,1
234291,-90.9090909090909,4,2,1,90,0,1
256994,-100,4,2,1,70,0,0
275642,-100,4,2,1,5,0,0

[Colours]
Combo1 : 17,254,176
Combo2 : 173,255,95
Combo3 : 255,88,100
Combo4 : 255,105,55

[HitObjects]
245,149,12940,6,0,P|250:99|250:69,1,70,0|0,1:0|1:0,0:0:0:0:
161,105,13345,1,12,0:0:0:0:
161,105,13548,1,12,0:0:0:0:
199,229,13750,6,0,B|242:247|283:247|335:211,1,125.999996154785,4|8,1:0|0:0,0:0:0:0:
319,220,14359,1,0,0:0:0:0:
412,234,14561,2,0,L|421:102,1,125.999996154785,0|8,1:0|0:0,0:0:0:0:
327,79,15169,1,0,0:0:0:0:
327,79,15372,6,0,P|318:41|317:4,1,62.9999980773926,0|0,1:0|0:0,0:0:0:0:
236,82,15777,1,8,0:0:0:0:
236,82,15980,2,0,P|137:69|90:62,1,125.999996154785,0|0,0:0|1:0,0:0:0:0:
34,47,16588,1,8,0:0:0:0:
172,212,16994,6,0,P|180:253|177:297,1,62.9999980773926,0|0,1:0|0:0,0:0:0:0:
101,321,17399,2,0,P|93:280|96:236,1,62.9999980773926,8|0,0:0|0:0,0:0:0:0:
177,366,17805,2,0,P|275:355|325:351,1,125.999996154785,0|8,1:0|0:0,0:0:0:0:
361,283,18413,6,0,B|411:279|448:300|455:358,1,125.999996154785
453,347,19021,1,8,0:0:0:0:
506,261,19223,2,0,P|512:214|513:177,1,62.9999980773926,0|0,0:0|1:0,0:0:0:0:
421,209,19629,1,0,0:0:0:0:
421,209,19831,2,0,P|418:177|414:146,1,62.9999980773926,8|0,0:0|0:0,0:0:0:0:
386,63,20237,5,0,1:0:0:0:
241,160,20642,2,0,L|171:148,2,62.9999980773926,8|0|0,0:0|0:0|1:0,0:0:0:0:
299,226,21250,1,0,1:0:0:0:
299,226,21453,2,0,P|300:264|292:299,1,62.9999980773926,8|0,0:0|0:0,0:0:0:0:
345,352,21859,5,0,1:0:0:0:
345,352,22061,2,0,L|210:327,1,125.999996154785
139,359,22669,2,0,P|90:344|64:325,1,62.9999980773926,0|0,0:0|1:0,0:0:0:0:
26,269,23075,1,8,0:0:0:0:
176,150,23480,6,0,P|187:107|183:69,1,62.9999980773926,0|0,1:0|0:0,0:0:0:0:
111,32,23886,2,0,P|100:75|104:113,1,62.9999980773926,8|0,0:0|0:0,0:0:0:0:
116,205,24291,1,0,1:0:0:0:
116,205,24494,1,0,1:0:0:0:
62,274,24696,2,0,L|-14:277,1,62.9999980773926,8|0,0:0|0:0,0:0:0:0:
109,356,25102,6,0,B|158:371|211:362|238:326,1,125.999996154785,0|8,1:0|0:0,0:0:0:0:
292,272,25710,1,0,1:0:0:0:
232,200,25913,2,0,P|227:155|223:111,1,62.9999980773926,4|8,1:2|0:3,0:0:0:0:
225,137,26217,1,8,0:3:0:0:
225,137,26318,2,0,L|231:94,2,31.4999990386963,4|0|4,0:3|0:0|3:3,0:0:0:0:
196,26,26723,6,0,P|237:63|322:56,1,125.999996154785,4|8,1:0|0:0,0:0:0:0:
372,12,27332,2,0,P|422:-7|501:15,1,125.999996154785,8|4,0:0|1:3,0:0:0:0:
512,95,27940,1,8,0:0:0:0:
512,95,28345,6,0,L|503:172,1,62.9999980773926,0|0,1:0|0:0,0:0:0:0:
431,193,28750,1,8,0:0:0:0:
431,193,28953,2,0,B|400:232|397:271|434:335,1,125.999996154785,8|4,0:0|1:3,0:0:0:0:
493,351,29561,2,0,P|500:304|495:270,1,62.9999980773926,8|0,0:0|0:0,0:0:0:0:
421,310,29967,6,0,L|277:293,1,125.999996154785,0|8,1:0|0:0,0:0:0:0:
222,352,30575,1,8,0:0:0:0:
222,352,30777,2,0,P|182:339|147:342,1,62.9999980773926,4|4,1:3|1:3,0:0:0:0:
123,249,31183,2,0,P|83:261|48:259,1,62.9999980773926,8|0,0:2|0:3,0:0:0:0:
0,190,31588,6,0,B|-14:114|55:81,1,125.999996154785,0|8,1:0|0:0,0:0:0:0:
131,7,32196,2,0,B|117:83|186:116,1,125.999996154785,8|4,0:0|1:3,0:0:0:0:
254,87,32805,2,0,L|326:81,1,62.9999980773926,8|8,0:0|0:3,0:0:0:0:
316,81,33109,1,4,0:3:0:0:
316,81,33210,6,0,L|305:219,1,125.999996154785,0|8,1:0|0:0,0:0:0:0:
306,207,33818,1,8,0:0:0:0:
349,294,34021,2,0,P|399:308|450:299,1,94.499997116089,0|0,1:0|0:0,0:0:0:0:
440,302,34426,2,0,L|444:232,1,62.9999980773926,8|0,0:0|0:0,0:0:0:0:
408,144,34832,6,0,B|436:106|434:55|403:20,1,125.999996154785,0|8,1:0|0:0,0:0:0:0:
337,57,35440,2,0,P|280:49|245:48,1,62.9999980773926,8|4,0:0|1:3,0:0:0:0:
236,120,35845,1,4,1:3:0:0:
236,120,36048,2,0,P|293:128|328:129,1,62.9999980773926,8|0,0:0|0:0,0:0:0:0:
195,197,36453,6,0,P|184:128|166:48,1,125.999996154785,4|8,1:2|0:0,0:0:0:0:
94,32,37061,1,8,0:0:0:0:
63,112,37264,2,0,P|32:122|-7:122,1,62.9999980773926,0|0,1:0|0:0,0:0:0:0:
52,202,37669,2,0,P|83:192|122:192,1,62.9999980773926,8|0,0:0|1:0,0:0:0:0:
15,271,38075,6,0,B|66:331|7:394,1,125.999996154785,0|8,1:0|0:0,0:0:0:0:
80,324,38683,2,0,L|166:313,1,62.9999980773926,8|0,0:0|1:0,0:0:0:0:
217,364,39088,1,0,1:0:0:0:
217,364,39291,2,0,L|303:353,1,62.9999980773926,8|0,0:0|3:0,0:0:0:0:
241,263,39696,6,0,P|255:176|259:126,1,125.999996154785,0|8,1:0|0:0,0:0:0:0:
204,66,40305,1,0,0:0:0:0:
204,66,40507,1,0,1:0:0:0:
287,4,40710,1,12,0:0:0:0:
287,4,40913,2,0,P|342:15|371:28,1,62.9999980773926,12|0,0:0|1:0,0:0:0:0:
415,82,41318,5,0,1:0:0:0:
340,154,41521,1,12,0:0:0:0:
415,230,41723,2,0,P|425:280|425:311,1,62.9999980773926,12|0,0:0|1:0,0:0:0:0:
304,339,42129,2,0,P|294:289|294:258,1,62.9999980773926,12|8,0:0|0:0,0:0:0:0:
293,277,42433,1,8,0:0:0:0:
293,277,42534,2,0,L|283:222,2,31.4999990386963,8|8|8,0:0|0:0|0:0,0:0:0:0:
155,326,42940,6,0,P|58:315|1:306,2,140,4|8|0,1:0|0:0|1:0,0:0:0:0:
207,256,43953,1,0,0:0:0:0:
207,256,44156,2,0,P|217:212|222:177,1,70,8|0,0:0|0:0,0:0:0:0:
145,103,44561,6,0,P|92:103|61:111,1,70,0|0,1:0|0:0,0:0:0:0:
41,195,44967,2,0,P|94:195|125:187,1,70,8|2,0:0|0:3,0:0:0:0:
145,103,45372,1,0,1:0:0:0:
223,159,45575,1,2,0:1:0:0:
285,85,45777,2,0,P|289:47|288:8,1,70,8|8,0:2|0:0,0:0:0:0:
288,15,46082,1,8,0:0:0:0:
288,15,46183,6,0,P|345:10|444:31,2,140,4|8|0,1:0|0:0|1:0,0:0:0:0:
236,100,47196,1,0,0:0:0:0:
315,157,47399,1,8,0:0:0:0:
315,157,47602,6,0,P|326:207|328:244,1,70,0|0,0:0|1:0,0:0:0:0:
421,213,48008,2,0,P|416:247|408:281,1,70,0|8,0:0|0:0,0:0:0:0:
451,361,48413,2,0,B|400:290|321:312,1,140,2|2,0:3|0:1,0:0:0:0:
262,351,49021,2,0,L|181:358,1,70,8|8,0:0|0:3,0:0:0:0:
192,357,49325,1,4,0:3:0:0:
192,357,49426,6,0,B|146:288|196:216,1,140,4|8,1:0|0:0,0:0:0:0:
396,170,50237,2,0,P|448:176|489:185,1,70,0|0,1:0|0:0,0:0:0:0:
414,260,50642,2,0,P|352:255|273:237,2,140,8|0|8,0:0|1:0|0:0,0:0:0:0:
493,195,51656,5,2,0:3:0:0:
493,195,51859,2,0,P|501:147|496:98,1,70,0|2,1:0|0:1,0:0:0:0:
413,38,52264,1,8,0:0:0:0:
325,97,52467,5,8,0:0:0:0:
325,97,52568,1,8,0:0:0:0:
325,97,52669,2,0,L|240:84,1,70,4|0,1:2|0:0,0:0:0:0:
158,171,53075,2,0,L|88:160,1,70,8|0,0:0|0:0,0:0:0:0:
25,94,53480,1,0,1:0:0:0:
25,94,53683,2,0,P|27:48|54:17,1,70,2|8,0:3|0:0,0:0:0:0:
121,89,54088,1,2,0:3:0:0:
3,169,54291,6,0,B|69:103|145:159,2,140,2|10|0,1:1|0:1|1:0,0:0:0:0:
19,263,55305,1,8,0:0:0:0:
19,263,55406,1,8,0:0:0:0:
19,263,55507,1,8,0:3:0:0:
19,263,55609,1,8,0:3:0:0:
19,263,55710,1,4,0:3:0:0:
92,332,55913,6,0,P|145:322|187:322,1,70,4|0,1:0|0:0,0:0:0:0:
165,223,56318,2,0,P|199:226|233:233,1,70,8|0,0:0|0:0,0:0:0:0:
300,315,56723,2,0,L|287:399,1,70,0|0,1:0|0:0,0:0:0:0:
383,247,57129,6,0,L|404:89,2,140,8|0|8,0:0|1:0|0:2,0:0:0:0:
437,343,58142,2,0,P|478:354|535:353,1,70,0|0,0:0|1:0,0:0:0:0:
451,259,58548,2,0,P|410:248|353:249,1,70,2|8,0:1|0:0,0:0:0:0:
285,320,58953,5,8,0:0:0:0:
285,320,59055,1,8,0:0:0:0:
285,320,59156,2,0,B|227:343|174:302,1,105,4|0,1:2|0:0,0:0:0:0:
184,309,59561,2,0,L|196:230,1,70,8|0,0:2|0:0,0:0:0:0:
121,129,59967,2,0,L|109:208,1,70,0|0,1:0|0:0,0:0:0:0:
31,160,60372,2,0,P|28:102|45:44,1,105,8|0,0:0|0:0,0:0:0:0:
39,56,60777,6,0,B|77:29|131:21|185:56,1,140,0|8,1:0|0:0,0:0:0:0:
244,17,61386,2,0,L|324:7,1,70,2|0,0:3|1:0,0:0:0:0:
390,71,61791,1,2,0:3:0:0:
338,152,61994,2,0,P|327:203|327:244,1,70,10|8,0:1|0:3,0:0:0:0:
326,220,62298,1,4,0:3:0:0:
326,220,62399,6,0,B|370:250|385:284|376:354,1,140,4|8,1:0|0:0,0:0:0:0:
309,377,63007,1,0,0:0:0:0:
247,334,63210,2,0,L|168:324,1,70,0|0,1:0|0:0,0:0:0:0:
67,384,63615,6,0,B|60:339|76:283|127:259,1,140,8|0,0:0|1:0,0:0:0:0:
194,246,64223,1,0,0:0:0:0:
250,190,64426,2,0,P|258:134|258:108,1,70,8|0,0:0|3:0,0:0:0:0:
158,156,64832,5,2,1:3:0:0:
75,182,65034,1,2,0:1:0:0:
12,117,65237,2,0,P|7:65|10:36,1,70,8|8,0:0|0:0,0:0:0:0:
8,47,65541,1,8,0:0:0:0:
8,47,65642,1,4,1:2:0:0:
107,85,65845,6,0,L|278:74,1,140,8|0,0:0|3:0,0:0:0:0:
350,0,66453,2,0,B|377:47|378:98|342:154,1,140,12|0,0:0|1:0,0:0:0:0:
267,199,67061,1,8,3:2:0:0:
342,275,67264,5,4,1:1:0:0:
342,275,67467,1,12,0:0:0:0:
269,339,67669,1,12,0:0:0:0:
451,384,68075,2,0,P|458:340|451:298,1,70,12|8,0:0|0:0,0:0:0:0:
456,314,68379,1,8,0:0:0:0:
456,314,68480,2,0,L|459:254,2,35,8|8|8,0:0|0:0|0:0,0:0:0:0:
365,340,68886,6,0,L|286:334,1,77.0000023498536,4|0,1:2|0:0,0:0:0:0:
225,266,69291,2,0,L|143:259,1,77.0000023498536,8|0,0:0|0:0,0:0:0:0:
42,333,69696,2,0,B|31:237|114:189,1,154.000004699707,4|8,1:3|0:0,0:0:0:0:
191,168,70305,1,0,0:0:0:0:
134,88,70507,6,0,L|52:67,1,77.0000023498536,4|0,1:3|0:0,0:0:0:0:
143,3,70913,1,8,0:0:0:0:
233,41,71115,1,0,0:0:0:0:
233,41,71318,2,0,L|327:57,1,77.0000023498536,4|2,1:3|0:3,0:0:0:0:
402,18,71723,1,10,0:1:0:0:
466,95,71926,5,8,0:0:0:0:
466,95,72027,1,8,0:0:0:0:
466,95,72129,2,0,B|480:188|421:244,1,154.000004699707,4|8,1:2|0:0,0:0:0:0:
342,288,72737,1,0,0:0:0:0:
270,221,72940,2,0,B|218:189|148:202,1,115.50000352478,4|0,1:3|0:0,0:0:0:0:
158,200,73345,2,0,L|159:286,1,77.0000023498536,12|0,0:0|0:0,0:0:0:0:
126,364,73750,6,0,B|187:392|287:341,1,154.000004699707,4|12,1:3|0:0,0:0:0:0:
375,370,74359,2,0,L|367:283,1,77.0000023498536,2|4,0:0|1:3,0:0:0:0:
417,215,74764,1,14,0:0:0:0:
330,200,74967,1,8,0:3:0:0:
384,127,75169,5,8,0:0:0:0:
384,127,75271,1,8,0:0:0:0:
384,127,75372,2,0,P|395:84|393:36,1,77.0000023498536,12|2,1:2|0:0,0:0:0:0:
291,2,75777,2,0,P|280:45|282:93,1,77.0000023498536,8|2,0:0|0:3,0:0:0:0:
204,142,76183,2,0,L|125:132,1,77.0000023498536,4|2,1:2|0:1,0:0:0:0:
37,117,76588,1,8,0:0:0:0:
37,117,76994,6,0,B|-26:184|38:291,1,154.000004699707,4|8,1:2|0:0,0:0:0:0:
70,340,77602,1,2,0:1:0:0:
140,280,77805,1,4,1:3:0:0:
283,320,78210,1,4,1:3:0:0:
426,354,78615,1,4,1:0:0:0:
426,354,91588,6,0,P|435:309|430:273,1,56,4|0,1:2|1:0,0:0:0:0:
386,238,91994,1,8,0:2:0:0:
386,238,92196,1,8,0:0:0:0:
445,185,92399,2,0,L|500:177,2,56,0|0|8,1:2|1:0|0:0,0:0:0:0:
369,125,93007,6,0,B|331:98|306:95|256:104,1,112,4|0,0:3|1:0,0:0:0:0:
210,159,93615,1,8,0:0:0:0:
137,134,93818,2,0,B|105:78|141:17,1,112,8|0,0:0|1:0,0:0:0:0:
210,0,94426,1,8,0:0:0:0:
50,147,94832,6,0,L|55:214,1,56,0|0,1:0|1:0,0:0:0:0:
13,270,95237,1,8,0:0:0:0:
13,270,95440,1,8,0:0:0:0:
72,321,95642,2,0,P|106:324|147:306,1,56,0|0,1:0|1:0,0:0:0:0:
224,352,96048,2,0,L|217:281,1,56,8|8,0:0|0:3,0:0:0:0:
161,209,96453,6,0,B|224:169|284:216,1,112,0|8,1:0|0:0,0:0:0:0:
322,153,97061,2,0,B|312:277,1,112,8|0,0:0|1:0,0:0:0:0:
368,321,97669,1,8,0:0:0:0:
495,203,98074,6,0,P|463:193|430:197,1,56,0|0,1:0|0:0,0:0:0:0:
394,102,98480,2,0,P|426:112|459:108,1,56,8|8,0:0|0:0,0:0:0:0:
373,25,98886,2,0,L|363:148,1,112,0|8,1:0|0:0,0:0:0:0:
300,180,99494,1,0,1:0:0:0:
239,127,99696,6,0,P|209:117|175:117,2,56,0|0|8,1:0|0:0|0:0,0:0:0:0:
188,203,100305,2,0,B|149:258|178:316,1,112,8|0,0:0|1:0,0:0:0:0:
237,362,100913,1,8,0:0:0:0:
61,300,101318,6,0,P|25:291|-12:299,1,56,0|0,1:0|1:0,0:0:0:0:
90,222,101723,2,0,L|96:162,1,56,8|8,0:0|0:0,0:0:0:0:
24,93,102129,2,0,L|30:33,1,56,0|0,1:0|1:0,0:0:0:0:
100,3,102534,1,8,0:0:0:0:
100,3,102737,1,0,1:0:0:0:
151,62,102940,5,0,1:0:0:0:
151,62,103142,2,0,P|184:73|230:74,1,56,0|8,1:0|0:0,0:0:0:0:
238,162,103548,2,0,L|253:45,1,112,8|8,0:0|0:3,0:0:0:0:
331,43,104156,1,8,0:0:0:0:
391,93,104359,1,8,0:3:0:0:
463,62,104561,6,0,L|467:-8,1,62.9999980773926,4|0,1:2|0:0,0:0:0:0:
512,122,104967,2,0,B|432:104|393:195,1,125.999996154785,8|0,0:0|1:0,0:0:0:0:
440,249,105575,1,0,1:0:0:0:
388,313,105777,2,0,L|313:303,1,62.9999980773926,8|0,0:0|0:0,0:0:0:0:
254,235,106183,5,0,1:0:0:0:
199,288,106386,2,0,P|184:330|189:371,1,62.9999980773926,0|8,1:0|0:0,0:0:0:0:
135,230,106791,2,0,L|3:213,1,125.999996154785,0|0,1:0|1:0,0:0:0:0:
17,122,107399,2,0,P|49:115|88:126,1,62.9999980773926,8|8,0:0|0:3,0:0:0:0:
155,64,107804,6,0,L|161:134,1,62.9999980773926,0|0,1:0|1:0,0:0:0:0:
228,185,108210,1,8,0:0:0:0:
228,185,108413,1,8,0:0:0:0:
292,122,108615,1,0,1:0:0:0:
292,122,108818,2,0,P|325:112|370:109,1,62.9999980773926,0|8,1:0|0:0,0:0:0:0:
424,54,109223,6,0,B|377:108|417:184,1,125.999996154785,0|0,0:0|1:0,0:0:0:0:
472,222,109832,1,8,0:0:0:0:
429,287,110034,2,0,L|421:368,1,62.9999980773926,8|0,0:2|0:0,0:0:0:0:
351,372,110440,1,0,1:0:0:0:
290,320,110642,2,0,P|288:280|303:242,1,62.9999980773926,8|8,0:0|0:0,0:0:0:0:
218,213,111048,6,0,P|248:174|287:162,1,62.9999980773926,0|0,1:0|0:0,0:0:0:0:
350,178,111453,1,8,0:0:0:0:
350,178,111656,1,8,0:0:0:0:
411,123,111859,2,0,B|449:48|376:1,1,125.999996154785,0|8,1:0|0:0,0:0:0:0:
313,5,112467,1,0,1:0:0:0:
256,69,112669,5,0,1:0:0:0:
256,69,112872,2,0,L|191:64,1,62.9999980773926,0|8,1:0|0:0,0:0:0:0:
115,0,113277,2,0,B|55:37|93:112,1,125.999996154785,0|0,1:0|1:0,0:0:0:0:
167,172,113886,2,0,L|159:242,1,62.9999980773926,8|0,0:0|1:0,0:0:0:0:
92,292,114291,5,0,1:0:0:0:
92,292,114494,1,0,0:0:0:0:
140,367,114696,2,0,P|178:355|212:355,1,62.9999980773926,8|8,0:0|0:0,0:0:0:0:
221,279,115102,2,0,P|255:286|288:307,1,62.9999980773926,0|0,1:0|1:0,0:0:0:0:
341,368,115507,1,8,0:0:0:0:
341,368,115710,1,0,1:0:0:0:
416,313,115913,5,0,1:0:0:0:
416,313,116115,2,0,L|420:243,1,62.9999980773926,0|8,1:0|0:0,0:0:0:0:
504,286,116521,2,8,B|533:221|495:158,1,125.999996154785,8|0,0:0|1:0,0:0:0:0:
413,161,117129,1,8,0:0:0:0:
348,222,117332,5,0,3:0:0:0:
348,222,117433,1,0,3:0:0:0:
348,222,117534,1,4,1:2:0:0:
225,159,117940,1,0,1:0:0:0:
140,261,118345,1,0,1:0:0:0:
260,326,118750,1,0,1:0:0:0:
246,245,118953,5,4,1:3:0:0:
246,245,119055,1,4,1:3:0:0:
246,245,119156,1,4,1:3:0:0:
225,125,119561,1,0,1:0:0:0:
203,8,119967,1,0,1:0:0:0:
119,28,120169,1,0,3:0:0:0:
119,28,120271,1,0,3:0:0:0:
119,28,120372,2,0,L|113:76,3,28,8|8|8|8,0:0|0:0|0:0|0:0,0:0:0:0:
106,112,120778,5,0,1:0:0:0:
21,205,121183,1,0,1:0:0:0:
113,280,121588,1,0,1:0:0:0:
198,188,121994,1,0,1:0:0:0:
282,87,122399,5,0,1:0:0:0:
369,0,122804,1,0,1:0:0:0:
458,87,123209,1,0,1:0:0:0:
369,173,123615,1,2,1:0:0:0:
422,242,123818,5,0,3:0:0:0:
422,242,123919,1,0,3:0:0:0:
422,242,124021,2,0,B|449:304|407:353,1,112,2|0,1:3|1:0,0:0:0:0:
274,340,124832,2,0,B|247:278|289:229,1,112,0|0,1:0|1:0,0:0:0:0:
358,199,125440,5,4,1:3:0:0:
358,199,125541,1,4,1:3:0:0:
358,199,125642,2,0,L|373:73,1,112,4|0,1:3|1:0,0:0:0:0:
259,15,126453,1,0,1:0:0:0:
194,58,126656,1,0,3:0:0:0:
194,58,126757,1,0,3:0:0:0:
194,58,126859,2,0,L|153:55,3,28,8|8|8|8,0:0|0:0|0:0|0:0,0:0:0:0:
131,24,127264,6,0,B|87:71|111:153,1,112,0|0,1:0|1:0,0:0:0:0:
177,244,128075,1,0,1:0:0:0:
45,253,128480,1,0,1:0:0:0:
105,128,128886,5,0,1:0:0:0:
238,116,129291,1,0,1:0:0:0:
311,226,129696,1,0,1:0:0:0:
444,214,130101,1,0,1:0:0:0:
480,81,130507,6,0,B|426:52|351:86,1,112,12|0,0:2|1:0,0:0:0:0:
288,47,131115,2,0,L|294:113,1,56,0|0,1:0|1:0,0:0:0:0:
226,186,131521,2,0,L|232:252,1,56,0|8,1:0|0:0,0:0:0:0:
286,295,131926,1,0,1:0:0:0:
202,360,132129,5,4,1:2:0:0:
181,362,132230,1,0,3:0:0:0:
160,362,132331,1,0,3:0:0:0:
139,357,132433,1,0,3:0:0:0:
123,348,132534,2,0,P|101:330|93:319,3,28,0|0|0|0,1:0|3:0|3:0|3:0,0:0:0:0:
65,300,132940,2,0,L|77:256,3,28,8|8|8|8,1:0|0:0|0:0|0:0,0:0:0:0:
46,228,133345,2,0,L|60:179,3,28,8|8|8|8,1:0|0:0|0:0|0:0,0:0:0:0:
24,157,133750,6,0,B|96:123|174:160,2,140,4|8|0,1:0|0:0|1:0,0:0:0:0:
122,304,134966,2,0,L|128:228,1,70,8|0,0:0|0:0,0:0:0:0:
26,331,135372,6,0,B|89:361|161:327,1,140,0|8,1:0|0:0,0:0:0:0:
222,279,135980,2,0,L|299:290,1,70,2|4,0:3|0:3,0:0:0:0:
367,349,136386,1,2,1:1:0:0:
444,288,136588,2,0,P|453:253|445:212,1,70,8|8,0:0|0:0,0:0:0:0:
448,219,136892,1,8,0:0:0:0:
448,219,136994,6,0,L|461:76,1,140,4|8,1:2|0:0,0:0:0:0:
306,10,137805,2,0,P|293:49|295:93,1,70,0|0,1:0|0:0,0:0:0:0:
350,133,138210,1,8,0:0:0:0:
298,191,138413,1,0,0:0:0:0:
238,140,138615,6,0,B|170:99|94:147,1,140,0|8,1:0|0:0,0:0:0:0:
22,96,139223,2,0,L|29:184,1,70,2|0,0:3|1:0,0:0:0:0:
93,236,139629,1,2,0:1:0:0:
93,236,139832,2,0,L|100:324,1,70,8|8,0:0|0:3,0:0:0:0:
98,305,140136,1,4,0:3:0:0:
98,305,140237,6,0,B|165:345|230:303,2,140,4|8|0,1:0|0:0|1:0,0:0:0:0:
72,138,141453,2,0,P|109:133|164:138,1,70,8|0,0:0|0:0,0:0:0:0:
42,207,141859,6,0,B|11:132|62:65,1,140,0|8,1:0|0:0,0:0:0:0:
123,32,142467,1,0,0:0:0:0:
206,66,142669,2,0,P|252:73|289:60,1,70,0|2,1:0|0:1,0:0:0:0:
315,145,143075,2,0,P|351:117|375:75,1,70,8|8,0:0|0:0,0:0:0:0:
364,97,143379,1,8,0:0:0:0:
364,97,143480,5,4,1:2:0:0:
424,45,143683,1,0,0:0:0:0:
491,90,143886,2,0,L|483:176,1,70,8|0,0:0|0:0,0:0:0:0:
392,208,144291,2,0,L|384:294,1,70,0|0,1:0|0:0,0:0:0:0:
425,374,144696,2,0,P|465:386|518:375,1,70,8|2,0:0|0:3,0:0:0:0:
505,288,145102,5,2,1:0:0:0:
411,294,145305,1,0,0:0:0:0:
312,300,145507,2,0,L|224:303,1,70,10|0,0:1|0:0,0:0:0:0:
170,250,145913,1,0,1:0:0:0:
100,313,146115,1,8,0:0:0:0:
100,313,146217,1,8,0:0:0:0:
100,313,146318,2,0,P|87:351|93:392,1,70,8|4,0:3|0:3,0:0:0:0:
9,251,146723,6,0,B|61:311|154:255,2,140,4|8|0,1:2|0:0|1:0,0:0:0:0:
125,161,147939,2,0,L|201:171,1,70,8|0,0:0|0:0,0:0:0:0:
278,79,148345,6,0,B|324:154|287:223,1,140,0|8,1:0|0:0,0:0:0:0:
235,268,148953,1,2,0:3:0:0:
282,332,149156,2,0,P|327:343|363:333,1,70,0|2,1:0|0:1,0:0:0:0:
436,284,149561,1,8,0:0:0:0:
376,205,149764,5,8,0:0:0:0:
376,205,149865,1,8,0:0:0:0:
376,205,149967,2,0,L|383:124,1,70,4|0,1:0|0:0,0:0:0:0:
339,43,150372,2,0,P|379:31|420:35,1,70,8|0,0:0|0:0,0:0:0:0:
472,135,150777,2,0,P|432:147|391:143,1,70,0|0,1:0|0:0,0:0:0:0:
306,117,151183,1,8,0:0:0:0:
240,180,151386,1,0,0:0:0:0:
156,120,151588,6,0,L|161:41,2,70,0|0|8,1:0|0:0|0:0,0:0:0:0:
71,165,152196,1,2,0:3:0:0:
26,245,152399,2,0,B|-11:295|3:375,1,105,4|0,1:3|0:0,0:0:0:0:
0,344,152805,1,8,0:0:0:0:
85,319,153007,5,8,0:3:0:0:
85,319,153109,1,4,0:3:0:0:
85,319,153210,2,0,L|227:306,1,140,4|8,1:2|0:0,0:0:0:0:
415,323,154020,2,0,P|423:287|406:242,1,70,0|0,1:0|0:0,0:0:0:0:
480,179,154426,6,0,B|413:231|327:183,1,140,8|0,0:0|1:0,0:0:0:0:
300,131,155034,1,0,0:0:0:0:
354,76,155237,2,0,L|366:2,1,70,8|2,0:0|3:0,0:0:0:0:
273,54,155642,2,0,L|199:42,1,70,0|2,1:0|0:1,0:0:0:0:
121,0,156048,1,8,0:0:0:0:
43,62,156250,5,8,0:0:0:0:
43,62,156352,1,8,0:0:0:0:
43,62,156453,1,4,1:2:0:0:
99,133,156656,2,0,B|167:175|234:122,1,140,8|0,0:0|0:0,0:0:0:0:
283,197,157264,2,0,L|396:214,1,105,8|8,0:0|0:0,0:0:0:0:
386,212,157669,1,4,0:3:0:0:
454,293,157872,1,4,1:3:0:0:
372,351,158075,5,12,0:0:0:0:
296,298,158277,1,12,0:0:0:0:
296,298,158481,1,12,0:0:0:0:
162,373,158886,2,0,L|84:379,1,70,0|8,1:0|0:0,0:0:0:0:
92,378,159190,1,8,0:0:0:0:
92,378,159291,2,0,L|50:382,2,35,8|8|8,0:0|0:0|0:0,0:0:0:0:
52,278,159696,6,0,P|46:233|53:195,1,77.0000023498536,4|0,1:2|0:0,0:0:0:0:
149,138,160102,2,0,P|155:183|148:221,1,77.0000023498536,8|0,0:0|0:0,0:0:0:0:
68,104,160507,2,0,L|224:86,1,154.000004699707,4|8,1:3|0:0,0:0:0:0:
300,25,161115,1,0,0:0:0:0:
381,89,161318,6,0,B|420:181|359:243,1,154.000004699707,4|8,1:3|0:0,0:0:0:0:
303,276,161926,1,2,0:3:0:0:
354,339,162129,2,0,L|435:332,1,77.0000023498536,4|2,1:3|0:1,0:0:0:0:
512,222,162534,2,0,L|431:229,1,77.0000023498536,8|8,0:0|0:0,0:0:0:0:
435,228,162838,1,8,0:0:0:0:
435,228,162940,5,4,1:0:0:0:
386,160,163142,1,0,0:0:0:0:
448,94,163345,2,0,P|451:46|435:6,1,77.0000023498536,8|0,0:0|0:0,0:0:0:0:
322,99,163750,2,0,B|247:56|161:111,1,154.000004699707,4|8,1:3|0:0,0:0:0:0:
106,68,164359,1,0,0:0:0:0:
42,117,164561,6,0,L|53:241,1,115.50000352478,4|0,1:3|3:0,0:0:0:0:
52,232,164967,1,8,0:0:0:0:
99,311,165169,1,2,0:3:0:0:
27,362,165372,2,0,P|81:360|116:337,1,77.0000023498536,4|14,1:3|0:1,0:0:0:0:
168,273,165777,1,8,0:3:0:0:
247,349,165980,5,4,0:3:0:0:
247,349,166082,1,0,1:0:0:0:
247,349,166183,2,0,L|337:355,1,77.0000023498536,4|0,1:2|0:0,0:0:0:0:
310,262,166588,2,0,L|400:268,1,77.0000023498536,8|0,0:0|0:0,0:0:0:0:
466,212,166994,1,0,1:0:0:0:
484,301,167196,1,2,0:1:0:0:
466,212,167399,1,8,0:0:0:0:
415,39,167804,6,0,B|337:11|260:83,1,154.000004699707,4|8,1:3|0:0,0:0:0:0:
216,149,168413,1,0,0:0:0:0:
292,203,168615,1,4,1:3:0:0:
214,324,169021,1,4,1:3:0:0:
74,239,169426,6,0,L|149:99,2,140,4|8|0,1:0|0:0|1:0,0:0:0:0:
0,288,170440,2,0,P|-6:331|8:375,1,70,0|8,1:0|0:0,0:0:0:0:
93,324,170845,6,0,L|181:312,1,70,2|0,0:3|1:0,0:0:0:0:
242,362,171250,2,0,L|330:350,1,70,2|8,0:1|0:0,0:0:0:0:
379,289,171656,1,0,0:0:0:0:
301,220,171859,2,0,P|292:177|295:143,1,70,0|0,1:0|1:0,0:0:0:0:
363,88,172264,1,8,0:0:0:0:
508,155,172669,6,0,B|457:221|368:181,1,140,0|8,1:0|0:0,0:0:0:0:
293,151,173277,2,0,L|224:160,1,70,0|0,0:0|1:0,0:0:0:0:
129,221,173683,2,0,P|127:178|142:132,1,70,0|8,1:0|0:0,0:0:0:0:
15,8,174291,6,0,L|27:133,1,105,0|0,1:0|0:0,0:0:0:0:
25,112,174696,2,0,L|39:201,1,70,8|0,0:0|0:0,0:0:0:0:
109,79,175102,1,2,1:3:0:0:
183,126,175305,2,0,P|229:132|276:115,1,70,2|8,1:1|0:0,0:0:0:0:
346,78,175710,1,2,1:3:0:0:
281,11,175912,1,2,1:2:0:0:
462,29,176318,6,0,B|510:98|451:186,1,140,8|0,0:0|1:0,0:0:0:0:
386,229,176926,1,0,1:0:0:0:
468,282,177129,2,0,L|390:264,1,70,8|0,0:0|0:0,0:0:0:0:
331,346,177534,6,0,B|262:394|185:324,1,140,0|8,1:0|0:0,0:0:0:0:
100,384,178142,2,0,L|121:234,1,140,2|0,0:1|1:0,0:0:0:0:
74,166,178750,2,0,P|49:151|-9:158,1,70,8|0,0:0|0:0,0:0:0:0:
121,94,179156,5,0,1:0:0:0:
121,94,179359,2,0,L|196:88,1,70,0|8,0:0|0:0,0:0:0:0:
254,0,179764,2,0,B|314:49|283:143,1,140,0|0,0:0|1:0,0:0:0:0:
227,200,180372,2,0,P|218:248|231:298,1,70,8|2,0:0|0:3,0:0:0:0:
269,347,180777,5,0,1:0:0:0:
357,341,180980,2,0,L|440:332,1,70,2|8,0:1|0:0,0:0:0:0:
485,384,181386,2,0,B|467:216,1,140,2|8,0:0|0:0,0:0:0:0:
470,244,181892,1,8,0:0:0:0:
470,244,181994,1,8,0:3:0:0:
470,244,182095,1,8,0:3:0:0:
470,244,182196,1,4,0:3:0:0:
450,169,182399,6,0,B|411:151|363:151|328:181,1,105,4|0,1:2|0:2,0:2:0:0:
348,167,182805,2,0,L|354:253,1,70,8|0,0:0|0:0,0:0:0:0:
287,302,183210,1,0,1:0:0:0:
203,255,183413,2,0,L|198:185,1,70,0|8,0:0|0:0,0:0:0:0:
69,373,184021,6,0,B|21:303|79:219,1,140,0|8,1:0|0:0,0:0:0:0:
26,148,184629,2,0,L|119:160,1,70,2|0,0:3|1:0,0:0:0:0:
164,225,185034,1,2,1:1:0:0:
241,177,185237,1,8,0:0:0:0:
188,100,185440,1,0,3:0:0:0:
188,100,185541,1,0,3:0:0:0:
188,100,185642,1,0,1:0:0:0:
368,12,186047,6,0,L|343:161,1,140,8|0,0:0|1:0,0:0:0:0:
393,229,186656,1,0,1:0:0:0:
393,229,186859,2,0,P|435:239|481:230,1,70,8|0,0:0|0:0,0:0:0:0:
478,326,187264,6,0,B|422:269|343:307,1,140,0|8,1:0|0:0,0:0:0:0:
281,365,187872,1,0,0:0:0:0:
221,298,188075,1,2,1:3:0:0:
221,298,188277,2,0,L|231:219,1,70,2|8,0:1|0:0,0:0:0:0:
301,163,188683,1,2,0:3:0:0:
301,163,188886,1,2,1:2:0:0:
96,19,189291,6,0,B|38:72|79:168,1,140,12|0,0:0|1:0,0:0:0:0:
17,241,189899,1,0,1:0:0:0:
17,241,190102,2,0,L|97:230,1,70,8|0,0:0|0:0,0:0:0:0:
63,327,190507,6,0,P|130:335|219:358,1,140,0|8,1:0|0:0,0:0:0:0:
289,299,191115,2,0,P|297:255|291:211,1,70,2|0,0:3|1:0,0:0:0:0:
216,185,191521,2,0,P|208:229|214:273,1,70,2|8,1:1|0:0,0:0:0:0:
284,142,191926,5,0,0:0:0:0:
284,142,192129,2,0,L|272:62,1,70,0|0,1:0|0:0,0:0:0:0:
354,105,192534,2,0,B|429:68|489:128,1,140,8|0,0:0|1:0,0:0:0:0:
427,209,193143,1,2,1:3:0:0:
427,209,193345,2,0,L|444:293,1,70,8|2,0:0|0:1,0:0:0:0:
377,357,193750,6,0,P|329:355|291:336,1,70,0|0,1:0|0:0,0:0:0:0:
255,267,194156,2,0,P|221:256|186:257,1,70,8|8,0:0|0:0,0:0:0:0:
186,257,194460,1,8,0:0:0:0:
186,257,194561,1,8,1:3:0:0:
134,317,194764,1,8,0:3:0:0:
190,373,194967,1,4,1:3:0:0:
190,373,195169,1,4,0:3:0:0:
248,325,195372,1,4,1:2:0:0:
463,49,208345,6,0,B|401:27|357:51,1,105,4|0,1:0|0:0,0:0:0:0:
360,49,208750,2,0,P|349:110|345:146,1,70,8|0,0:0|0:0,0:0:0:0:
246,113,209156,2,0,P|251:147|258:181,1,70,0|0,1:0|0:0,0:0:0:0:
324,257,209561,1,8,0:0:0:0:
324,257,209764,1,0,0:0:0:0:
257,343,209967,6,0,L|181:330,1,70,0|0,1:0|0:0,0:0:0:0:
132,281,210372,2,0,L|56:268,1,70,8|2,0:0|0:3,0:0:0:0:
14,189,210777,1,0,1:0:0:0:
78,131,210980,1,2,0:1:0:0:
78,131,211183,2,0,P|123:128|170:146,1,70,8|8,0:0|0:0,0:0:0:0:
146,134,211487,1,8,0:0:0:0:
146,134,211588,1,4,1:2:0:0:
309,242,211994,6,0,P|321:191|321:159,1,70,8|0,0:2|0:0,0:0:0:0:
250,85,212399,2,0,P|238:136|238:168,1,70,0|0,1:0|0:0,0:0:0:0:
236,278,212805,2,0,L|341:296,1,105,8|0,0:0|0:0,0:0:0:0:
339,295,213210,6,0,L|426:312,1,70,0|0,1:0|0:0,0:0:0:0:
412,215,213615,2,0,P|462:207|503:200,1,70,8|2,0:0|0:3,0:0:0:0:
512,123,214021,1,0,1:0:0:0:
512,123,214224,1,2,0:1:0:0:
444,66,214426,1,8,0:0:0:0:
382,127,214629,5,8,0:3:0:0:
382,127,214730,1,4,0:3:0:0:
382,127,214832,2,0,B|289:137|266:47,2,140,4|8|0,1:2|0:0|1:0,0:0:0:0:
436,197,215845,1,0,0:0:0:0:
365,253,216048,2,0,L|354:339,1,70,8|0,0:0|0:0,0:0:0:0:
415,376,216453,6,0,L|263:352,1,140,0|8,1:0|0:0,0:0:0:0:
210,310,217061,1,2,0:3:0:0:
135,361,217264,2,0,P|101:369|67:364,1,70,0|2,1:0|0:1,0:0:0:0:
21,274,217669,2,0,P|81:269|114:285,1,70,8|8,0:0|0:0,0:0:0:0:
89,271,217973,1,8,0:0:0:0:
89,271,218075,5,12,0:0:0:0:
59,184,218277,2,0,L|70:103,1,70,0|8,0:0|0:0,0:0:0:0:
0,30,218683,2,0,B|60:-8|152:35,1,140,0|0,0:0|1:0,0:0:0:0:
187,105,219291,1,8,0:0:0:0:
187,105,219494,1,2,3:2:0:0:
271,74,219696,5,0,1:0:0:0:
271,74,219899,2,0,L|280:-1,1,70,0|8,0:0|0:0,0:0:0:0:
342,124,220305,2,0,P|386:116|427:123,1,70,0|0,0:0|1:0,0:0:0:0:
473,180,220710,1,8,0:0:0:0:
473,180,220811,1,8,0:0:0:0:
473,180,220913,1,8,0:3:0:0:
430,245,221115,1,4,0:3:0:0:
482,315,221318,6,0,P|403:297|364:289,1,105,4|0,1:2|0:0,0:0:0:0:
379,292,221723,2,0,P|352:318|338:358,1,70,8|0,0:2|0:0,0:0:0:0:
243,368,222129,2,0,P|223:328|188:302,1,70,0|0,1:0|0:0,0:0:0:0:
284,243,222534,2,0,L|269:127,1,105,8|0,0:0|0:0,0:0:0:0:
270,138,222940,6,0,B|208:82|126:120,1,140,0|8,1:0|0:0,0:0:0:0:
54,76,223548,2,0,L|61:154,1,70,2|0,0:3|1:0,0:0:0:0:
20,209,223953,1,2,0:1:0:0:
20,209,224156,1,8,0:0:0:0:
63,283,224359,5,8,0:0:0:0:
63,283,224460,1,8,0:0:0:0:
63,283,224561,2,0,P|109:297|207:303,1,140,4|8,1:2|0:2,0:0:0:0:
371,356,225372,2,0,L|376:255,1,70,0|0,1:2|0:0,0:0:0:0:
473,325,225777,6,0,B|512:258|463:173,1,140,8|0,0:0|1:0,0:0:0:0:
401,128,226386,1,0,0:0:0:0:
448,32,226588,2,0,P|449:74|439:116,1,70,8|2,0:0|0:3,0:0:0:0:
338,72,226994,2,0,P|337:30|347:-12,1,70,0|2,1:0|0:1,0:0:0:0:
286,134,227399,1,8,0:0:0:0:
199,119,227602,5,8,0:3:0:0:
199,119,227703,1,4,0:3:0:0:
199,119,227805,2,0,L|47:96,2,140,4|8|0,1:2|0:0|1:0,0:0:0:0:
363,231,229020,6,0,B|377:312|313:371,1,140,8|0,0:0|1:0,0:0:0:0:
245,368,229629,1,0,0:0:0:0:
193,312,229832,2,0,L|114:296,1,70,8|2,0:0|0:3,0:0:0:0:
31,333,230237,2,0,P|31:287|48:253,1,70,0|2,1:0|0:1,0:0:0:0:
105,222,230642,1,8,0:0:0:0:
51,141,230845,5,8,0:0:0:0:
51,141,230946,1,8,0:0:0:0:
51,141,231048,1,4,1:2:0:0:
145,94,231250,2,0,L|230:107,1,70,8|0,0:0|0:0,0:0:0:0:
287,24,231656,1,0,1:0:0:0:
287,24,231859,2,0,B|311:98|281:146,1,105,8|0,0:0|0:0,0:0:0:0:
290,126,232264,2,0,L|271:209,1,70,4|0,0:3|3:0,0:0:0:0:
208,263,232669,5,4,1:3:0:0:
273,344,232872,1,12,0:0:0:0:
273,344,233075,2,0,P|316:348|359:325,1,70,12|0,0:0|0:0,0:0:0:0:
429,289,233480,1,4,1:2:0:0:
392,197,233683,1,8,0:0:0:0:
392,197,233784,1,8,0:0:0:0:
392,197,233886,2,0,L|397:146,2,35,8|8|8,0:0|0:0|0:0,0:0:0:0:
461,95,234291,6,0,P|405:82|352:78,1,77.0000023498536,4|0,1:2|0:0,0:0:0:0:
384,0,234696,2,0,P|345:5|308:15,1,77.0000023498536,8|0,0:0|0:0,0:0:0:0:
249,92,235102,1,4,1:3:0:0:
249,92,235304,1,0,0:0:0:0:
153,74,235507,2,0,P|141:31|147:-7,1,77.0000023498536,8|0,0:0|3:0,0:0:0:0:
123,160,235913,6,0,B|158:77|265:94,1,154.000004699707,4|8,1:3|0:0,0:0:0:0:
315,164,236521,1,0,0:0:0:0:
263,241,236723,2,0,L|255:337,1,77.0000023498536,4|2,1:3|0:1,0:0:0:0:
186,370,237129,1,8,0:0:0:0:
118,303,237332,5,8,0:0:0:0:
118,303,237433,1,8,0:0:0:0:
118,303,237534,2,0,P|71:288|39:290,1,77.0000023498536,4|0,1:2|0:0,0:0:0:0:
17,181,237940,2,0,P|64:196|96:194,1,77.0000023498536,8|0,0:0|0:0,0:0:0:0:
170,140,238345,1,4,1:3:0:0:
119,63,238548,1,0,0:0:0:0:
198,6,238750,2,0,L|286:26,1,77.0000023498536,8|0,0:0|1:0,0:0:0:0:
383,144,239156,6,0,B|418:71|363:-4,2,154.000004699707,4|8|4,1:3|0:0|1:3,0:0:0:0:
310,216,240169,1,12,0:0:0:0:
405,288,240372,1,0,1:0:0:0:
347,349,240575,5,8,0:3:0:0:
347,349,240676,1,4,0:3:0:0:
347,349,240777,2,0,P|282:357|242:342,1,77.0000023498536,4|0,1:0|0:0,0:0:0:0:
288,259,241183,1,8,0:0:0:0:
288,259,241386,2,0,P|255:231|236:202,1,77.0000023498536,0|4,0:0|1:3,0:0:0:0:
268,121,241791,1,0,0:0:0:0:
212,50,241994,2,0,L|127:61,1,77.0000023498536,8|0,0:0|0:0,0:0:0:0:
38,0,242399,6,0,B|7:84|81:156,1,154.000004699707,4|8,1:3|0:0,0:0:0:0:
145,193,243007,1,0,0:0:0:0:
83,259,243210,2,0,L|76:339,1,77.0000023498536,4|0,1:3|0:0,0:0:0:0:
156,384,243615,1,8,0:0:0:0:
230,309,243818,5,8,0:0:0:0:
230,309,243919,1,8,0:0:0:0:
230,309,244021,2,0,P|278:296|323:294,1,77.0000023498536,4|0,1:2|0:0,0:0:0:0:
290,217,244426,2,0,P|328:221|365:232,1,77.0000023498536,8|0,0:2|0:0,0:0:0:0:
445,311,244832,2,0,L|456:221,1,77.0000023498536,4|2,1:3|0:3,0:0:0:0:
436,133,245237,2,0,L|447:43,1,77.0000023498536,8|2,0:0|0:1,0:0:0:0:
338,0,245642,6,0,B|277:69|305:156,2,154.000004699707,4|8|0,1:2|0:0|1:0,0:0:0:0:
446,45,246656,1,8,0:0:0:0:
446,45,246757,1,8,0:0:0:0:
446,45,246859,2,0,L|451:95,2,38.5000011749268,8|8|8,0:0|0:0|0:0,0:0:0:0:
493,155,247264,6,0,L|506:237,1,77.0000023498536,4|0,1:2|0:0,0:0:0:0:
471,323,247669,1,8,0:0:0:0:
471,323,247872,1,0,0:0:0:0:
384,284,248075,2,0,P|369:242|371:197,1,77.0000023498536,4|0,1:3|0:0,0:0:0:0:
308,312,248480,2,0,P|290:345|279:398,1,77.0000023498536,8|0,0:0|0:0,0:0:0:0:
230,276,248886,6,0,L|108:260,1,115.50000352478,4|0,1:3|0:0,0:0:0:0:
115,260,249291,1,8,0:0:0:0:
1,321,249494,1,2,0:3:0:0:
1,321,249696,2,0,B|-8:234|73:183,1,154.000004699707,4|8,1:3|0:0,0:0:0:0:
20,107,250305,5,8,0:0:0:0:
20,107,250406,1,8,0:0:0:0:
20,107,250507,2,0,B|83:178|187:120,1,154.000004699707,4|8,1:2|0:0,0:0:0:0:
225,63,251115,1,0,0:0:0:0:
294,120,251318,2,0,P|300:163|296:211,1,77.0000023498536,4|0,1:3|0:0,0:0:0:0:
220,268,251723,2,0,P|214:225|218:177,1,77.0000023498536,8|0,0:0|0:0,0:0:0:0:
152,330,252129,6,0,L|318:302,1,154.000004699707,4|8,1:3|0:0,0:0:0:0:
382,356,252737,1,2,0:3:0:0:
446,288,252940,2,0,P|447:238|433:197,1,77.0000023498536,4|2,1:2|0:1,0:0:0:0:
505,157,253345,2,0,P|474:109|446:84,1,77.0000023498536,8|0,0:0|0:0,0:0:0:0:
376,35,253750,6,0,L|369:119,1,77.0000023498536,4|0,1:2|0:0,0:0:0:0:
305,158,254156,2,0,L|298:242,1,77.0000023498536,8|0,0:0|0:0,0:0:0:0:
329,323,254561,1,4,1:3:0:0:
231,306,254764,1,0,0:0:0:0:
141,286,254967,1,8,0:0:0:0:
12,151,255372,5,4,1:0:0:0:
89,103,255575,1,8,0:2:0:0:
89,103,255676,1,8,0:0:0:0:
89,103,255777,2,0,L|141:112,3,38.5000011749268,8|8|4|4,0:3|0:3|0:3|0:3,0:0:0:0:
163,114,256183,1,4,1:3:0:0:
461,142,256588,1,4,1:3:0:0:
309,326,256994,6,0,B|274:253|322:172,1,140,4|8,1:2|0:0,0:0:0:0:
368,136,257602,1,0,0:0:0:0:
332,66,257805,2,0,L|256:48,1,70,0|0,1:0|1:0,0:0:0:0:
182,0,258210,1,8,0:0:0:0:
182,0,258413,1,2,0:3:0:0:
118,45,258615,6,0,P|105:88|111:132,1,70,0|2,1:0|0:1,0:0:0:0:
156,194,259021,1,8,0:0:0:0:
61,259,259223,2,0,B|119:203|197:233,1,140,0|0,0:0|1:0,0:0:0:0:
240,294,259832,1,8,0:0:0:0:
287,370,260034,5,2,0:3:0:0:
287,370,260136,1,0,0:0:0:0:
287,370,260237,2,0,L|302:216,1,140,0|8,1:0|0:0,0:0:0:0:
249,169,260845,1,0,0:0:0:0:
249,169,261048,2,0,P|243:124|255:87,1,70,0|2,1:0|0:3,0:0:0:0:
330,59,261453,2,0,P|336:104|324:141,1,70,8|2,0:0|0:1,0:0:0:0:
256,17,261859,6,0,B|335:2|405:35,1,140,0|8,1:0|0:0,0:0:0:0:
470,90,262467,1,0,0:0:0:0:
414,166,262669,1,2,1:3:0:0:
414,166,262872,2,0,L|403:251,1,70,2|8,1:1|0:0,0:0:0:0:
466,323,263277,1,2,1:3:0:0:
385,365,263480,6,0,L|268:343,1,105,2|0,1:2|0:0,0:0:0:0:
281,345,263886,2,0,B|244:270|296:196,1,140,12|0,0:0|1:0,0:0:0:0:
369,161,264494,1,0,1:0:0:0:
306,96,264696,2,0,P|265:84|219:89,1,70,8|2,0:0|0:3,0:0:0:0:
189,16,265102,6,0,L|197:166,1,140,0|8,1:0|0:0,0:0:0:0:
130,198,265710,2,0,P|76:192|56:172,1,70,2|0,0:0|1:0,0:0:0:0:
17,293,266115,1,2,0:3:0:0:
17,293,266318,2,0,L|88:284,1,70,8|0,0:0|3:0,0:0:0:0:
160,360,266723,6,0,B|228:302|302:346,1,140,0|8,1:0|0:0,0:0:0:0:
439,370,267534,2,0,L|445:296,1,70,0|2,1:0|1:0,0:0:0:0:
390,235,267940,2,0,L|396:161,1,70,8|2,0:0|3:0,0:0:0:0:
454,99,268345,5,4,1:2:0:0:
454,99,268548,1,0,0:0:0:0:
378,33,268750,1,12,0:0:0:0:
378,33,268954,1,0,0:0:0:0:
304,105,269156,1,8,0:0:0:0:
230,40,269359,1,8,0:0:0:0:
230,40,269460,1,8,0:0:0:0:
230,40,269561,2,0,L|184:33,2,35,8|8|4,0:3|0:3|0:3,0:0:0:0:
303,0,269967,5,4,1:1:0:0:
256,192,270068,12,0,275642,0:0:0:0:
