osu file format v14

[General]
AudioFilename: audio.mp3
AudioLeadIn: 0
PreviewTime: 55598
Countdown: 0
SampleSet: Soft
StackLeniency: 0.4
Mode: 0
LetterboxInBreaks: 0
WidescreenStoryboard: 0

[Editor]
DistanceSpacing: 0.4
BeatDivisor: 4
GridSize: 4
TimelineZoom: 1

[Metadata]
Title:Aoi Shiori (TV Size)
TitleUnicode:青い栞 (TV Size)
Artist:Galileo Galilei
ArtistUnicode:Galileo Galilei
Creator:Vendanger
Version:Memories
Source:あの日見た花の名前を僕達はまだ知らない。
Tags:anohana bbhf bird bear hare fish ano hi mita hana no namae o bokutachi wa mada shiranai we still don't know the name of flower saw that day wo dont anime op opening japanese pop jpop
BeatmapID:3493810
BeatmapSetID:1709843

[Difficulty]
HPDrainRate:5
CircleSize:4.5
OverallDifficulty:7
ApproachRate:8
SliderMultiplier:1.8
SliderTickRate:1

[Events]
//Background and Video events
0,0,"anohana.jpg",0,0
//Break Periods
//Storyboard Layer 0 (Background)
//Storyboard Layer 1 (Fail)
//Storyboard Layer 2 (Pass)
//Storyboard Layer 3 (Foreground)
//Storyboard Layer 4 (Overlay)
//Storyboard Sound Samples

[TimingPoints]
371,454.545454545455,4,2,2,55,1,0
371,-83.3333333333333,4,2,2,70,0,0
598,-125,4,2,2,35,0,0
3098,-250,4,2,2,35,0,0
4007,-83.3333333333333,4,2,2,70,0,0
4234,-125,4,2,2,35,0,0
7189,-250,4,2,1,35,0,0
7530,-250,4,2,1,5,0,0
7643,-100,4,2,1,55,0,0
7984,-100,4,2,1,5,0,0
8098,-100,4,2,1,55,0,0
12757,-100,4,2,1,5,0,0
12871,-100,4,2,1,55,0,0
14575,-100,4,2,1,5,0,0
14689,-100,4,2,1,55,0,0
14802,-100,4,2,1,5,0,0
14916,-100,4,2,1,55,0,0
16166,-100,4,2,1,5,0,0
16280,-100,4,2,1,55,0,0
18893,-100,4,2,1,5,0,0
19007,-100,4,2,1,55,0,0
20030,-100,4,2,1,5,0,0
20144,-100,4,2,1,55,0,0
21848,-100,4,2,1,5,0,0
21962,-100,4,2,1,55,0,0
25484,-100,4,2,1,5,0,0
25598,-100,4,2,1,55,0,0
27984,-100,4,2,1,5,0,0
28098,-100,4,2,1,55,0,0
28439,-100,4,2,1,5,0,0
28553,-100,4,2,1,55,0,0
31621,-100,4,2,1,5,0,0
31735,-100,4,2,1,55,0,0
31848,-100,4,2,1,5,0,0
31962,-100,4,2,1,55,0,0
32302,-100,4,2,1,5,0,0
32416,-100,4,2,1,55,0,0
37075,-100,4,2,1,5,0,0
37189,-100,4,2,1,55,0,0
39575,-100,4,2,1,5,0,0
39689,-100,4,2,1,55,0,0
48666,-100,4,2,1,5,0,0
48780,-100,4,2,1,55,0,0
50939,-100,4,2,1,5,0,0
51053,-100,4,2,1,55,0,0
52530,-100,4,2,1,5,0,0
52644,-100,4,2,1,55,0,0
52757,-100,4,2,1,5,0,0
52871,-100,4,2,1,55,0,0
55825,454.545454545455,4,2,1,75,1,0
55825,-83.3333333333333,4,2,1,75,0,1
56393,-83.3333333333333,4,2,1,5,0,1
56506,-83.3333333333333,4,2,1,75,0,1
57302,-83.3333333333333,4,2,1,5,0,1
57415,-83.3333333333333,4,2,1,75,0,1
58211,-83.3333333333333,4,2,1,5,0,1
58325,-83.3333333333333,4,2,1,75,0,1
58665,-83.3333333333333,4,2,1,5,0,1
58779,-83.3333333333333,4,2,1,75,0,1
60029,-83.3333333333333,4,2,1,5,0,1
60143,-83.3333333333333,4,2,1,75,0,1
60938,-83.3333333333333,4,2,1,5,0,1
61052,-83.3333333333333,4,2,1,75,0,1
61620,-83.3333333333333,4,2,1,5,0,1
61734,-83.3333333333333,4,2,1,75,0,1
64120,-83.3333333333333,4,2,1,5,0,1
64234,-83.3333333333333,4,2,1,75,0,1
65256,-83.3333333333333,4,2,1,5,0,1
65370,-83.3333333333333,4,2,1,75,0,1
70711,-83.3333333333333,4,2,1,5,0,1
70825,-83.3333333333333,4,2,1,75,0,1
72529,-83.3333333333333,4,2,1,5,0,1
72643,-83.3333333333333,4,2,1,75,0,1
77984,-83.3333333333333,4,2,1,5,0,1
78098,-83.3333333333333,4,2,1,75,0,1
79802,-83.3333333333333,4,2,1,5,0,1
79916,-83.3333333333333,4,2,1,75,0,1
81620,-83.3333333333333,4,2,1,5,0,1
81734,-83.3333333333333,4,2,1,75,0,1
84915,-83.3333333333333,4,2,1,70,0,0
85143,-125,4,2,2,35,0,0
87870,-250,4,2,1,25,0,0
88097,-250,4,2,1,15,0,0

[Colours]
Combo1 : 233,233,233
Combo2 : 183,224,242

[HitObjects]
16,96,371,6,0,B|46:120|46:120|117:92,1,107.999996704102,6|0,3:2|0:2,0:2:0:0:
204,64,825,2,0,L|303:77,1,72,2|0,0:2|0:2,0:2:0:0:
116,100,1280,6,0,L|24:136,1,72,2|0,1:2|0:2,0:2:0:0:
212,72,1734,2,0,L|311:85,1,72,2|0,0:2|0:2,0:2:0:0:
116,100,2075,5,0,1:2:0:0:
124,108,2189,2,0,L|32:144,1,72,0|0,1:2|0:2,0:2:0:0:
220,80,2643,1,2,0:2:0:0:
339,31,2871,1,2,0:2:0:0:
328,104,3098,6,0,L|280:97,2,36,2|2|2,0:2|0:2|0:2,0:2:0:0:
512,124,4007,6,0,B|488:152|488:152|512:244,1,107.999996704102,6|0,3:2|0:2,0:2:0:0:
384,324,4461,2,0,L|406:255,1,72,2|0,0:2|0:2,0:2:0:0:
475,144,4916,6,0,L|497:212,1,72,2|0,1:2|0:2,0:2:0:0:
376,316,5371,2,0,L|398:247,1,72,2|0,0:2|0:2,0:2:0:0:
459,128,5711,5,0,1:2:0:0:
467,136,5825,2,0,L|489:204,1,72,2|0,1:2|0:2,0:2:0:0:
368,308,6280,1,2,0:2:0:0:
264,384,6507,1,2,0:2:0:0:
292,316,6734,5,2,0:2:0:0:
204,292,6961,2,0,L|221:343,1,36,2|0,0:3|0:2,0:2:0:0:
316,244,7189,2,0,L|336:184,1,54,6|0,0:2|0:2,0:2:0:0:
320,176,7643,6,0,B|240:220|240:220|180:208,1,135,6|0,3:1|0:2,0:2:0:0:
192,198,8098,1,10,0:2:0:0:
232,116,8325,1,2,0:2:0:0:
108,40,8552,1,2,3:2:0:0:
142,121,8779,1,2,3:2:0:0:
268,4,9007,2,0,L|364:36,1,90,10|2,0:2|0:2,0:2:0:0:
504,148,9461,6,0,P|448:172|428:220,1,90,2|0,3:2|0:2,0:2:0:0:
327,280,9916,2,0,P|316:322|332:364,1,90,10|0,0:2|0:2,0:2:0:0:
424,384,10371,2,0,L|520:360,1,90,0|0,3:2|3:2,0:2:0:0:
344,360,10825,1,10,0:2:0:0:
404,300,11052,1,2,0:2:0:0:
400,288,11166,1,2,0:2:0:0:
404,276,11280,5,2,3:2:0:0:
344,188,11507,1,2,0:2:0:0:
428,84,11734,1,10,0:2:0:0:
284,8,11961,6,0,P|332:52|320:96,1,90,2|0,0:2|3:2,0:2:0:0:
344,84,12302,1,2,0:2:0:0:
344,84,12416,2,0,P|298:149|243:142,1,135,2|0,3:2|0:2,0:2:0:0:
240,136,12871,1,2,0:2:0:0:
88,276,13098,6,0,B|124:248|188:260|152:304|224:320|260:304,1,180,2|8,3:2|0:2,0:2:0:0:
364,248,13780,1,2,0:2:0:0:
324,312,14007,5,2,3:2:0:0:
372,252,14234,1,2,3:2:0:0:
336,180,14461,2,0,L|292:196,1,45,10|0,0:2|0:2,0:2:0:0:
228,204,14689,2,0,L|272:220,1,45,2|0,0:3|0:2,0:2:0:0:
132,96,14916,6,0,B|86:112|86:112|59:136|59:136|-8:158,1,135,2|0,3:2|0:2,0:2:0:0:
0,172,15371,1,10,0:2:0:0:
20,72,15598,1,2,0:2:0:0:
128,180,15825,2,0,B|104:222|104:222|99:257|99:257|62:319,1,135,2|0,3:2|0:2,0:2:0:0:
88,320,16280,1,10,0:2:0:0:
24,240,16507,1,2,0:2:0:0:
196,140,16734,6,0,P|248:164|284:168,1,90,2|0,3:2|0:2,0:2:0:0:
400,216,17189,2,0,P|355:223|315:244,1,90,10|0,0:2|0:2,0:2:0:0:
252,308,17643,2,0,P|288:340|288:384,1,90,0|0,3:2|3:2,0:2:0:0:
448,320,18098,2,0,P|460:266|510:241,1,90,10|0,0:2|0:2,0:2:0:0:
504,252,18439,5,2,0:2:0:0:
504,252,18552,2,0,P|456:220|440:140,1,135,2|0,3:2|0:2,0:2:0:0:
448,140,19007,1,10,0:2:0:0:
512,16,19234,2,0,B|464:48|464:48|424:36,1,90,2|0,0:2|3:2,0:2:0:0:
360,96,19689,2,0,B|260:64|260:64|229:73,1,135,2|0,0:2|0:2,0:2:0:0:
228,84,20143,1,2,0:2:0:0:
232,96,20257,1,2,0:2:0:0:
242,104,20371,6,0,P|310:92|294:-4,1,180,2|8,3:2|0:2,0:2:0:0:
400,48,21052,1,2,0:2:0:0:
460,0,21280,5,2,3:2:0:0:
408,56,21507,1,2,3:2:0:0:
452,116,21734,2,0,L|500:104,1,45,10|0,0:2|0:2,0:2:0:0:
380,200,21961,1,2,0:2:0:0:
356,188,22075,1,2,0:2:0:0:
352,160,22189,5,6,3:1:0:0:
272,208,22416,1,2,0:2:0:0:
188,92,22643,1,10,0:2:0:0:
273,117,22871,1,2,0:2:0:0:
144,212,23098,5,2,3:2:0:0:
196,100,23325,1,2,3:2:0:0:
64,0,23552,1,10,0:2:0:0:
136,204,23780,5,2,0:2:0:0:
12,340,24007,2,0,P|7:296|0:251,1,90,2|0,3:2|0:2,0:2:0:0:
200,303,24461,2,0,P|203:259|211:214,1,90,10|0,0:2|0:2,0:2:0:0:
296,168,24916,5,2,3:2:0:0:
334,234,25143,1,2,3:2:0:0:
399,127,25371,2,0,L|351:115,1,45,10|0,0:2|0:2,0:2:0:0:
480,256,25598,5,2,0:2:0:0:
468,232,25711,1,2,0:2:0:0:
465,204,25825,1,2,3:2:0:0:
496,120,26052,1,2,0:2:0:0:
372,20,26280,1,10,0:2:0:0:
412,136,26507,1,2,0:2:0:0:
272,196,26734,1,2,3:2:0:0:
288,108,26961,2,0,L|192:92,1,90,2|8,3:2|0:2,0:2:0:0:
120,16,27416,5,2,0:2:0:0:
106,18,27529,1,2,0:2:0:0:
92,20,27643,2,0,P|64:64|80:152,1,135,2|0,3:2|0:2,0:2:0:0:
88,144,28098,2,0,P|116:188|100:276,1,135,10|0,0:2|0:2,0:2:0:0:
92,268,28552,1,2,3:2:0:0:
0,240,28780,1,2,3:2:0:0:
0,384,29007,2,0,P|52:368|108:360,1,90,10|0,0:2|0:2,0:2:0:0:
108,348,29348,5,2,0:2:0:0:
108,348,29461,2,0,P|152:380|216:364,1,90,2|0,3:2|0:2,0:2:0:0:
256,284,29916,2,0,P|305:261|323:198,1,90,8|0,0:2|0:2,0:2:0:0:
168,136,30371,6,0,P|178:172|188:242,1,90,2|0,3:2|0:2,0:2:0:0:
180,236,30711,1,2,0:2:0:0:
180,236,30825,1,10,0:2:0:0:
264,164,31052,1,2,0:2:0:0:
368,52,31280,6,0,P|320:65|228:79,1,135,2|0,3:2|0:2,0:2:0:0:
228,68,31734,2,0,P|264:64|292:56,1,45,10|0,0:2|0:2,0:2:0:0:
436,0,31961,6,0,P|456:60|416:128,1,135,2|0,0:2|0:2,0:2:0:0:
412,120,32416,1,2,3:2:0:0:
512,208,32643,2,0,P|476:247|410:247,1,90,10|0,0:2|0:2,0:2:0:0:
428,280,32984,5,2,0:2:0:0:
428,280,33098,2,0,P|376:260|316:248,1,90,2|0,3:2|0:2,0:2:0:0:
240,184,33552,2,0,P|283:172|325:155,1,90,8|0,0:2|0:2,0:2:0:0:
368,76,34007,1,0,3:2:0:0:
332,160,34234,5,2,3:2:0:0:
208,112,34461,1,10,0:2:0:0:
156,232,34689,1,2,0:2:0:0:
0,132,34916,6,0,P|72:152|104:136,1,90,2|0,3:2|0:2,0:2:0:0:
108,136,35257,1,2,0:2:0:0:
108,136,35371,2,0,P|64:176|56:220,1,90,8|2,0:2|3:2,0:2:0:0:
160,352,35825,5,10,0:2:0:0:
232,324,36052,1,0,3:2:0:0:
348,272,36280,1,8,0:2:0:0:
420,300,36507,1,2,3:2:0:0:
512,140,36734,6,0,B|372:176,1,135,6|0,3:1|0:2,0:2:0:0:
364,192,37189,2,0,L|260:172,1,90,0|0,3:2|0:2,0:2:0:0:
168,104,37643,2,0,P|160:52|196:16,1,90,0|0,3:2|0:2,0:2:0:0:
208,24,37984,1,8,0:2:0:0:
200,36,38098,1,0,3:2:0:0:
256,144,38325,5,10,0:2:0:0:
136,252,38552,2,0,L|48:236,1,90,2|2,3:2|0:2,0:2:0:0:
80,324,39007,1,2,3:2:0:0:
268,292,39234,2,0,L|400:267,1,135,2|0,0:2|0:2,0:2:0:0:
412,276,39689,1,2,0:2:0:0:
304,372,39916,1,10,0:2:0:0:
260,288,40143,1,2,0:2:0:0:
328,136,40371,5,6,3:1:0:0:
368,40,40598,1,2,0:2:0:0:
332,144,40825,1,10,0:2:0:0:
292,80,41052,1,2,0:2:0:0:
472,136,41280,6,0,L|488:260,1,90,6|0,3:2|0:2,0:2:0:0:
476,236,41621,1,2,0:2:0:0:
452,228,41734,1,8,0:2:0:0:
360,312,41961,1,2,0:2:0:0:
192,368,42189,6,0,P|256:344|268:312,1,90,4|2,3:1|0:2,0:2:0:0:
276,256,42643,1,2,3:2:0:0:
175,364,42871,2,0,P|193:301|149:253,1,135,2|0,0:2|0:2,0:2:0:0:
128,268,43325,1,8,0:2:0:0:
152,284,43439,1,8,0:2:0:0:
176,280,43552,1,8,0:2:0:0:
252,216,43780,1,2,3:2:0:0:
80,124,44007,6,0,P|144:128|204:40,1,180,6|0,3:1|3:2,0:2:0:0:
144,0,44689,1,2,0:2:0:0:
76,116,44916,2,0,P|112:156|112:200,1,90,2|0,3:2|0:2,0:2:0:0:
92,204,45257,1,8,0:2:0:0:
84,196,45371,1,0,3:2:0:0:
176,280,45598,1,10,0:2:0:0:
296,180,45825,5,2,3:2:0:0:
308,304,46052,1,2,0:2:0:0:
284,196,46280,1,2,3:2:0:0:
416,104,46507,5,2,0:2:0:0:
404,228,46734,1,2,3:2:0:0:
428,120,46962,1,2,0:2:0:0:
288,48,47189,2,0,B|256:52|256:52|240:72|240:72|192:88,1,90,8|2,0:2|0:2,0:2:0:0:
196,108,47530,5,2,0:2:0:0:
196,108,47643,2,0,B|166:95|166:95|142:104|142:104|92:94,1,90,6|2,3:1|0:2,0:2:0:0:
0,0,48098,1,10,0:2:0:0:
16,92,48325,2,0,L|36:228,1,135,2|0,0:2|0:2,0:2:0:0:
48,232,48780,2,0,L|40:324,1,90,2|8,0:2|0:2,0:2:0:0:
180,384,49234,5,2,0:2:0:0:
172,376,49348,1,2,0:2:0:0:
164,364,49461,2,0,P|152:308|164:252,1,90,2|2,3:2|0:2,0:2:0:0:
280,216,49916,1,10,0:2:0:0:
304,312,50143,2,0,P|307:267|295:223,1,90,2|0,0:2|3:2,0:2:0:0:
184,112,50598,6,0,B|223:119|223:119|268:111|268:111|331:124,1,135,2|0,0:2|0:2,0:2:0:0:
324,132,51052,1,2,0:2:0:0:
476,176,51280,6,0,P|504:136|458:79,1,90,6|2,3:1|0:2,0:2:0:0:
464,248,51734,2,0,P|445:205|375:216,1,90,8|0,0:2|0:2,0:2:0:0:
268,348,52189,6,0,P|336:336|432:328,1,135,6|0,3:2|0:2,0:2:0:0:
260,336,52643,2,0,P|236:340|202:343,1,45,8|0,0:2|0:2,0:2:0:0:
272,256,52871,1,2,3:2:0:0:
72,200,53098,5,14,0:2:0:0:
104,284,53325,1,2,3:2:0:0:
268,348,53552,1,14,0:2:0:0:
300,264,53779,1,2,3:2:0:0:
360,120,54007,5,6,0:2:0:0:
292,56,54235,1,0,3:2:0:0:
255,54,54348,1,8,0:2:0:0:
217,78,54462,1,8,0:2:0:0:
183,48,54576,1,8,0:2:0:0:
200,6,54689,1,8,0:2:0:0:
244,10,54803,1,8,0:2:0:0:
219,41,54916,5,0,0:2:0:0:
484,4,55825,6,0,P|424:24|408:88,1,107.999996704102,6|0,3:1|0:2,0:2:0:0:
345,111,56165,1,2,0:0:0:0:
345,111,56279,2,0,P|370:149|419:149,1,53.9999983520508,8|0,0:2|0:2,0:2:0:0:
483,81,56506,1,2,0:2:0:0:
512,249,56734,6,0,P|444:233|396:229,1,107.999996704102,2|0,3:2|0:2,0:2:0:0:
354,282,57075,1,2,0:0:0:0:
354,282,57188,2,0,P|318:290|281:295,1,53.9999983520508,8|0,0:2|0:2,0:2:0:0:
178,345,57415,1,2,0:2:0:0:
140,132,57643,6,0,P|92:172|20:148,1,107.999996704102,2|0,3:2|0:2,0:2:0:0:
16,108,57984,1,2,0:2:0:0:
16,108,58097,2,0,P|44:141|27:192,1,53.9999983520508,10|0,0:2|0:2,0:2:0:0:
206,6,58325,2,0,P|242:84|184:171,1,161.999995056153,2|0,0:2|0:2,0:2:0:0:
140,132,58779,1,0,3:2:0:0:
280,212,59006,1,8,0:2:0:0:
336,148,59234,1,0,0:2:0:0:
512,108,59461,6,0,B|484:136|484:136|504:220,1,107.999996704102,2|0,3:2|0:2,0:2:0:0:
454,261,59802,1,2,0:0:0:0:
454,261,59915,2,0,B|468:280|468:280|458:317,1,53.9999983520508,8|0,0:2|0:2,0:2:0:0:
380,232,60143,1,2,0:2:0:0:
212,324,60370,6,0,P|272:308|288:248,1,107.999996704102,2|0,3:2|0:2,0:2:0:0:
248,204,60711,1,2,0:0:0:0:
248,204,60825,2,0,P|222:210|202:235,1,53.9999983520508,8|0,0:2|0:2,0:2:0:0:
224,332,61052,1,2,0:2:0:0:
388,240,61279,2,0,P|360:160|278:144,1,161.999995056153,2|0,3:2|0:2,0:2:0:0:
248,204,61734,1,10,0:2:0:0:
140,64,61961,6,0,P|204:84|252:84,1,107.999996704102,2|0,0:2|3:2,0:2:0:0:
296,144,62302,1,2,0:2:0:0:
296,144,62415,2,0,P|360:124|408:124,1,107.999996704102,2|8,0:2|0:2,0:2:0:0:
492,176,62870,1,2,0:2:0:0:
428,356,63097,5,6,3:1:0:0:
336,320,63325,2,0,P|401:334|442:358,1,107.999996704102,0|10,0:2|0:2,0:2:0:0:
192,360,63779,2,0,P|275:344|351:305,1,161.999995056153,2|0,0:2|0:2,0:2:0:0:
332,236,64234,2,0,P|267:222|226:198,1,107.999996704102,2|8,0:2|0:2,0:2:0:0:
144,100,64688,5,2,0:2:0:0:
0,152,64915,2,0,B|36:128|96:132|80:180|132:192|188:168,1,161.999995056153,2|0,3:2|0:2,0:2:0:0:
208,136,65370,1,10,0:2:0:0:
308,44,65597,2,0,P|248:32|204:4,1,107.999996704102,2|0,0:2|3:2,0:2:0:0:
352,108,66052,5,2,0:2:0:0:
452,36,66279,1,10,0:2:0:0:
512,104,66506,1,2,0:2:0:0:
344,104,66734,2,0,L|366:209,1,107.999996704102,2|0,3:2|3:2,0:2:0:0:
380,336,67188,1,8,0:2:0:0:
280,304,67415,2,0,B|261:288|261:288|280:202,2,107.999996704102,2|0|0,0:2|3:2|3:2,0:2:0:0:
140,228,68097,5,10,0:2:0:0:
168,332,68325,1,2,0:2:0:0:
32,264,68552,2,0,P|36:216|54:158,1,107.999996704102,2|0,3:2|3:2,0:2:0:0:
208,128,69006,1,8,0:2:0:0:
108,84,69234,2,0,P|152:120|212:116,2,107.999996704102,2|0|0,0:2|3:2|3:2,0:2:0:0:
296,4,69915,5,14,0:2:0:0:
272,80,70143,1,0,3:2:0:0:
452,184,70370,2,0,P|376:196|268:232,1,161.999995056153,6|0,3:1|0:2,0:2:0:0:
260,284,70825,1,2,0:3:0:0:
312,192,71052,1,2,3:2:0:0:
148,272,71279,6,0,P|99:264|31:241,1,107.999996704102,2|0,3:2|0:2,0:2:0:0:
12,184,71620,1,2,0:2:0:0:
12,184,71734,1,2,0:3:0:0:
104,128,71961,1,2,0:2:0:0:
128,360,72188,6,0,P|156:296|248:308,1,161.999995056153,6|0,3:2|0:2,0:2:0:0:
276,360,72643,1,2,3:2:0:0:
436,320,72870,5,10,0:0:0:0:
436,288,72984,1,8,0:2:0:0:
452,260,73097,1,0,3:2:0:0:
272,220,73325,5,8,0:2:0:0:
299,236,73439,1,8,0:2:0:0:
315,263,73552,1,2,3:2:0:0:
408,104,73779,5,8,0:2:0:0:
380,119,73893,1,8,0:2:0:0:
348,120,74006,2,0,B|296:104|276:140|228:135|211:92|211:92|231:104|276:107|284:92,1,215.999993408203,6|8,3:1|0:0,0:2:0:0:
328,16,74688,1,2,0:2:0:0:
144,40,74915,6,0,B|112:100|128:156|128:156|176:172|212:236,1,215.999993408203,2|8,3:2|0:2,0:2:0:0:
308,244,75597,1,2,0:2:0:0:
136,324,75825,6,0,P|116:236|8:260,1,215.999993408203,4|8,3:2|0:2,0:2:0:0:
32,360,76506,1,2,0:2:0:0:
164,248,76734,1,2,3:2:0:0:
272,340,76961,1,8,0:2:0:0:
288,312,77075,1,8,0:2:0:0:
284,280,77188,2,0,P|244:252|260:192,1,107.999996704102,8|0,0:2|3:2,0:2:0:0:
460,328,77643,6,0,P|500:300|480:188,1,161.999995056153,6|0,3:1|0:2,0:2:0:0:
428,160,78097,2,0,P|368:168|304:168,1,107.999996704102,8|0,0:2|0:2,0:2:0:0:
240,104,78552,1,0,3:2:0:0:
240,104,78779,1,0,3:2:0:0:
176,224,79006,2,0,P|229:225|283:232,1,107.999996704102,8|0,0:2|0:2,0:2:0:0:
96,316,79461,6,0,P|52:260|88:168,1,161.999995056153,2|0,3:2|0:2,0:2:0:0:
144,152,79915,1,10,0:2:0:0:
8,80,80143,2,0,P|80:100|264:108,1,215.999993408203,2|0,0:2|3:2,0:2:0:0:
304,48,80825,1,8,0:2:0:0:
212,128,81052,1,2,0:2:0:0:
384,228,81279,6,0,B|360:196|360:196|400:76,1,161.999995056153,6|0,3:1|0:2,0:2:0:0:
472,56,81734,2,0,B|496:130|496:130|478:154,1,107.999996704102,8|0,0:2|0:2,0:2:0:0:
400,228,82188,1,0,3:2:0:0:
400,228,82415,1,0,3:2:0:0:
492,336,82643,2,0,P|428:320|376:316,1,107.999996704102,8|0,0:2|0:2,0:2:0:0:
328,272,82984,5,2,0:2:0:0:
328,272,83097,2,0,P|264:288|212:292,1,107.999996704102,2|0,3:2|0:2,0:2:0:0:
96,208,83552,1,8,0:2:0:0:
168,104,83779,1,0,3:2:0:0:
108,40,84006,1,0,3:2:0:0:
188,208,84234,5,8,0:2:0:0:
212,188,84347,1,8,0:2:0:0:
232,180,84461,1,8,0:3:0:0:
252,188,84575,1,8,0:3:0:0:
264,188,84688,1,8,0:3:0:0:
276,184,84802,1,8,0:3:0:0:
280,180,84915,6,0,B|296:152|296:152|264:56,1,107.999996704102,6|0,3:2|0:2,0:2:0:0:
400,208,85370,2,0,L|430:123,1,72,2|0,0:2|0:2,0:2:0:0:
304,152,85825,6,0,L|273:67,1,72,2|0,1:2|0:2,0:2:0:0:
408,216,86279,2,0,L|438:131,1,72,2|0,0:2|0:2,0:2:0:0:
304,152,86620,5,0,1:2:0:0:
312,160,86734,2,0,L|281:75,1,72,2|0,1:2|0:2,0:2:0:0:
416,224,87188,1,2,0:2:0:0:
368,368,87415,1,2,0:2:0:0:
336,348,87643,1,2,0:2:0:0:
320,344,87870,2,0,L|368:336,2,36,2|2|2,0:2|0:2|0:2,0:2:0:0:
