osu file format v14

[General]
AudioFilename: audio.mp3
AudioLeadIn: 0
PreviewTime: 55825
Countdown: 0
SampleSet: Soft
StackLeniency: 0.4
Mode: 0
LetterboxInBreaks: 0
WidescreenStoryboard: 0

[Editor]
DistanceSpacing: 0.9
BeatDivisor: 1
GridSize: 4
TimelineZoom: 1

[Metadata]
Title:Aoi Shiori (TV Size)
TitleUnicode:青い栞 (TV Size)
Artist:Galileo Galilei
ArtistUnicode:Galileo Galilei
Creator:Glaceon
Version:Wish
Source:あの日見た花の名前を僕達はまだ知らない。
Tags:Anohana Ano Hi Mita Hana no Namae wo Bokutachi wa Mada Shiranai. Mak Kau Hijau
BeatmapID:1987859
BeatmapSetID:951944

[Difficulty]
HPDrainRate:5.5
CircleSize:4
OverallDifficulty:7.5
ApproachRate:8.2
SliderMultiplier:2
SliderTickRate:1

[Events]
//Background and Video events
0,0,"mou ii yo.jpg",0,0
//Break Periods
//Storyboard Layer 0 (Background)
//Storyboard Layer 1 (Fail)
//Storyboard Layer 2 (Pass)
//Storyboard Layer 3 (Foreground)
//Storyboard Sound Samples

[TimingPoints]
-1447,454.545454545455,4,2,22,80,1,0
371,-133.333333333333,4,2,22,80,0,0
598,-133.333333333333,4,2,22,45,0,0
4007,-133.333333333333,4,2,22,80,0,0
4234,-133.333333333333,4,2,22,45,0,0
7189,-200,4,2,22,60,0,0
7530,-133.333333333333,4,2,22,5,0,0
7643,-117.647058823529,4,2,22,70,0,0
22189,-105.263157894737,4,2,22,80,0,0
36734,-133.333333333333,4,2,22,70,0,0
47643,-117.647058823529,4,2,22,75,0,0
51280,-105.263157894737,4,2,22,85,0,0
54916,-105.263157894737,4,2,69,85,0,0
55825,454.545454545455,4,2,22,100,1,0
55825,-90.9090909090909,4,2,22,100,0,1
70370,-100,4,2,22,100,0,0
74006,-90.9090909090909,4,2,22,100,0,1
81165,-90.9090909090909,4,2,22,5,0,1
81279,-90.9090909090909,4,2,22,100,0,1
84915,-133.333333333333,4,2,22,45,0,0
87643,-133.333333333333,4,2,22,35,0,0
87870,-133.333333333333,4,2,22,25,0,0
88097,-133.333333333333,4,2,22,15,0,0
88325,-133.333333333333,4,2,22,5,0,0

[Colours]
Combo1 : 166,166,255
Combo2 : 244,244,244
Combo3 : 167,171,169
Combo4 : 255,182,147

[HitObjects]
58,335,371,6,0,L|147:322,1,75.0000028610231,14|2,0:0|0:0,0:0:0:0:
215,244,825,2,0,L|126:231,1,75.0000028610231,2|2,0:0|0:0,0:0:0:0:
259,321,1280,2,0,P|298:281|303:234,1,75.0000028610231,2|2,0:0|0:0,0:0:0:0:
244,115,1734,2,0,P|259:168|297:196,1,75.0000028610231,2|2,0:0|0:0,0:0:0:0:
429,205,2189,6,0,P|374:191|331:210,2,75.0000028610231,2|2|2,0:0|0:0|0:0,0:0:0:0:
485,270,2871,1,2,0:0:0:0:
395,357,3098,2,0,L|409:261,2,75.0000028610231,2|2|2,0:0|0:0|0:0,0:0:0:0:
395,357,4007,6,0,L|306:344,1,75.0000028610231,14|2,0:0|0:0,0:0:0:0:
238,266,4461,2,0,L|327:253,1,75.0000028610231,2|2,0:0|0:0,0:0:0:0:
194,343,4916,2,0,P|155:303|150:256,1,75.0000028610231,2|2,0:0|0:0,0:0:0:0:
209,137,5370,2,0,P|193:190|155:218,1,75.0000028610231,2|2,0:0|0:0,0:0:0:0:
23,227,5825,6,0,P|77:213|120:232,2,75.0000028610231,2|2|2,0:0|0:0|0:0,0:0:0:0:
9,360,6507,1,2,0:0:0:0:
67,297,6734,1,2,0:0:0:0:
23,227,6961,1,2,0:0:0:0:
117,365,7189,2,0,L|203:356,1,75,2|0,0:0|0:0,0:0:0:0:
234,354,7643,6,0,P|245:306|233:251,1,85.0000016212464,6|0,1:2|0:0,0:0:0:0:
130,167,8098,1,10,0:0:0:0:
159,257,8325,1,2,0:0:0:0:
292,182,8552,2,0,L|192:190,1,85.0000016212464,2|2,1:2|1:2,0:0:0:0:
77,232,9007,1,10,0:0:0:0:
192,115,9234,1,2,0:0:0:0:
56,133,9461,6,0,B|7:160|7:160|161:153,1,170.000003242493,2|10,1:2|0:0,0:0:0:0:
270,113,10143,1,0,0:0:0:0:
157,4,10371,2,0,P|127:51|128:97,1,85.0000016212464,0|0,1:2|1:2,0:0:0:0:
252,190,10825,1,10,0:0:0:0:
203,69,11052,1,2,0:0:0:0:
169,235,11280,5,2,1:2:0:0:
287,100,11507,1,2,0:0:0:0:
281,214,11734,1,10,0:0:0:0:
111,146,11961,2,0,L|204:157,1,85.0000016212464,2|0,0:0|1:2,0:0:0:0:
234,183,12302,1,2,0:0:0:0:
234,183,12416,2,0,L|318:173,1,85.0000016212464,2|8,1:2|0:0,0:0:0:0:
405,112,12871,1,2,0:0:0:0:
426,281,13098,6,0,L|341:271,2,85.0000016212464,2|0|8,1:2|0:0|0:0,0:0:0:0:
339,184,13780,1,2,0:0:0:0:
258,299,14007,1,0,1:2:0:0:
341,271,14234,1,0,1:2:0:0:
245,127,14461,2,0,L|254:237,1,85.0000016212464,8|0,0:0|0:0,0:0:0:0:
289,53,14916,6,0,B|240:34|189:48|219:57|158:76|97:38,1,170.000003242493,2|10,1:2|0:0,0:0:0:0:
21,78,15598,1,2,0:0:0:0:
99,203,15825,2,0,L|86:96,1,85.0000016212464,2|0,1:2|1:2,0:0:0:0:
21,242,16280,1,10,0:0:0:0:
159,265,16507,1,2,0:0:0:0:
35,325,16734,6,0,L|119:335,1,85.0000016212464,2|0,1:2|0:0,0:0:0:0:
243,255,17189,2,0,L|158:265,1,85.0000016212464,10|0,0:0|0:0,0:0:0:0:
21,242,17643,1,0,1:2:0:0:
119,335,17871,1,0,1:2:0:0:
104,179,18098,2,0,L|188:189,1,85.0000016212464,10|2,0:0|0:0,0:0:0:0:
334,115,18552,6,0,P|286:79|183:79,1,127.50000243187,2|2,1:2|0:0,0:0:0:0:
178,77,19007,1,10,0:0:0:0:
267,250,19234,2,0,L|256:149,1,85.0000016212464,2|0,0:0|1:2,0:0:0:0:
95,99,19689,2,0,P|121:142|189:161,1,85.0000016212464,2|8,1:2|0:0,0:0:0:0:
220,69,20143,1,2,0:0:0:0:
117,12,20371,6,0,P|66:13|16:62,2,85.0000016212464,2|0|8,1:2|0:0|0:0,0:0:0:0:
150,158,21052,1,2,0:0:0:0:
19,105,21280,1,2,1:2:0:0:
185,69,21507,1,0,1:2:0:0:
61,188,21734,1,8,0:0:0:0:
228,249,21961,1,2,0:0:0:0:
228,249,22075,1,2,0:0:0:0:
228,249,22189,5,6,1:2:0:0:
110,120,22416,1,2,0:0:0:0:
274,160,22643,2,0,L|159:173,1,94.9999974632264,10|2,0:0|0:0,0:0:0:0:
340,93,23098,1,2,1:2:0:0:
316,241,23325,1,2,1:2:0:0:
430,99,23552,1,10,0:0:0:0:
274,160,23780,1,2,0:0:0:0:
428,273,24007,6,0,B|469:315|469:315|461:169,1,189.999994926453,2|10,1:2|0:0,0:0:0:0:
340,93,24689,1,0,0:0:0:0:
267,247,24916,2,0,L|387:233,1,94.9999974632264,0|0,1:2|1:2,0:0:0:0:
249,166,25371,1,8,0:0:0:0:
222,313,25598,1,2,0:0:0:0:
222,313,25711,1,2,0:0:0:0:
222,313,25825,6,0,L|102:299,1,94.9999974632264,2|2,1:2|0:0,0:0:0:0:
117,120,26280,1,10,0:0:0:0:
192,225,26507,1,2,0:0:0:0:
26,189,26734,1,2,1:2:0:0:
214,96,26961,2,0,L|197:206,1,94.9999974632264,2|0,1:2|0:0,0:0:0:0:
101,242,27416,1,2,0:0:0:0:
295,172,27643,6,0,P|312:231|298:282,1,94.9999974632264,2|0,1:2|0:0,0:0:0:0:
158,355,28098,2,0,P|200:310|251:297,1,94.9999974632264,10|0,0:0|0:0,0:0:0:0:
378,297,28552,1,2,1:2:0:0:
243,383,28780,1,2,1:2:0:0:
276,220,29007,1,10,0:0:0:0:
348,384,29234,1,2,0:0:0:0:
427,209,29461,6,0,L|417:303,1,94.9999974632264,2|0,1:2|0:0,0:0:0:0:
351,160,29916,1,8,0:0:0:0:
485,132,30143,1,0,0:0:0:0:
304,84,30371,2,0,B|228:90|228:90|224:88|224:88|133:96,1,142.49999619484,2|2,1:2|0:0,0:0:0:0:
116,95,30825,1,10,0:0:0:0:
222,204,31052,1,2,0:0:0:0:
50,246,31280,6,0,L|62:137,1,94.9999974632264,2|0,1:2|0:0,0:0:0:0:
188,222,31734,1,10,0:0:0:0:
127,78,31961,2,0,P|71:50|22:55,1,94.9999974632264,2|0,0:0|1:2,0:0:0:0:
133,171,32416,1,2,1:2:0:0:
201,30,32643,1,10,0:0:0:0:
264,161,32871,1,2,0:0:0:0:
264,161,32984,1,2,0:0:0:0:
264,161,33098,6,0,L|275:276,1,94.9999974632264,2|0,1:2|0:0,0:0:0:0:
108,154,33552,2,0,L|117:59,1,94.9999974632264,10|0,0:0|0:0,0:0:0:0:
295,23,34007,1,0,1:2:0:0:
192,110,34234,1,10,1:2:0:0:
331,143,34461,1,10,0:0:0:0:
197,25,34689,1,2,0:0:0:0:
386,13,34916,6,0,P|409:62|406:111,1,94.9999974632264,2|0,1:2|0:0,0:0:0:0:
455,107,35257,2,0,P|432:156|435:205,1,94.9999974632264,2|0,0:0|0:0,0:0:0:0:
398,227,35598,1,2,1:2:0:0:
451,355,35825,5,10,0:0:0:0:
241,232,36052,1,0,1:2:0:0:
325,384,36280,1,8,0:0:0:0:
375,196,36507,1,2,0:0:0:0:
187,306,36734,6,0,P|111:321|41:288,2,150.000005722046,6|0|0,1:2|1:2|1:2,0:0:0:0:
242,156,37984,5,8,0:0:0:0:
242,156,38098,2,0,P|237:209|252:252,1,75.0000028610231,0|10,1:2|0:0,0:0:0:0:
366,271,38552,5,2,1:2:0:0:
321,196,38780,1,2,0:0:0:0:
283,302,39007,1,2,1:2:0:0:
401,192,39234,2,0,L|389:96,1,75.0000028610231,2|0,0:0|1:2,0:0:0:0:
285,24,39689,1,2,0:0:0:0:
441,45,39916,2,0,L|366:35,1,75.0000028610231,10|2,0:0|0:0,0:0:0:0:
243,112,40371,6,0,L|317:102,1,75.0000028610231,6|2,1:2|0:0,0:0:0:0:
180,58,40825,1,10,0:0:0:0:
176,155,41052,1,2,0:0:0:0:
91,29,41280,6,0,L|100:103,1,75.0000028610231,6|0,1:2|0:0,0:0:0:0:
153,239,41734,1,0,1:2:0:0:
176,155,41961,1,2,0:0:0:0:
81,292,42189,6,0,P|120:320|163:325,2,75.0000028610231,4|0|0,1:2|0:0|1:2,0:0:0:0:
225,283,42871,2,0,P|263:264|393:267,1,150.000005722046,0|8,0:0|0:0,0:0:0:0:
368,258,43439,1,8,0:0:0:0:
368,258,43552,1,8,0:0:0:0:
473,309,43780,1,2,1:2:0:0:
454,128,44007,6,0,L|463:231,1,75.0000028610231,6|0,1:2|0:0,0:0:0:0:
381,85,44461,1,0,1:2:0:0:
471,45,44689,1,2,0:0:0:0:
307,27,44916,2,0,P|290:90|309:152,1,112.500004291535,2|8,1:2|0:0,0:0:0:0:
324,163,45371,1,0,1:2:0:0:
381,85,45598,1,10,0:0:0:0:
391,240,45825,6,0,P|344:263|302:264,2,75.0000028610231,2|2|2,1:2|0:0|1:2,0:0:0:0:
381,85,46507,1,2,0:0:0:0:
324,163,46734,1,2,1:2:0:0:
478,197,46961,2,0,L|464:92,1,75.0000028610231,2|8,0:0|0:0,0:0:0:0:
456,35,47416,1,2,0:0:0:0:
324,163,47643,5,6,1:2:0:0:
377,4,47871,1,2,0:0:0:0:
468,122,48098,1,10,0:0:0:0:
326,78,48325,2,0,L|214:68,1,85.0000016212464,2|0,0:0|1:2,0:0:0:0:
294,240,48780,2,0,P|321:189|319:130,1,85.0000016212464,2|8,0:0|0:0,0:0:0:0:
285,50,49234,1,2,0:0:0:0:
221,179,49461,5,2,1:2:0:0:
388,116,49689,1,2,0:0:0:0:
294,240,49916,1,10,0:0:0:0:
255,94,50143,2,0,L|245:0,1,85.0000016212464,2|0,0:0|1:2,0:0:0:0:
388,116,50598,2,0,L|379:200,1,85.0000016212464,2|8,0:0|0:0,0:0:0:0:
294,266,51052,1,2,0:0:0:0:
507,214,51280,6,0,B|482:78|482:78|474:158,1,189.999994926453,6|8,1:2|0:0,0:0:0:0:
382,263,51961,1,0,0:0:0:0:
275,53,52189,6,0,L|399:69,1,94.9999974632264,6|0,1:2|1:2,0:0:0:0:
240,141,52643,1,8,0:0:0:0:
200,4,52871,1,2,1:2:0:0:
133,201,53098,5,14,0:0:0:0:
275,53,53325,1,0,1:2:0:0:
286,315,53552,5,14,0:0:0:0:
157,101,53780,1,0,1:2:0:0:
84,315,54007,5,6,1:2:0:0:
323,185,54234,1,8,0:0:0:0:
291,187,54347,1,8,0:0:0:0:
259,190,54461,1,8,0:0:0:0:
228,193,54574,1,8,0:0:0:0:
196,196,54688,1,8,2:3:0:0:
165,199,54802,1,8,2:3:0:0:
133,201,54915,5,4,0:0:0:0:
133,201,55825,6,0,L|124:81,1,110.000003356934,6|0,1:2|0:0,0:0:0:0:
281,6,56279,1,8,0:0:0:0:
205,117,56506,1,2,0:0:0:0:
339,211,56734,2,0,L|347:101,1,110.000003356934,2|0,1:2|1:2,0:0:0:0:
236,229,57188,1,8,0:0:0:0:
397,301,57415,1,2,0:0:0:0:
127,374,57643,6,0,B|167:330|167:330|303:346,1,165.000005035401,2|2,1:2|0:0,0:0:0:0:
312,349,58097,1,10,0:0:0:0:
147,145,58325,2,0,L|160:271,1,110.000003356934,2|0,0:0|1:2,0:0:0:0:
219,59,58779,1,2,1:2:0:0:
49,123,59006,1,8,0:0:0:0:
249,199,59234,1,0,0:0:0:0:
60,13,59461,6,0,L|47:139,1,110.000003356934,2|0,1:2|0:0,0:0:0:0:
249,199,59915,1,8,0:0:0:0:
135,66,60143,1,2,0:0:0:0:
41,261,60370,2,0,P|98:284|163:274,1,110.000003356934,2|0,1:2|1:2,0:0:0:0:
233,95,60825,1,8,0:0:0:0:
106,197,61052,1,2,0:0:0:0:
329,284,61279,6,0,L|316:86,1,165.000005035401,2|2,1:2|0:0,0:0:0:0:
315,78,61734,1,8,0:0:0:0:
509,184,61961,2,0,L|380:170,1,110.000003356934,2|0,0:0|1:2,0:0:0:0:
230,106,62415,1,2,1:2:0:0:
415,260,62643,1,8,0:0:0:0:
347,56,62870,1,2,0:0:0:0:
213,199,63097,5,6,1:2:0:0:
420,91,63325,1,0,1:2:0:0:
194,32,63552,1,8,0:0:0:0:
302,247,63779,2,0,L|314:107,1,110.000003356934,0|0,0:0|1:2,0:0:0:0:
134,227,64234,1,0,1:2:0:0:
320,342,64461,1,8,0:0:0:0:
142,324,64688,1,2,0:0:0:0:
302,247,64915,5,2,1:2:0:0:
113,211,65143,1,0,0:0:0:0:
229,361,65370,1,10,0:0:0:0:
296,153,65597,2,0,L|161:168,1,110.000003356934,2|0,1:2|1:2,0:0:0:0:
111,322,66052,1,2,0:0:0:0:
302,247,66279,1,10,0:0:0:0:
229,384,66506,1,2,0:0:0:0:
172,192,66734,5,2,1:2:0:0:
342,253,66961,1,0,1:2:0:0:
151,323,67188,1,8,0:0:0:0:
415,307,67415,2,0,P|433:243|405:183,1,110.000003356934,2|0,0:0|1:2,0:0:0:0:
273,89,67870,1,0,1:2:0:0:
342,253,68097,1,10,0:0:0:0:
460,123,68325,1,2,0:0:0:0:
245,183,68552,5,2,1:2:0:0:
415,307,68779,1,0,0:0:0:0:
376,50,69006,1,8,0:0:0:0:
336,220,69234,2,0,L|445:209,1,110.000003356934,2|0,0:0|1:2,0:0:0:0:
272,110,69688,1,0,1:2:0:0:
230,265,69915,1,10,0:0:0:0:
362,136,70143,1,0,1:2:0:0:
188,137,70370,6,0,L|73:144,1,100,14|0,0:0|0:0,0:0:0:0:
30,281,70825,1,0,1:2:0:0:
150,221,71052,1,0,1:2:0:0:
122,323,71279,1,0,1:2:0:0:
24,193,71506,1,0,1:2:0:0:
47,367,71734,1,0,1:2:0:0:
171,178,71961,1,2,0:0:0:0:
246,354,72188,6,0,B|305:373|373:340|373:340|349:315|309:317,1,200,6|2,1:2|1:2,0:0:0:0:
133,107,72870,1,10,0:0:0:0:
133,107,72984,1,8,0:0:0:0:
133,107,73097,5,0,1:2:0:0:
242,278,73325,1,10,0:0:0:0:
242,278,73438,1,8,0:0:0:0:
242,278,73552,5,0,1:2:0:0:
383,77,73779,1,10,0:0:0:0:
383,77,73893,1,8,0:0:0:0:
383,77,74006,6,0,L|242:89,1,110.000003356934,6|0,1:2|1:2,0:0:0:0:
110,183,74461,1,8,0:0:0:0:
205,8,74688,1,2,0:0:0:0:
244,241,74915,1,2,1:2:0:0:
124,83,75143,1,0,1:2:0:0:
136,313,75370,1,8,0:0:0:0:
281,159,75597,1,2,0:0:0:0:
1,199,75825,6,0,L|125:180,1,110.000003356934,6|0,1:2|1:2,0:0:0:0:
244,241,76279,1,8,0:0:0:0:
124,83,76506,1,2,1:2:0:0:
348,117,76734,1,2,0:0:0:0:
116,189,76961,1,8,0:0:0:0:
116,189,77075,1,8,0:0:0:0:
116,189,77188,1,8,0:0:0:0:
273,157,77415,1,0,1:2:0:0:
171,1,77643,6,0,L|185:120,1,110.000003356934,6|0,1:2|0:0,0:0:0:0:
329,279,78097,2,0,P|377:238|392:176,1,110.000003356934,8|0,0:0|0:0,0:0:0:0:
286,44,78552,1,0,1:2:0:0:
295,188,78779,1,0,1:2:0:0:
379,14,79006,1,8,0:0:0:0:
183,110,79234,1,2,0:0:0:0:
468,176,79461,6,0,L|453:49,1,110.000003356934,2|0,1:2|1:2,0:0:0:0:
295,188,79915,1,8,0:0:0:0:
392,363,80143,2,0,L|407:236,1,110.000003356934,0|0,0:0|1:2,0:0:0:0:
341,91,80597,1,0,1:2:0:0:
229,274,80825,1,8,0:0:0:0:
229,274,81279,6,0,L|215:153,1,110.000003356934,6|0,0:0|0:0,0:0:0:0:
403,44,81734,2,0,L|390:153,1,110.000003356934,8|0,0:0|0:0,0:0:0:0:
229,274,82188,1,0,1:2:0:0:
300,132,82415,1,0,1:2:0:0:
444,334,82643,2,0,P|389:345|305:318,1,110.000003356934,8|2,0:0|0:0,0:0:0:0:
216,164,83097,5,2,1:2:0:0:
385,257,83325,1,0,1:2:0:0:
120,289,83552,2,0,L|248:271,1,110.000003356934,8|0,0:0|1:2,0:0:0:0:
311,166,84006,1,0,1:2:0:0:
99,31,84234,1,8,0:0:0:0:
102,58,84347,1,8,0:0:0:0:
105,85,84461,1,10,0:0:0:0:
109,112,84574,1,8,2:3:0:0:
112,140,84688,1,10,2:3:0:0:
116,167,84802,1,0,2:3:0:0:
119,194,84915,5,10,0:0:0:0:
209,142,85143,1,2,0:0:0:0:
311,166,85370,2,0,L|302:269,1,75.0000028610231,2|2,0:0|0:0,0:0:0:0:
210,293,85825,5,2,0:0:0:0:
300,345,86053,1,2,0:0:0:0:
402,321,86280,2,0,L|393:218,1,75.0000028610231,2|2,0:0|0:0,0:0:0:0:
301,194,86734,5,2,0:0:0:0:
391,142,86962,1,2,0:0:0:0:
493,166,87188,1,2,0:0:0:0:
457,79,87415,6,0,L|451:-8,2,75.0000028610231,2|2|2,0:0|0:0|0:0,0:0:0:0:
493,166,88097,1,2,0:0:0:0:
391,142,88325,1,2,0:0:0:0:
