osu file format v14

[General]
AudioFilename: audio.mp3
AudioLeadIn: 0
PreviewTime: 55825
Countdown: 0
SampleSet: Soft
StackLeniency: 0.4
Mode: 0
LetterboxInBreaks: 0
WidescreenStoryboard: 1

[Editor]
DistanceSpacing: 1
BeatDivisor: 4
GridSize: 4
TimelineZoom: 1

[Metadata]
Title:Aoi Shiori (TV Size)
TitleUnicode:青い栞 (TV Size)
Artist:Galileo Galilei
ArtistUnicode:Galileo Galilei
Creator:Glaceon
Version:Normal
Source:あの日見た花の名前を僕達はまだ知らない。
Tags:Anohana Ano Hi Mita Hana no Namae wo Bokutachi wa Mada Shiranai. Mak Kau Hijau
BeatmapID:1987940
BeatmapSetID:951944

[Difficulty]
HPDrainRate:3
CircleSize:3
OverallDifficulty:3
ApproachRate:4
SliderMultiplier:1.2
SliderTickRate:1

[Events]
//Background and Video events
0,0,"mou ii yo.jpg",0,0
//Break Periods
//Storyboard Layer 0 (Background)
//Storyboard Layer 1 (Fail)
//Storyboard Layer 2 (Pass)
//Storyboard Layer 3 (Foreground)
//Storyboard Sound Samples

[TimingPoints]
-1447,454.545454545455,4,2,22,80,1,0
371,-100,4,2,22,80,0,0
598,-100,4,2,22,45,0,0
4007,-100,4,2,22,80,0,0
4234,-100,4,2,22,45,0,0
7189,-100,4,2,22,60,0,0
7530,-100,4,2,22,5,0,0
7643,-100,4,2,22,70,0,0
22189,-100,4,2,22,80,0,0
36734,-100,4,2,22,70,0,0
47643,-100,4,2,22,75,0,0
51280,-100,4,2,22,85,0,0
54916,-100,4,2,69,85,0,0
55825,454.545454545455,4,2,22,100,1,0
55825,-100,4,2,22,100,0,1
70370,-100,4,2,22,100,0,0
74006,-100,4,2,22,100,0,1
81165,-100,4,2,22,5,0,1
81279,-100,4,2,22,100,0,1
84915,-100,4,2,22,45,0,0
87643,-100,4,2,22,35,0,0
87870,-100,4,2,22,25,0,0
88097,-100,4,2,22,15,0,0
88325,-100,4,2,22,5,0,0

[Colours]
Combo1 : 166,166,255
Combo2 : 244,244,244
Combo3 : 167,171,169
Combo4 : 255,182,147

[HitObjects]
94,338,371,6,0,P|106:281|96:220,1,120,14|2,0:0|0:0,0:0:0:0:
63,178,1053,1,2,0:0:0:0:
63,178,1280,2,0,L|72:48,1,120,2|2,0:0|0:0,0:0:0:0:
186,22,2189,2,0,L|176:145,1,120,2|2,0:0|0:0,0:0:0:0:
209,199,2871,1,2,0:0:0:0:
209,199,3098,2,0,L|272:197,2,60,2|2|2,0:0|0:0|0:0,0:0:0:0:
140,297,4007,6,0,L|269:294,1,120,14|2,0:0|0:0,0:0:0:0:
321,318,4689,1,2,0:0:0:0:
321,318,4916,2,0,P|378:329|442:309,1,120,2|2,0:0|0:0,0:0:0:0:
496,211,5825,2,0,L|489:81,1,120,2|2,0:0|0:0,0:0:0:0:
486,36,6507,1,2,0:0:0:0:
486,36,6734,2,0,L|417:33,1,60,2|2,0:0|0:0,0:0:0:0:
365,30,7189,1,2,0:0:0:0:
266,98,7643,6,0,P|203:107|145:86,2,120,6|10|2,1:2|0:0|1:2,0:0:0:0:
325,126,8780,1,2,1:2:0:0:
325,126,9007,2,0,L|317:195,1,60,10|2,0:0|0:0,0:0:0:0:
274,225,9462,2,0,L|282:345,1,120,2|10,1:2|0:0,0:0:0:0:
169,302,10371,2,0,L|159:174,1,120,0|10,1:2|0:0,0:0:0:0:
125,141,11053,1,2,0:0:0:0:
125,141,11280,6,0,P|116:87|137:20,1,120,2|10,1:2|0:0,0:0:0:0:
177,7,11962,2,0,L|305:18,1,120,2|2,0:0|1:2,0:0:0:0:
400,86,12871,1,2,0:0:0:0:
400,86,13098,2,0,L|385:272,1,180,2|2,1:2|0:0,0:0:0:0:
331,292,14007,2,0,L|336:358,2,60,0|0|8,1:2|1:2|0:0,0:0:0:0:
253,200,14916,6,0,P|197:187|126:203,1,120,2|10,1:2|0:0,0:0:0:0:
94,242,15598,1,2,0:0:0:0:
94,242,15825,2,0,L|96:374,1,120,2|10,1:2|0:0,0:0:0:0:
215,352,16734,2,0,P|270:364|341:348,1,120,2|10,1:2|0:0,0:0:0:0:
440,301,17643,2,0,L|429:165,1,120,0|10,1:2|0:0,0:0:0:0:
415,62,18553,6,0,P|359:49|288:65,1,120,2|10,1:2|0:0,0:0:0:0:
265,111,19234,2,0,L|138:104,1,120,2|2,0:0|1:2,0:0:0:0:
25,97,20143,1,2,0:0:0:0:
25,97,20371,2,0,L|37:284,1,180,2|2,1:2|0:0,0:0:0:0:
90,302,21280,2,0,L|82:381,2,60,2|0|8,1:2|1:2|0:0,0:0:0:0:
163,206,22189,6,0,P|212:194|282:215,1,120,6|10,1:2|0:0,0:0:0:0:
337,242,22871,1,2,0:0:0:0:
337,242,23098,2,0,L|330:167,1,60,2|2,1:2|1:2,0:0:0:0:
324,122,23553,1,10,0:0:0:0:
312,5,24007,2,0,P|371:18|430:5,1,120,2|10,1:2|0:0,0:0:0:0:
491,24,24689,1,0,0:0:0:0:
491,24,24916,2,0,L|486:90,1,60,0|0,1:2|1:2,0:0:0:0:
481,143,25371,1,8,0:0:0:0:
389,219,25825,6,0,L|398:351,2,120,2|10|2,1:2|0:0|1:2,0:0:0:0:
385,158,26962,2,0,P|333:145|268:160,1,120,2|2,1:2|0:0,0:0:0:0:
231,206,27643,2,0,L|106:196,1,120,2|10,1:2|0:0,0:0:0:0:
62,307,28553,2,0,L|127:313,1,60,2|2,1:2|1:2,0:0:0:0:
168,349,29007,2,0,L|227:342,1,60,10|2,0:0|0:0,0:0:0:0:
266,296,29462,6,0,P|319:285|391:306,1,120,2|8,1:2|0:0,0:0:0:0:
445,315,30143,1,0,0:0:0:0:
445,315,30371,2,0,L|436:187,1,120,2|10,1:2|0:0,0:0:0:0:
422,75,31280,2,0,P|368:85|296:64,1,120,2|10,1:2|0:0,0:0:0:0:
248,51,31962,2,0,L|254:177,1,120,2|2,0:0|1:2,0:0:0:0:
254,230,32643,1,10,0:0:0:0:
134,243,33098,6,0,P|117:314|134:384,2,120,2|10|0,1:2|0:0|1:2,0:0:0:0:
174,199,34234,1,10,1:2:0:0:
174,199,34462,2,0,L|168:125,1,60,10|2,0:0|0:0,0:0:0:0:
169,79,34916,2,0,L|265:71,2,90,2|2|2,1:2|0:0|1:2,0:0:0:0:
124,38,35825,1,10,0:0:0:0:
20,98,36280,1,8,0:0:0:0:
64,209,36734,6,0,L|68:339,2,120,6|0|0,1:2|1:2|1:2,0:0:0:0:
157,134,38098,1,0,1:2:0:0:
239,220,38553,2,0,P|288:230|357:211,1,120,2|2,1:2|1:2,0:0:0:0:
408,187,39234,2,0,L|400:63,1,120,2|2,0:0|0:0,0:0:0:0:
396,7,39916,1,10,0:0:0:0:
505,55,40371,6,0,L|512:179,1,120,6|10,1:2|0:0,0:0:0:0:
509,294,41280,2,0,P|453:307|391:287,1,120,6|0,1:2|1:2,0:0:0:0:
312,195,42189,2,0,P|241:177|179:198,1,120,4|0,1:2|1:2,0:0:0:0:
138,204,42871,2,0,L|144:76,1,120,0|8,0:0|0:0,0:0:0:0:
147,24,43553,1,8,0:0:0:0:
29,45,44007,6,0,L|19:175,1,120,6|0,1:2|1:2,0:0:0:0:
6,284,44916,2,0,P|61:303|125:285,1,120,2|0,1:2|1:2,0:0:0:0:
221,224,45825,2,0,L|226:96,1,120,2|2,1:2|1:2,0:0:0:0:
227,43,46507,2,0,P|284:32|349:51,1,120,2|2,0:0|0:0,0:0:0:0:
385,89,47189,1,8,0:0:0:0:
454,186,47643,6,0,L|449:310,1,120,6|10,1:2|0:0,0:0:0:0:
445,352,48325,2,0,P|382:363|325:343,1,120,2|2,0:0|0:0,0:0:0:0:
288,302,49007,1,8,0:0:0:0:
176,345,49462,2,0,L|182:215,1,120,2|10,1:2|0:0,0:0:0:0:
185,165,50143,1,2,0:0:0:0:
187,45,50598,2,0,P|132:30|64:44,1,120,2|2,0:0|0:0,0:0:0:0:
32,86,51280,6,0,L|34:209,1,120,6|8,1:2|0:0,0:0:0:0:
35,326,52189,2,0,P|94:343|152:329,1,120,6|8,1:2|0:0,0:0:0:0:
236,246,53098,2,0,L|231:116,1,120,14|14,0:0|0:0,0:0:0:0:
285,18,54007,1,6,1:2:0:0:
285,18,54234,2,0,L|348:21,2,60,8|8|8,0:0|0:0|2:3,0:0:0:0:
228,13,54916,5,4,0:0:0:0:
228,13,55825,6,0,L|96:4,1,120,6|8,1:2|0:0,0:0:0:0:
46,107,56734,2,0,L|166:113,1,120,2|8,1:2|0:0,0:0:0:0:
248,200,57643,2,0,P|257:256|240:318,1,120,2|10,1:2|0:0,0:0:0:0:
214,370,58325,2,0,L|342:365,1,120,2|2,0:0|1:2,0:0:0:0:
393,364,59006,1,8,0:0:0:0:
479,280,59461,6,0,P|469:223|486:161,1,120,2|8,1:2|0:0,0:0:0:0:
502,45,60370,2,0,L|380:50,1,120,2|8,1:2|0:0,0:0:0:0:
346,164,61279,2,0,P|289:173|227:156,1,120,2|8,1:2|0:0,0:0:0:0:
182,119,61961,2,0,L|63:126,1,120,2|2,0:0|1:2,0:0:0:0:
2,126,62643,1,8,0:0:0:0:
32,10,63097,6,0,L|162:4,1,120,6|8,1:2|0:0,0:0:0:0:
204,33,63779,2,0,P|258:42|324:25,1,120,0|0,0:0|1:2,0:0:0:0:
377,7,64461,2,0,L|445:11,1,60,8|2,0:0|0:0,0:0:0:0:
496,17,64915,2,0,L|504:153,1,120,2|10,1:2|0:0,0:0:0:0:
506,196,65597,1,2,1:2:0:0:
394,241,66052,1,2,0:0:0:0:
394,241,66279,2,0,L|399:308,1,60,10|2,0:0|0:0,0:0:0:0:
401,360,66734,6,0,P|354:372|280:353,1,120,2|8,1:2|0:0,0:0:0:0:
260,301,67415,2,0,L|255:174,1,120,2|0,0:0|1:2,0:0:0:0:
303,144,68097,2,0,L|298:71,1,60,10|2,0:0|0:0,0:0:0:0:
295,24,68552,2,0,P|243:11|177:24,1,120,2|8,1:2|0:0,0:0:0:0:
145,73,69234,2,0,L|146:193,1,120,2|0,0:0|1:2,0:0:0:0:
147,252,69915,1,10,0:0:0:0:
37,273,70370,6,0,L|34:150,1,120,14|0,0:0|1:2,0:0:0:0:
35,32,71279,2,0,P|92:18|160:38,1,120,0|0,1:2|1:2,0:0:0:0:
200,75,71961,1,2,0:0:0:0:
200,75,72188,2,0,L|326:72,1,120,6|2,1:2|1:2,0:0:0:0:
380,73,72870,1,10,0:0:0:0:
451,170,73325,2,0,L|446:238,1,60,10|0,0:0|1:2,0:0:0:0:
439,293,73779,1,10,0:0:0:0:
439,293,74006,6,0,P|379:307|313:284,1,120,6|8,1:2|0:0,0:0:0:0:
283,178,74915,2,0,P|228:165|164:182,1,120,2|8,1:2|0:0,0:0:0:0:
115,206,75597,1,2,0:0:0:0:
115,206,75825,2,0,L|122:79,1,120,6|8,1:2|0:0,0:0:0:0:
29,8,76734,2,0,L|24:72,1,60,2|8,0:0|0:0,0:0:0:0:
16,127,77188,1,8,0:0:0:0:
4,246,77643,6,0,P|58:263|129:244,1,120,6|8,1:2|0:0,0:0:0:0:
211,174,78552,2,0,P|268:160|334:178,1,120,0|8,1:2|0:0,0:0:0:0:
438,217,79461,2,0,L|430:96,1,120,2|8,1:2|0:0,0:0:0:0:
315,60,80370,2,0,L|319:0,2,60,0|0|8,1:2|1:2|0:0,0:0:0:0:
216,129,81279,6,0,P|201:181|214:249,1,120,6|8,0:0|0:0,0:0:0:0:
262,353,82188,2,0,L|128:348,1,120,0|8,1:2|0:0,0:0:0:0:
92,240,83097,2,0,L|221:245,1,120,2|8,1:2|0:0,0:0:0:0:
276,249,83779,1,0,1:2:0:0:
276,249,84006,2,0,L|268:178,1,60,0|8,1:2|0:0,0:0:0:0:
229,144,84461,2,0,L|236:73,1,60,10|10,0:0|2:3,0:0:0:0:
242,24,84915,5,10,0:0:0:0:
256,192,85143,12,2,88325,0:0:0:0:
