osu file format v14

[General]
AudioFilename: audio.mp3
AudioLeadIn: 0
PreviewTime: 55712
Countdown: 0
SampleSet: Normal
StackLeniency: 0
Mode: 1
LetterboxInBreaks: 0
WidescreenStoryboard: 1

[Editor]
Bookmarks: 372,7644,22190,36735
DistanceSpacing: 1.9
BeatDivisor: 4
GridSize: 8
TimelineZoom: 1.6

[Metadata]
Title:Aoi Shiori (TV Size)
TitleUnicode:青い栞 (TV Size)
Artist:Galileo Galilei
ArtistUnicode:Galileo Galilei
Creator:Froskya
Version:Kantan
Source:あの日見た花の名前を僕達はまだ知らない。
Tags:Anohana Ano Hi Mita Hana no Namae wo Bokutachi wa Mada Shiranai Hokichi The Flower We Saw That Day opening op blue bookmark ガリレオガリレイ anime Japanese pop jpop j-pop male vocals vocal vocalist revialink tachibana_
BeatmapID:3605665
BeatmapSetID:1758878

[Difficulty]
HPDrainRate:8.5
CircleSize:2
OverallDifficulty:2.5
ApproachRate:10
SliderMultiplier:1.4
SliderTickRate:1

[Events]
//Background and Video events
0,0,"nostalgy.jpg",0,0
Video,-175,"tears.mp4"
//Break Periods
//Storyboard Layer 0 (Background)
//Storyboard Layer 1 (Fail)
//Storyboard Layer 2 (Pass)
//Storyboard Layer 3 (Foreground)
//Storyboard Layer 4 (Overlay)
//Storyboard Sound Samples

[TimingPoints]
372,454.545454545455,4,1,0,40,1,0
7644,-100,4,1,0,60,0,0
36735,-100,4,1,0,55,0,0
51281,-100,4,1,0,60,0,0
53099,-100,4,1,0,65,0,0
54462,-100,4,1,0,70,0,0
54917,-100,4,1,0,75,0,0
55826,454.545454545455,4,1,0,85,1,1
55826,-100,4,1,0,85,0,1
70371,-100,4,1,0,75,0,0
74007,-100,4,1,0,85,0,1
77644,-100,4,1,0,80,0,1
84916,-100,4,1,0,40,0,0
87416,-100,4,1,0,30,0,0
87644,-100,4,1,0,20,0,0
87871,-100,4,1,0,10,0,0
88098,-100,4,1,0,5,0,0

[HitObjects]
256,192,372,5,4,0:0:0:0:
256,192,1281,1,8,0:0:0:0:
256,192,2190,1,0,0:0:0:0:
256,192,4008,5,4,0:0:0:0:
256,192,4917,1,8,0:0:0:0:
256,192,5826,1,0,0:0:0:0:
256,192,7644,5,12,0:0:0:0:
259,189,8099,1,0,0:0:0:0:
256,192,8553,1,8,0:0:0:0:
256,187,9008,1,0,0:0:0:0:
256,192,9462,1,8,0:0:0:0:
256,192,9917,1,8,0:0:0:0:
256,192,11281,5,8,0:0:0:0:
257,193,11962,1,0,0:0:0:0:
256,192,12417,1,8,0:0:0:0:
256,192,13099,1,0,0:0:0:0:
255,191,13781,1,8,0:0:0:0:
256,192,14917,1,8,0:0:0:0:
256,192,15372,1,0,0:0:0:0:
256,192,15826,1,8,0:0:0:0:
256,192,16281,1,0,0:0:0:0:
256,192,16735,1,8,0:0:0:0:
256,192,17190,1,8,0:0:0:0:
256,192,18554,5,8,0:0:0:0:
256,192,19235,1,0,0:0:0:0:
256,192,19690,1,0,0:0:0:0:
256,192,20372,1,8,0:0:0:0:
259,189,21281,1,0,0:0:0:0:
256,192,22190,1,12,0:0:0:0:
256,192,22644,1,0,0:0:0:0:
256,192,23099,1,8,0:0:0:0:
256,192,23553,1,0,0:0:0:0:
256,192,24008,1,8,0:0:0:0:
256,192,24462,1,8,0:0:0:0:
256,192,25826,5,8,0:0:0:0:
256,192,26281,1,0,0:0:0:0:
256,192,26735,1,8,0:0:0:0:
256,192,27644,1,8,0:0:0:0:
256,192,28099,1,8,0:0:0:0:
256,192,28553,1,0,0:0:0:0:
256,192,29008,1,0,0:0:0:0:
256,192,29462,1,8,0:0:0:0:
256,192,30372,1,0,0:0:0:0:
256,192,30826,1,0,0:0:0:0:
256,192,31281,1,8,0:0:0:0:
256,192,31962,1,0,0:0:0:0:
256,192,32644,1,8,0:0:0:0:
256,192,34462,5,0,0:0:0:0:
256,192,34917,1,8,0:0:0:0:
256,192,35826,1,8,0:0:0:0:
256,192,36281,1,8,0:0:0:0:
256,192,36735,1,12,0:0:0:0:
256,192,38553,5,8,0:0:0:0:
256,192,39235,1,8,0:0:0:0:
256,192,39917,1,0,0:0:0:0:
256,192,40372,1,12,0:0:0:0:
256,192,41281,1,4,0:0:0:0:
256,192,42190,1,12,0:0:0:0:
256,192,44008,5,12,0:0:0:0:
256,192,44917,1,0,0:0:0:0:
256,192,45826,1,8,0:0:0:0:
256,192,46508,1,0,0:0:0:0:
256,192,46962,1,8,0:0:0:0:
256,192,47644,1,12,0:0:0:0:
256,192,48326,1,0,0:0:0:0:
256,192,48781,1,8,0:0:0:0:
256,192,49462,1,0,0:0:0:0:
256,192,50144,1,8,0:0:0:0:
256,192,51281,5,12,0:0:0:0:
256,192,52190,1,12,0:0:0:0:
256,192,53099,1,12,0:0:0:0:
256,192,53553,1,4,0:0:0:0:
256,192,54008,1,12,0:0:0:0:
256,192,54462,1,8,0:0:0:0:
256,192,55826,5,12,0:0:0:0:
256,192,56280,1,8,0:0:0:0:
256,192,56735,1,0,0:0:0:0:
255,192,57189,1,0,0:0:0:0:
256,192,57644,1,8,0:0:0:0:
256,192,58326,1,0,0:0:0:0:
256,192,58780,1,8,0:0:0:0:
256,192,59462,1,8,0:0:0:0:
256,192,59916,1,8,0:0:0:0:
256,192,60371,1,0,0:0:0:0:
255,192,60826,1,0,0:0:0:0:
256,192,61280,1,8,0:0:0:0:
259,192,61962,1,0,0:0:0:0:
259,192,62416,1,8,0:0:0:0:
256,192,63098,1,12,0:0:0:0:
256,192,64916,5,8,0:0:0:0:
256,192,65598,1,8,0:0:0:0:
256,192,66280,1,0,0:0:0:0:
256,192,66735,1,8,0:0:0:0:
256,192,67416,1,0,0:0:0:0:
256,192,68098,1,0,0:0:0:0:
256,192,68553,1,8,0:0:0:0:
256,192,69235,1,8,0:0:0:0:
256,192,69916,1,8,0:0:0:0:
256,192,70371,1,12,0:0:0:0:
256,192,72189,5,12,0:0:0:0:
256,192,72871,1,0,0:0:0:0:
256,192,73326,1,8,0:0:0:0:
256,192,74007,1,12,0:0:0:0:
259,193,74462,1,8,0:0:0:0:
256,192,74916,1,0,0:0:0:0:
256,192,75826,1,12,0:0:0:0:
259,193,76280,1,8,0:0:0:0:
256,192,76735,1,0,0:0:0:0:
259,193,77189,1,0,0:0:0:0:
256,192,77644,1,12,0:0:0:0:
256,192,79007,5,8,0:0:0:0:
256,192,79462,1,0,0:0:0:0:
256,192,79916,1,8,0:0:0:0:
256,192,80826,1,8,0:0:0:0:
256,192,81280,1,12,0:0:0:0:
258,193,81735,1,0,0:0:0:0:
256,192,82644,1,8,0:0:0:0:
256,192,83098,1,0,0:0:0:0:
256,192,83553,1,8,0:0:0:0:
256,192,84462,1,8,0:0:0:0:
256,192,84916,1,4,0:0:0:0:
256,192,85826,1,8,0:0:0:0:
256,192,86735,1,0,0:0:0:0:
256,200,87416,1,8,0:0:0:0:
