osu file format v14

[General]
AudioFilename: audio.mp3
AudioLeadIn: 0
PreviewTime: 55599
Countdown: 0
SampleSet: Soft
StackLeniency: 0.7
Mode: 0
LetterboxInBreaks: 0
WidescreenStoryboard: 1

[Editor]
Bookmarks: 372,7644,36735,55826,64462,70372,74008,77644,84917
DistanceSpacing: 0.9
BeatDivisor: 4
GridSize: 8
TimelineZoom: 1.5

[Metadata]
Title:Aoi Shiori (TV Size)
TitleUnicode:青い栞 (TV Size)
Artist:Galileo Galilei
ArtistUnicode:Galileo Galilei
Creator:Chompy
Version:Normal
Source:あの日見た花の名前を僕達はまだ知らない。
Tags:Anohana Ano Hi Mita Hana no Namae wo Bokutachi wa Mada Shiranai Hokichi The Flower We Saw That Day opening op blue bookmark ガリレオガリレイ anime Japanese male vocals Zer0-G Player0 Gero
BeatmapID:2461209
BeatmapSetID:1180303

[Difficulty]
HPDrainRate:3
CircleSize:3.5
OverallDifficulty:4
ApproachRate:5
SliderMultiplier:1.3
SliderTickRate:1

[Events]
//Background and Video events
0,0,"meiko sunflowers.jpg",0,0
//Break Periods
//Storyboard Layer 0 (Background)
//Storyboard Layer 1 (Fail)
//Storyboard Layer 2 (Pass)
//Storyboard Layer 3 (Foreground)
Sprite,Foreground,Centre,"sb\f\label\_000.png",321,221 F,0,7190,,0,1 S,0,7190,,0.2 F,0,7644,8098,1,0
Sprite,Foreground,Centre,"sb\f\mapper\_000.png",321,255 F,0,7190,,0,1 S,0,7190,,0.2 F,0,7644,8098,1,0
//Storyboard Layer 4 (Overlay)
//Storyboard Sound Samples

[TimingPoints]
372,454.545454545455,4,2,2,35,1,0
372,-100,4,2,2,35,0,0
7644,-100,4,2,1,55,0,0
54917,-100,4,2,3,75,0,0
55826,454.545454545455,4,2,1,65,1,1
55826,-90.9090909090909,4,2,1,65,0,1
71053,-90.9090909090909,4,3,6,65,0,1
71735,-90.9090909090909,4,2,1,65,0,1
71962,-90.9090909090909,4,2,1,65,0,1
72190,-90.9090909090909,4,2,1,65,0,1
73326,-90.9090909090909,4,2,5,65,0,1
73781,-90.9090909090909,4,2,1,65,0,1
84576,-90.9090909090909,4,3,5,65,0,1
84690,-90.9090909090909,4,3,4,65,0,1
84803,-90.9090909090909,4,3,6,65,0,1
84916,-100,4,2,2,35,0,0
87644,-100,4,2,2,30,0,0
87872,-100,4,2,2,25,0,0
88099,-100,4,2,2,20,0,0
88326,-100,4,2,2,5,0,0

[Colours]
Combo1 : 170,255,200
Combo2 : 194,240,132
Combo3 : 251,228,153

[HitObjects]
86,57,372,6,0,L|11:42,2,65,2|0|2,3:0|0:0|0:0,0:0:0:0:
165,143,1281,2,0,L|240:128,2,65,10|0|2,0:0|0:0|0:0,0:0:0:0:
95,237,2190,2,0,L|20:222,2,65,10|0|2,0:0|0:0|0:0,0:0:0:0:
184,312,3099,2,0,P|218:292|263:307,1,65,10|2,0:0|0:0,0:0:0:0:
287,331,3553,1,2,0:0:0:0:
402,310,4008,6,0,L|477:295,2,65,2|0|2,3:0|0:0|0:0,0:0:0:0:
328,218,4917,2,0,L|253:203,2,65,10|0|2,0:0|0:0|0:0,0:0:0:0:
409,133,5826,2,0,L|484:118,2,65,10|0|2,0:0|0:0|0:0,0:0:0:0:
304,81,6735,2,0,P|331:38|367:33,1,65,10|2,0:0|0:0,0:0:0:0:
400,36,7189,1,2,0:0:0:0:
463,134,7644,6,0,B|446:170|461:195|470:193|488:217|471:260,1,130,6|10,3:2|0:2,0:0:0:0:
441,309,8326,1,2,0:2:0:0:
441,309,8553,2,0,P|402:294|363:299,1,65,2|2,3:2|3:2,0:0:0:0:
336,335,9008,1,10,0:2:0:0:
230,284,9462,2,0,L|222:148,1,130,2|10,3:2|0:2,0:0:0:0:
235,37,10372,2,0,P|275:22|303:31,1,65,0|0,3:2|3:2,0:0:0:0:
335,69,10826,2,0,P|375:84|403:75,1,65,10|2,0:2|0:2,0:0:0:0:
452,63,11281,6,0,L|460:-9,2,65,2|2|10,3:2|0:2|0:2,0:0:0:0:
483,112,11962,1,2,0:2:0:0:
377,162,12417,2,0,B|360:198|375:223|384:221|402:245|385:288,1,130,2|2,3:2|0:2,0:0:0:0:
356,336,13099,2,0,P|296:289|248:305,1,130,2|8,3:2|0:2,0:0:0:0:
229,359,13781,1,2,0:2:0:0:
229,359,14008,2,0,B|194:381|194:381|104:356,1,130,0|8,3:2|0:2,0:0:0:0:
67,247,14917,6,0,L|53:113,1,130,2|10,3:2|0:2,0:0:0:0:
83,69,15599,1,2,0:2:0:0:
83,69,15826,2,0,P|142:49|195:89,1,130,2|10,3:2|0:2,0:0:0:0:
237,194,16735,2,0,B|270:218|304:200|294:192|322:169|362:190,1,130,2|10,3:2|0:2,0:0:0:0:
473,161,17644,2,0,P|488:133|485:101,1,65,0|0,3:2|3:2,0:0:0:0:
453,51,18099,2,0,L|375:40,1,65,10|2,0:2|0:2,0:0:0:0:
344,4,18553,6,0,L|211:25,1,130,2|8,3:2|0:2,0:0:0:0:
159,5,19235,1,2,0:2:0:0:
107,109,19690,1,2,3:2:0:0:
214,166,20144,1,2,0:2:0:0:
214,166,20372,2,0,B|235:203|235:203|212:299,1,130,2|8,3:2|0:2,0:0:0:0:
178,334,21053,1,2,0:2:0:0:
178,334,21281,2,0,P|128:366|76:324,1,130,2|8,3:2|0:2,0:0:0:0:
93,212,22190,6,0,L|74:73,2,130,6|10|2,3:2|0:2|3:2,0:0:0:0:
152,233,23326,1,2,3:2:0:0:
152,233,23553,2,0,P|194:228|214:200,1,65,10|2,0:2|0:2,0:0:0:0:
242,164,24008,2,0,B|275:140|309:158|299:166|333:189|368:159,2,130,2|10|0,3:2|0:2|3:2,0:0:0:0:
186,267,25372,1,8,0:2:0:0:
267,351,25826,6,0,P|327:365|375:325,1,130,2|10,3:2|0:2,0:0:0:0:
427,296,26508,1,2,0:2:0:0:
427,296,26735,2,0,L|431:220,1,65,2|2,3:2|3:2,0:0:0:0:
434,117,27417,1,2,0:2:0:0:
434,117,27644,2,0,B|403:138|403:138|313:115,1,130,2|10,3:2|0:2,0:0:0:0:
202,80,28553,2,0,P|191:110|201:142,1,65,2|2,3:2|3:2,0:0:0:0:
234,188,29008,2,0,P|244:218|234:250,1,65,10|2,0:2|0:2,0:0:0:0:
195,292,29462,5,2,3:2:0:0:
296,352,29917,1,8,0:2:0:0:
348,247,30372,2,0,L|477:232,1,130,2|8,3:2|0:2,0:0:0:0:
506,183,31053,1,2,0:2:0:0:
506,183,31281,2,0,P|524:123|488:72,1,130,2|10,3:2|0:2,0:0:0:0:
430,60,31962,1,2,0:2:0:0:
318,83,32417,1,2,3:2:0:0:
318,83,32644,2,0,P|277:78|256:57,1,65,8|0,0:2|0:2,0:0:0:0:
204,43,33099,6,0,B|178:69|178:69|188:165,1,130,0|8,3:2|0:2,0:0:0:0:
171,279,34008,2,0,P|208:284|237:267,1,65,0|2,3:2|3:2,0:0:0:0:
268,226,34462,1,10,0:2:0:0:
321,330,34917,6,0,B|354:306|388:324|378:332|406:355|446:334,1,130,2|8,3:2|0:2,0:0:0:0:
476,287,35599,1,2,3:2:0:0:
445,237,35826,2,0,L|452:152,2,65,10|0|8,0:2|3:2|0:2,0:0:0:0:
350,167,36735,6,0,B|306:152|306:152|215:177,2,130,6|0|0,3:2|3:2|3:2,0:0:0:0:
333,51,38099,2,0,P|308:30|276:29,1,65,0|10,3:2|0:2,0:0:0:0:
232,66,38553,2,0,P|171:83|120:48,1,130,2|2,3:2|3:2,0:0:0:0:
64,28,39235,2,0,B|35:57|35:57|45:146,1,130,2|2,0:2|0:2,0:0:0:0:
54,203,39917,1,10,3:2:0:0:
54,320,40372,6,0,P|85:324|113:308,1,65,6|2,3:2|0:2,0:0:0:0:
139,255,40826,1,10,3:2:0:0:
255,270,41281,2,0,L|241:386,2,97.5,6|2|2,3:2|0:2|0:2,0:0:0:0:
304,237,42190,6,0,B|396:254|396:254|428:234,1,130,4|0,3:2|3:2,0:0:0:0:
459,122,43099,2,0,L|467:42,2,65,0|8|8,3:2|0:2|0:2,0:0:0:0:
350,78,44008,6,0,B|317:54|283:72|293:80|259:103|224:73,2,130,6|0|2,3:2|3:2|3:2,0:0:0:0:
442,149,45372,2,0,P|449:189|433:226,1,65,0|10,3:2|0:2,0:0:0:0:
396,248,45826,1,2,3:2:0:0:
298,183,46281,2,0,P|266:188|234:181,1,65,2|2,3:2|0:2,0:0:0:0:
181,171,46735,1,2,3:2:0:0:
181,171,46962,2,0,P|146:224|161:285,1,130,2|2,0:2|0:2,0:0:0:0:
191,335,47644,6,0,B|279:339|279:339|307:306,1,130,6|10,3:2|0:2,0:0:0:0:
375,213,48553,2,0,P|394:237|394:268,2,65,0|2|8,3:2|3:2|0:2,0:0:0:0:
257,210,49462,2,0,L|108:197,1,130,2|10,3:2|0:2,0:0:0:0:
29,134,50372,2,0,L|26:67,1,65,0|2,3:2|3:2,0:0:0:0:
67,27,50826,1,8,0:2:0:0:
154,104,51281,6,0,B|188:126|222:108|212:100|246:80|284:103,1,130,6|8,3:2|0:2,0:0:0:0:
368,173,52190,2,0,P|386:117|462:107,1,130,6|8,3:2|0:2,0:0:0:0:
501,140,52872,1,2,3:2:0:0:
501,140,53099,1,14,0:2:0:0:
433,235,53553,1,14,0:2:0:0:
509,325,54008,2,0,L|442:339,1,65,6|8,3:2|0:2,0:0:0:0:
398,373,54462,2,0,L|330:362,1,65,10|10,0:2|0:2,0:0:0:0:
319,305,54917,1,2,0:0:0:0:
88,191,55826,6,0,L|74:85,2,107.25000327301,6|2|2,3:2|0:2|0:2,0:0:0:0:
130,239,56735,2,0,P|191:250|239:190,1,143.000004364014,2|8,3:2|0:2,0:0:0:0:
366,175,57644,2,0,P|367:140|345:113,1,71.5000021820069,2|0,3:2|3:2,0:0:0:0:
293,83,58099,1,10,0:2:0:0:
293,83,58326,2,0,B|257:99|257:99|147:67,1,143.000004364014,2|2,0:2|3:2,0:0:0:0:
134,9,59008,1,8,0:2:0:0:
41,97,59462,6,0,P|6:53|16:7,2,107.25000327301,2|2|2,3:2|0:2|0:2,0:0:0:0:
97,129,60372,2,0,B|115:167|98:199|89:192|70:218|88:265,1,143.000004364014,2|8,3:2|0:2,0:0:0:0:
137,316,61053,1,2,0:2:0:0:
137,316,61281,2,0,L|281:299,1,143.000004364014,2|10,3:2|0:2,0:0:0:0:
337,328,61962,2,0,P|397:323|419:251,1,143.000004364014,2|2,0:2|3:2,0:0:0:0:
501,153,62872,1,2,0:2:0:0:
501,153,63099,6,0,B|515:55|515:55|483:23,1,143.000004364014,6|8,3:2|0:2,0:0:0:0:
355,36,64008,2,0,P|321:63|282:56,1,71.5000021820069,0|0,3:2|3:2,0:0:0:0:
240,27,64462,2,0,P|200:10|164:28,1,71.5000021820069,8|2,0:2|0:2,0:0:0:0:
115,42,64917,2,0,P|96:99|120:176,1,143.000004364014,2|10,3:2|0:2,0:0:0:0:
184,175,65599,1,2,0:2:0:0:
252,283,66053,2,0,L|239:370,1,71.5000021820069,2|10,3:2|0:2,0:0:0:0:
181,364,66508,1,2,0:2:0:0:
181,364,66735,6,0,B|146:338|110:357|121:366|85:390|48:358,2,143.000004364014,2|8|0,3:2|0:2|3:2,0:0:0:0:
309,368,68099,2,0,P|302:318|325:289,1,71.5000021820069,10|2,0:2|0:2,0:0:0:0:
360,259,68553,2,0,B|454:269|454:269|483:227,2,143.000004364014,2|8|0,3:2|0:2|3:2,0:0:0:0:
267,168,69917,1,10,0:2:0:0:
334,58,70372,5,14,0:2:0:0:
210,23,70826,2,0,P|168:11|138:33,1,71.5000021820069,0|8,3:2|3:0,0:0:0:0:
107,75,71281,2,0,P|65:87|36:64,1,71.5000021820069,8|8,3:0|3:0,0:0:0:0:
0,25,71735,1,8,3:0:0:0:
9,152,72190,6,0,L|17:303,1,143.000004364014,6|2,3:2|3:2,0:0:0:0:
65,336,72872,1,10,0:2:0:0:
111,291,73099,2,0,L|189:281,1,71.5000021820069,8|10,3:2|3:0,0:0:0:0:
231,323,73553,2,0,L|308:330,1,71.5000021820069,8|10,3:0|0:2,0:0:0:0:
350,286,74008,6,0,B|384:260|420:279|409:288|445:312|482:280,1,143.000004364014,6|8,3:2|0:2,0:0:0:0:
508,154,74917,2,0,L|512:56,2,71.5000021820069,2|0|8,3:2|3:2|0:2,0:0:0:0:
397,87,75826,2,0,L|391:230,1,143.000004364014,6|8,3:2|0:2,0:0:0:0:
441,348,76735,2,0,P|399:362|365:351,1,71.5000021820069,2|0,3:2|3:2,0:0:0:0:
324,313,77190,1,8,0:2:0:0:
216,242,77644,6,0,L|77:278,1,143.000004364014,6|8,3:2|0:2,0:0:0:0:
144,167,78553,2,0,L|216:149,1,71.5000021820069,0|0,3:2|3:2,0:0:0:0:
276,135,79008,1,8,0:2:0:0:
397,177,79462,2,0,B|376:143|390:106|399:117|418:75|388:39,1,143.000004364014,2|8,3:2|0:2,0:0:0:0:
261,25,80372,2,0,P|230:56|195:54,1,71.5000021820069,0|0,3:2|3:2,0:0:0:0:
146,28,80826,1,8,0:2:0:0:
75,135,81281,6,0,L|0:122,2,71.5000021820069,6|0|8,3:2|0:2|0:2,0:0:0:0:
168,223,82189,2,0,L|243:210,2,71.5000021820069,0|0|8,3:2|3:2|0:2,0:0:0:0:
50,278,83099,2,0,P|41:320|69:363,1,71.5000021820069,2|0,3:2|3:2,0:0:0:0:
107,375,83553,1,8,0:2:0:0:
192,278,84008,2,0,L|280:264,1,71.5000021820069,0|8,3:2|0:2,0:0:0:0:
307,220,84462,2,0,L|394:235,1,71.5000021820069,10|10,0:2|0:0,0:0:0:0:
397,287,84917,1,2,3:0:0:0:
256,192,85031,12,0,88326,0:0:0:0:
