osu file format v14

[General]
AudioFilename: audio.mp3
AudioLeadIn: 0
PreviewTime: 55599
Countdown: 0
SampleSet: Soft
StackLeniency: 0.5
Mode: 0
LetterboxInBreaks: 0
WidescreenStoryboard: 1

[Editor]
Bookmarks: 372,88326
DistanceSpacing: 1
BeatDivisor: 4
GridSize: 4
TimelineZoom: 1.5

[Metadata]
Title:Aoi Shiori (TV Size)
TitleUnicode:青い栞 (TV Size)
Artist:Galileo Galilei
ArtistUnicode:Galileo Galilei
Creator:Chompy
Version:Gero's Hyper
Source:あの日見た花の名前を僕達はまだ知らない。
Tags:Anohana Ano Hi Mita Hana no Namae wo Bokutachi wa Mada Shiranai Hokichi The Flower We Saw That Day opening op blue bookmark ガリレオガリレイ anime Japanese male vocals Zer0-G Player0 Gero
BeatmapID:2464145
BeatmapSetID:1180303

[Difficulty]
HPDrainRate:4.5
CircleSize:4
OverallDifficulty:7
ApproachRate:8
SliderMultiplier:1.6
SliderTickRate:1

[Events]
//Background and Video events
0,0,"meiko sunflowers.jpg",0,0
//Break Periods
//Storyboard Layer 0 (Background)
//Storyboard Layer 1 (Fail)
//Storyboard Layer 2 (Pass)
//Storyboard Layer 3 (Foreground)
Sprite,Foreground,Centre,"sb\f\gder\_000.png",320.6172,250.7172 F,0,7190,,0,1 S,0,7190,,0.2 F,0,7644,8098,1,0
Sprite,Foreground,Centre,"sb\f\label3\_000.png",320.2172,220.7172 F,0,7190,,0,1 S,0,7190,,0.2 F,0,7644,8098,1,0
//Storyboard Layer 4 (Overlay)
//Storyboard Sound Samples

[TimingPoints]
372,454.545454545455,4,2,2,35,1,0
372,-100,4,2,2,35,0,0
2872,-100,4,2,2,35,0,0
4008,-100,4,2,2,35,0,0
6508,-100,4,2,2,35,0,0
7644,-100,4,2,1,55,0,0
36735,-100,4,2,1,55,0,0
44008,-100,4,2,1,55,0,0
51281,-100,4,2,1,55,0,0
54917,-100,4,2,3,75,0,0
55372,-100,4,2,3,75,0,0
55712,-100,4,2,3,75,0,0
55826,454.545454545455,4,2,1,65,1,0
55826,-83.3333333333333,4,2,1,65,0,1
71053,-83.3333333333333,4,3,6,65,0,1
71735,-83.3333333333333,4,2,1,65,0,1
71962,-83.3333333333333,4,2,1,65,0,1
72189,-83.3333333333333,4,2,1,65,0,1
73326,-83.3333333333333,4,2,5,65,0,1
73780,-83.3333333333333,4,2,1,65,0,1
84576,-83.3333333333333,4,3,5,65,0,1
84689,-83.3333333333333,4,3,4,65,0,1
84803,-83.3333333333333,4,3,6,65,0,1
84916,-100,4,2,2,35,0,0
87416,-100,4,2,2,35,0,0
87644,-100,4,2,2,30,0,0
87871,-100,4,2,2,25,0,0
88098,-100,4,2,2,20,0,0
88326,-100,4,2,2,5,0,0

[Colours]
Combo1 : 170,255,200
Combo2 : 194,240,132
Combo3 : 251,228,153

[HitObjects]
312,248,372,5,2,3:0:0:0:
368,192,599,1,0,0:0:0:0:
312,248,826,2,0,P|299:285|312:322,1,80,2|0,0:0|0:0,0:0:0:0:
200,248,1281,5,10,0:0:0:0:
256,192,1508,1,0,0:0:0:0:
200,248,1735,2,0,P|187:285|200:322,1,80,2|0,0:0|0:0,0:0:0:0:
144,192,2190,5,10,0:0:0:0:
200,136,2417,1,0,0:0:0:0:
256,192,2644,1,2,0:0:0:0:
200,136,2872,2,0,L|200:56,2,80,0|8|2,0:0|0:0|0:0,0:0:0:0:
144,192,3553,1,2,0:0:0:0:
144,192,4008,5,2,3:0:0:0:
88,136,4235,1,0,0:0:0:0:
144,192,4462,2,0,P|157:229|144:266,1,80,2|0,0:0|0:0,0:0:0:0:
256,192,4917,5,10,0:0:0:0:
200,136,5144,1,0,0:0:0:0:
256,192,5371,2,0,P|269:229|256:266,1,80,2|0,0:0|0:0,0:0:0:0:
312,136,5826,5,10,0:0:0:0:
256,80,6053,1,0,0:0:0:0:
200,136,6280,1,2,0:0:0:0:
256,80,6508,2,0,L|256:0,2,80,0|8|2,0:0|0:0|0:0,0:0:0:0:
312,136,7189,1,2,0:0:0:0:
312,136,7644,6,0,B|320:168|352:176|352:176|384:168|392:136,1,120,6|0,3:2|0:0,0:0:0:0:
392,95,8099,1,10,0:2:0:0:
440,32,8326,1,2,0:2:0:0:
488,95,8553,2,0,B|475:133|475:133|488:171,1,80,2|2,3:2|3:2,0:0:0:0:
440,310,9008,2,0,B|453:272|453:272|440:234,1,80,10|2,0:2|0:2,0:0:0:0:
372,272,9462,6,0,L|240:272,1,120,2|0,3:2|0:0,0:0:0:0:
211,272,9917,1,10,0:2:0:0:
154,328,10144,1,0,0:2:0:0:
97,272,10372,2,0,P|61:257|25:272,1,80,0|0,3:2|3:2,0:0:0:0:
154,207,10826,1,10,0:2:0:0:
211,272,11053,5,2,0:2:0:0:
211,272,11281,2,0,L|244:199,2,80,2|2|10,3:2|0:2|0:2,0:0:0:0:
154,328,11962,2,0,B|171:364|171:364|251:364|251:364|268:328,1,160,2|2,0:2|3:2,0:0:0:0:
325,383,12644,1,8,0:2:0:0:
382,328,12872,1,2,0:2:0:0:
325,273,13099,6,0,B|325:210|325:210|325:157|376:136,1,160,2|8,3:2|0:2,0:0:0:0:
317,81,13781,1,2,0:2:0:0:
256,136,14008,2,0,B|256:216,2,80,0|0|8,3:2|3:2|0:2,0:0:0:0:
195,81,14690,5,0,0:2:0:0:
195,81,14917,2,0,P|143:55|91:81,1,120,2|0,3:2|0:0,0:0:0:0:
50,80,15372,2,0,B|50:120|50:120|21:148,1,80,10|2,0:2|0:2,0:0:0:0:
88,192,15826,1,2,3:2:0:0:
88,192,16053,1,2,3:2:0:0:
21,235,16281,2,0,B|50:264|50:264|50:304,1,80,10|2,0:2|0:2,0:0:0:0:
103,363,16735,6,0,B|147:363|147:363|159:353|159:353|171:363|171:363|215:363,1,120,2|0,3:2|0:0,0:0:0:0:
256,363,17190,1,10,0:2:0:0:
336,363,17417,1,0,0:2:0:0:
296,292,17644,2,0,L|296:208,1,80,0|0,3:2|3:2,0:0:0:0:
216,212,18099,2,0,L|216:292,1,80,10|2,0:2|0:2,0:0:0:0:
176,363,18553,6,0,B|156:363|136:339|136:324|136:324|136:339|116:363|96:363,1,120,2|2,3:2|0:2,0:0:0:0:
56,362,19008,1,8,0:2:0:0:
56,282,19235,2,0,B|96:228|96:228|97:219|97:219|104:224|104:224|105:215|105:215|146:162,1,160,2|2,0:2|3:2,0:0:0:0:
57,162,19917,2,0,L|8:100,1,80,8|2,0:2|0:2,0:0:0:0:
59,35,20372,6,0,B|99:11|135:31|135:35|135:39|171:59|211:35,1,160,2|8,3:2|0:2,0:0:0:0:
256,100,21053,1,2,0:2:0:0:
300,34,21281,2,0,B|339:34|339:34|369:64,2,80,2|0|8,3:2|3:2|0:2,0:0:0:0:
256,100,21962,5,2,0:2:0:0:
256,100,22076,1,2,0:0:0:0:
256,100,22190,2,0,L|256:180,1,80,6|2,3:2|0:2,0:0:0:0:
216,248,22644,1,10,0:2:0:0:
296,248,22872,1,2,0:2:0:0:
159,304,23099,2,0,L|216:248,1,80,2|2,3:2|3:2,0:0:0:0:
352,304,23553,2,0,L|296:248,1,80,10|2,0:2|0:2,0:0:0:0:
412,248,24008,6,0,P|430:192|412:136,1,120,2|0,3:2|0:0,0:0:0:0:
384,107,24462,1,10,0:2:0:0:
440,50,24690,1,0,0:2:0:0:
496,107,24917,1,0,3:2:0:0:
440,50,25144,1,0,3:2:0:0:
384,107,25372,1,8,0:2:0:0:
328,50,25599,5,2,0:2:0:0:
328,50,25712,1,0,0:0:0:0:
328,50,25826,2,0,B|304:50|292:36|292:36|280:50|256:50,1,80,2|2,3:2|0:2,0:0:0:0:
128,107,26281,2,0,B|152:107|164:121|164:121|176:107|200:107,1,80,10|2,0:2|0:2,0:0:0:0:
328,164,26735,1,2,3:2:0:0:
328,164,26962,2,0,B|304:164|292:178|292:178|280:164|256:164,1,80,2|8,3:2|0:2,0:0:0:0:
200,220,27417,5,2,0:2:0:0:
200,220,27531,1,2,0:0:0:0:
200,220,27644,2,0,B|200:267|200:267|196:275|196:275|204:275|204:275|200:283|200:283|200:330,1,120,2|0,3:2|0:0,0:0:0:0:
216,368,28099,2,0,P|180:353|144:368,1,80,10|0,0:2|0:2,0:0:0:0:
296,368,28553,2,0,P|332:353|368:368,1,80,2|2,3:2|3:2,0:0:0:0:
448,368,29008,1,10,0:2:0:0:
408,300,29235,5,2,0:2:0:0:
408,300,29349,1,2,0:0:0:0:
408,300,29462,2,0,B|432:233|432:233|438:227|438:227|445:220|445:220|469:154,1,160,2|8,3:2|0:2,0:0:0:0:
412,97,30144,1,0,0:2:0:0:
355,155,30372,2,0,P|303:180|251:155,1,120,2|2,3:2|0:2,0:0:0:0:
222,126,30826,1,8,0:2:0:0:
176,192,31053,1,2,0:2:0:0:
130,126,31281,6,0,B|164:109|176:64|176:64|188:109|222:126,1,160,2|10,3:2|0:2,0:0:0:0:
176,192,31962,1,2,0:2:0:0:
222,258,32190,2,0,L|302:258,1,80,0|2,3:2|3:2,0:0:0:0:
176,324,32644,1,8,0:2:0:0:
130,258,32872,5,2,0:2:0:0:
130,258,32985,1,2,0:0:0:0:
130,258,33099,2,0,P|96:240|62:258,2,80,2|0|8,3:2|0:2|0:2,0:0:0:0:
176,192,33781,1,0,0:2:0:0:
222,258,34008,2,0,P|256:240|290:258,2,80,0|2|10,3:2|3:2|0:2,0:0:0:0:
176,192,34690,1,2,0:2:0:0:
222,126,34917,6,0,B|256:77|256:77|290:126,1,120,2|2,3:2|0:2,0:0:0:0:
290,126,35372,2,0,L|370:126,1,80,8|2,0:2|3:2,0:0:0:0:
290,258,35826,2,0,B|256:307|256:307|222:258,1,120,10|2,0:2|0:2,0:0:0:0:
216,258,36281,1,8,0:2:0:0:
176,192,36508,5,2,0:2:0:0:
176,192,36622,1,2,0:0:0:0:
176,192,36735,2,0,L|96:192,1,80,6|0,3:2|0:2,0:0:0:0:
16,111,37190,2,0,L|96:111,1,80,0|0,3:2|0:2,0:0:0:0:
96,30,37644,2,0,B|153:30|153:30|197:74,1,120,0|8,3:2|0:2,0:0:0:0:
196,112,38099,1,0,3:2:0:0:
256,168,38326,1,10,0:2:0:0:
316,112,38553,6,0,B|325:94|345:86|345:86|365:94|374:112,1,80,2|2,3:2|0:2,0:0:0:0:
492,168,39008,1,2,3:2:0:0:
492,168,39235,2,0,B|483:186|463:194|463:194|443:186|434:168,1,80,2|0,0:2|3:2,0:0:0:0:
316,224,39690,1,2,0:2:0:0:
316,224,39917,2,0,B|325:206|345:198|345:198|365:206|374:224,1,80,10|2,3:2|0:2,0:0:0:0:
345,299,40372,6,0,B|310:299|310:299|261:299|242:342,1,120,6|0,3:2|0:0,0:0:0:0:
228,304,40826,2,0,L|206:226,1,80,10|2,3:2|0:2,0:0:0:0:
167,85,41281,2,0,B|202:85|202:85|251:85|269:41,1,120,6|2,3:2|0:2,0:0:0:0:
284,80,41735,2,0,L|305:157,1,80,8|2,3:2|0:2,0:0:0:0:
345,299,42190,6,0,L|425:299,2,80,4|0|0,3:2|0:2|3:2,0:0:0:0:
296,364,42872,1,0,0:2:0:0:
216,364,43099,1,0,3:2:0:0:
167,299,43326,1,8,0:2:0:0:
167,299,43440,1,8,0:2:0:0:
167,299,43553,2,0,L|87:299,1,80,8|2,0:2|3:2,0:0:0:0:
216,234,44008,6,0,B|248:248|256:276|256:276|264:248|296:234,1,120,6|0,3:2|0:0,0:0:0:0:
324,205,44462,1,0,3:2:0:0:
256,164,44690,1,2,0:2:0:0:
256,164,44803,1,0,0:0:0:0:
256,164,44917,2,0,L|256:44,1,120,2|8,3:2|0:2,0:0:0:0:
256,3,45372,1,0,3:2:0:0:
176,3,45599,1,10,0:2:0:0:
336,3,45826,6,0,P|352:39|336:75,1,80,2|2,3:2|0:2,0:0:0:0:
176,3,46281,2,0,P|160:39|176:75,1,80,2|2,3:2|0:2,0:0:0:0:
212,145,46735,1,2,3:2:0:0:
256,75,46962,1,2,0:2:0:0:
300,145,47190,1,8,3:2:0:0:
337,74,47417,5,2,0:2:0:0:
342,74,47531,1,2,0:0:0:0:
347,74,47644,2,0,L|392:141,1,80,6|2,3:2|0:2,0:0:0:0:
452,192,48099,1,10,0:2:0:0:
392,243,48326,2,0,B|360:280|380:328|380:328|311:328,1,160,2|2,0:2|3:2,0:0:0:0:
256,268,49008,1,8,0:2:0:0:
201,328,49235,5,2,0:2:0:0:
201,328,49462,2,0,P|164:341|127:328,1,80,2|2,3:2|0:2,0:0:0:0:
72,268,49917,1,10,0:2:0:0:
127,208,50144,2,0,P|164:195|201:208,1,80,2|0,0:2|3:2,0:0:0:0:
256,268,50599,1,2,3:2:0:0:
311,208,50826,1,8,0:2:0:0:
256,268,51053,1,2,0:2:0:0:
256,148,51281,6,0,P|311:128|366:148,1,120,6|0,3:2|0:0,0:0:0:0:
406,148,51735,1,8,0:2:0:0:
406,68,51962,1,0,0:2:0:0:
256,68,52190,6,0,P|201:88|146:68,1,120,6|0,3:2|0:0,0:0:0:0:
106,68,52644,1,8,0:2:0:0:
106,148,52871,1,0,3:2:0:0:
256,148,53099,6,0,L|336:148,1,80,14|0,0:2|3:2,0:0:0:0:
256,236,53553,2,0,L|336:236,1,80,14|0,0:2|3:2,0:0:0:0:
404,192,54008,1,6,3:2:0:0:
472,236,54235,5,8,0:2:0:0:
496,219,54348,1,8,0:2:0:0:
506,192,54462,1,10,0:2:0:0:
496,164,54576,1,8,0:2:0:0:
472,148,54689,1,10,0:2:0:0:
404,192,54917,5,2,0:0:0:0:
404,192,55826,6,0,P|426:232|404:272,1,95.9999970703126,6|0,3:2|3:2,0:0:0:0:
376,232,56166,2,0,B|340:208|308:228|308:232|308:236|276:256|240:232,1,143.999995605469,2|2,0:2|0:2,0:0:0:0:
108,192,56735,6,0,P|86:152|108:112,1,95.9999970703126,2|0,3:2|3:2,0:0:0:0:
136,152,57076,2,0,B|172:176|204:156|204:152|204:148|236:128|272:152,1,143.999995605469,2|2,0:2|0:2,0:0:0:0:
404,192,57644,6,0,L|320:309,1,143.999995605469,2|0,3:2|0:2,0:0:0:0:
296,352,58098,1,10,0:2:0:0:
256,264,58326,2,0,B|168:264|168:264|160:268|160:268|152:272|152:272|65:272,1,191.999994140625,2|2,0:2|3:2,0:0:0:0:
12,192,59007,1,8,0:2:0:0:
65,112,59235,5,2,0:2:0:0:
65,112,59348,1,2,0:0:0:0:
65,112,59462,2,0,B|101:112|101:112|109:103|109:103|117:112|117:112|153:112,1,95.9999970703126,2|0,3:2|3:2,0:0:0:0:
177,69,59803,2,0,B|177:118|177:118|173:126|173:126|181:126|181:126|173:134|173:134|181:134|181:134|177:142|177:142|177:191,1,143.999995605469,2|2,0:2|0:2,0:0:0:0:
65,272,60371,6,0,B|101:272|101:272|109:281|109:281|117:272|117:272|153:272,1,95.9999970703126,2|0,3:2|3:2,0:0:0:0:
177,315,60712,2,0,B|177:266|177:266|173:258|173:258|181:258|181:258|173:250|173:250|181:250|181:250|177:242|177:242|177:193,1,143.999995605469,2|2,0:2|0:2,0:0:0:0:
256,112,61280,6,0,P|340:72|424:112,1,191.999994140625,2|10,3:2|0:2,0:0:0:0:
508,68,61962,2,0,P|524:112|508:156,1,95.9999970703126,2|0,0:2|3:2,0:0:0:0:
424,201,62416,1,2,3:2:0:0:
508,246,62644,1,8,0:2:0:0:
424,201,62871,1,2,0:2:0:0:
340,246,63098,6,0,B|243:205|212:110,1,191.999994140625,6|8,3:2|0:2,0:0:0:0:
299,110,63780,2,0,B|269:205|172:246,1,191.999994140625,0|0,0:2|3:2,0:0:0:0:
88,201,64462,1,8,0:2:0:0:
4,246,64689,5,2,0:2:0:0:
4,246,64803,1,2,0:0:0:0:
4,246,64916,2,0,B|-8:292|-8:292|4:338,1,95.9999970703126,2|0,3:2|3:2,0:0:0:0:
88,201,65371,1,10,0:2:0:0:
173,338,65598,2,0,B|185:292|185:292|173:246,1,95.9999970703126,2|0,0:2|3:2,0:0:0:0:
256,200,66053,1,2,3:2:0:0:
339,245,66280,1,10,0:2:0:0:
256,290,66507,1,2,0:2:0:0:
173,245,66735,6,0,L|214:57,1,191.999994140625,2|8,3:2|0:2,0:0:0:0:
299,57,67416,2,0,L|340:245,1,191.999994140625,2|0,0:2|3:2,0:0:0:0:
256,292,68098,1,10,0:2:0:0:
173,245,68326,5,2,0:2:0:0:
173,245,68439,1,2,0:0:0:0:
173,245,68553,2,0,B|172:292|172:292|190:337,1,95.9999970703126,2|0,3:2|3:2,0:0:0:0:
256,200,69007,1,8,0:2:0:0:
321,337,69235,2,0,B|340:292|340:292|339:245,1,95.9999970703126,2|0,0:2|3:2,0:0:0:0:
256,200,69689,1,0,3:2:0:0:
173,245,69916,1,10,0:2:0:0:
256,112,70144,5,2,3:2:0:0:
256,112,70257,1,2,0:0:0:0:
256,112,70371,2,0,B|300:88|348:112|348:112|396:88|440:112,1,191.999994140625,14|0,0:2|3:2,0:0:0:0:
492,192,71053,1,8,3:0:0:0:
440,272,71280,2,0,B|396:296|348:272|348:272|300:296|256:272,1,191.999994140625,8|8,3:0|3:0,0:0:0:0:
204,192,71962,1,2,3:2:0:0:
256,112,72189,6,0,B|232:56|172:56|172:56|135:56,1,143.999995605469,6|0,3:2|0:0,0:0:0:0:
87,56,72644,5,2,3:2:0:0:
48,144,72871,5,10,0:2:0:0:
48,144,72985,1,8,0:2:0:0:
48,144,73098,1,8,3:2:0:0:
48,240,73326,5,10,3:0:0:0:
48,240,73440,1,8,3:0:0:0:
48,240,73553,1,8,3:0:0:0:
87,328,73780,5,10,0:2:0:0:
87,328,73894,1,8,0:2:0:0:
87,328,74007,2,0,P|131:344|175:328,1,95.9999970703126,6|0,3:2|3:2,0:0:0:0:
300,240,74462,2,0,P|256:224|212:240,1,95.9999970703126,8|2,0:2|0:2,0:0:0:0:
48,240,74916,2,0,P|92:256|136:240,1,95.9999970703126,2|0,3:2|3:2,0:0:0:0:
172,152,75371,1,8,0:2:0:0:
212,65,75598,5,2,0:2:0:0:
212,65,75712,1,0,0:0:0:0:
212,65,75826,2,0,L|385:147,1,191.999994140625,6|8,3:2|0:2,0:0:0:0:
468,192,76507,1,0,0:2:0:0:
386,237,76735,1,2,3:2:0:0:
303,192,76962,1,0,3:2:0:0:
303,192,77076,1,8,0:2:0:0:
303,192,77189,2,0,B|286:237|286:237|303:282,1,95.9999970703126,8|0,0:2|3:2,0:0:0:0:
211,237,77644,6,0,B|159:237|131:281|131:281|103:237|51:237,1,191.999994140625,6|8,3:2|0:2,0:0:0:0:
131,184,78326,1,0,0:2:0:0:
51,131,78553,2,0,L|111:56,1,95.9999970703126,0|0,3:2|3:2,0:0:0:0:
131,184,79007,2,0,L|191:109,1,95.9999970703126,8|0,0:2|0:2,0:0:0:0:
301,147,79462,6,0,B|353:147|381:103|381:103|409:147|461:147,1,191.999994140625,2|8,3:2|0:2,0:0:0:0:
381,200,80144,1,0,0:2:0:0:
461,253,80371,2,0,L|400:327,1,95.9999970703126,0|0,3:2|3:2,0:0:0:0:
381,200,80825,2,0,L|320:274,1,95.9999970703126,8|0,0:2|0:2,0:0:0:0:
211,237,81280,6,0,B|179:190|207:146|211:146|215:146|243:102|211:55,1,191.999994140625,6|8,3:2|0:2,0:0:0:0:
120,20,81962,1,0,0:2:0:0:
29,56,82189,2,0,P|13:100|29:144,1,95.9999970703126,0|0,3:2|3:2,0:0:0:0:
120,268,82644,2,0,P|136:224|120:180,1,95.9999970703126,8|0,0:2|0:2,0:0:0:0:
39,56,83098,6,0,P|23:100|39:144,1,95.9999970703126,2|0,3:2|3:2,0:0:0:0:
130,268,83553,2,0,P|146:224|130:180,1,95.9999970703126,8|0,0:2|3:2,0:0:0:0:
49,56,84007,1,0,3:2:0:0:
211,56,84235,5,8,0:2:0:0:
208,87,84348,1,8,0:2:0:0:
225,113,84462,1,10,0:2:0:0:
256,124,84575,1,8,3:0:0:0:
286,113,84689,1,10,0:0:0:0:
303,87,84803,1,8,0:0:0:0:
301,56,84916,5,2,3:0:0:0:
256,192,85030,12,0,88326,0:0:0:0:
