osu file format v14

[General]
AudioFilename: audio.mp3
AudioLeadIn: 0
PreviewTime: 212173
Countdown: 1
SampleSet: None
StackLeniency: 0.7
Mode: 1
LetterboxInBreaks: 0
WidescreenStoryboard: 1

[Editor]
DistanceSpacing: 1.1
BeatDivisor: 4
GridSize: 4
TimelineZoom: 1

[Metadata]
Title:Aoi Shiori
TitleUnicode:青い栞
Artist:Galileo Galilei
ArtistUnicode:ガリレオガリレイ
Creator:Jorkseljund
Version:Muzukashii
Source:Ano Hi Mita Hana no Namaeo wo Bokutachi wa Mada Shiranai
Tags:
BeatmapID:1879691
BeatmapSetID:899894

[Difficulty]
HPDrainRate:6
CircleSize:4
OverallDifficulty:5
ApproachRate:5
SliderMultiplier:1.4
SliderTickRate:1

[Events]
//Background and Video events
0,0,"647054.jpg",0,0
//Break Periods
//Storyboard Layer 0 (Background)
//Storyboard Layer 1 (Fail)
//Storyboard Layer 2 (Pass)
//Storyboard Layer 3 (Foreground)
//Storyboard Sound Samples

[TimingPoints]
355,454.545454545455,4,2,0,100,1,0
69445,-100,4,2,0,100,0,1
87173,-100,4,2,0,100,0,0
87627,-100,4,2,0,100,0,1
98536,-100,4,2,0,100,0,0
212173,454.545454545455,4,2,0,100,1,0
212173,-100,4,2,0,100,0,1
229900,-100,4,2,0,100,0,0
230355,-100,4,2,0,100,0,1
240809,-100,4,2,0,100,0,0
241264,-100,4,2,0,100,0,1
258991,-100,4,2,0,100,0,0
259445,-100,4,2,0,100,0,1
270355,-100,4,2,0,100,0,0

[HitObjects]
215,187,355,5,0,0:0:0:0:
215,187,811,1,8,0:0:0:0:
204,110,1266,1,0,0:0:0:0:
348,56,1493,1,0,0:0:0:0:
276,83,1720,1,8,0:0:0:0:
275,84,2175,1,0,0:0:0:0:
204,114,2402,1,0,0:0:0:0:
133,144,2629,1,8,0:0:0:0:
62,175,2857,1,0,0:0:0:0:
137,160,3084,1,0,0:0:0:0:
212,146,3311,1,0,0:0:0:0:
212,146,3538,1,8,0:0:0:0:
215,187,3993,1,0,0:0:0:0:
215,187,4447,1,8,0:0:0:0:
204,110,4902,1,0,0:0:0:0:
348,56,5129,1,0,0:0:0:0:
276,83,5356,1,8,0:0:0:0:
275,84,5810,1,0,0:0:0:0:
204,114,6037,1,0,0:0:0:0:
133,144,6264,1,8,0:0:0:0:
62,175,6491,1,0,0:0:0:0:
137,160,6718,1,0,0:0:0:0:
212,146,6945,1,0,0:0:0:0:
212,146,7172,1,8,0:0:0:0:
215,187,7627,1,4,0:0:0:0:
215,187,7854,1,0,0:0:0:0:
215,187,8081,1,8,0:0:0:0:
204,110,8536,1,0,0:0:0:0:
348,56,8763,1,0,0:0:0:0:
276,83,8990,1,8,0:0:0:0:
275,84,9445,1,0,0:0:0:0:
204,114,9672,1,0,0:0:0:0:
133,144,9899,1,8,0:0:0:0:
62,175,10127,1,0,0:0:0:0:
137,160,10354,1,0,0:0:0:0:
212,146,10581,1,0,0:0:0:0:
212,146,10808,1,8,0:0:0:0:
215,187,11264,1,0,0:0:0:0:
215,187,11491,1,0,0:0:0:0:
215,187,11718,1,8,0:0:0:0:
204,110,12173,1,0,0:0:0:0:
348,56,12400,1,0,0:0:0:0:
276,83,12627,1,8,0:0:0:0:
275,84,13082,1,0,0:0:0:0:
204,114,13309,1,0,0:0:0:0:
133,144,13536,1,8,0:0:0:0:
62,175,13764,1,0,0:0:0:0:
137,160,13991,1,0,0:0:0:0:
212,146,14218,1,0,0:0:0:0:
212,146,14445,1,8,0:0:0:0:
215,187,14900,1,0,0:0:0:0:
215,187,15127,1,0,0:0:0:0:
215,187,15354,1,8,0:0:0:0:
204,110,15809,1,0,0:0:0:0:
348,56,16036,1,0,0:0:0:0:
276,83,16263,1,8,0:0:0:0:
275,84,16718,1,0,0:0:0:0:
204,114,16945,1,0,0:0:0:0:
133,144,17172,1,8,0:0:0:0:
62,175,17400,1,0,0:0:0:0:
137,160,17627,1,0,0:0:0:0:
212,146,17854,1,0,0:0:0:0:
212,146,18081,1,8,0:0:0:0:
215,187,18536,1,0,0:0:0:0:
215,187,18763,1,0,0:0:0:0:
215,187,18990,1,8,0:0:0:0:
204,110,19445,1,0,0:0:0:0:
348,56,19672,1,0,0:0:0:0:
276,83,19899,1,8,0:0:0:0:
275,84,20354,1,0,0:0:0:0:
204,114,20581,1,0,0:0:0:0:
133,144,20808,1,8,0:0:0:0:
62,175,21036,1,0,0:0:0:0:
137,160,21263,1,0,0:0:0:0:
212,146,21490,1,8,0:0:0:0:
239,118,21605,1,8,0:0:0:0:
212,146,21717,1,8,0:0:0:0:
118,23,22173,1,6,0:0:0:0:
244,111,22627,1,8,0:0:0:0:
174,145,22855,1,0,0:0:0:0:
105,179,23082,1,0,0:0:0:0:
151,117,23309,1,8,0:0:0:0:
198,56,23536,1,8,0:0:0:0:
198,56,23764,1,0,0:0:0:0:
198,56,23991,1,8,0:0:0:0:
246,201,24445,1,8,0:0:0:0:
181,100,25355,1,0,0:0:0:0:
181,100,25582,1,0,0:0:0:0:
181,100,25809,1,8,0:0:0:0:
202,173,26036,1,0,0:0:0:0:
181,98,26264,1,0,0:0:0:0:
181,100,26491,1,8,0:0:0:0:
181,98,26945,1,8,0:0:0:0:
288,208,27400,1,0,0:0:0:0:
234,152,27627,1,8,0:0:0:0:
81,129,28082,1,0,0:0:0:0:
81,129,28309,1,0,0:0:0:0:
81,129,28536,1,8,0:0:0:0:
156,111,28764,1,0,0:0:0:0:
229,169,28991,1,8,0:0:0:0:
125,55,29445,1,8,0:0:0:0:
228,169,29900,1,0,0:0:0:0:
176,111,30127,1,0,0:0:0:0:
176,111,30355,1,8,0:0:0:0:
317,170,30809,1,8,0:0:0:0:
246,140,31036,1,0,0:0:0:0:
246,140,31264,1,8,0:0:0:0:
99,92,31718,1,8,0:0:0:0:
241,151,32173,1,8,0:0:0:0:
241,151,32400,1,0,0:0:0:0:
241,151,32627,1,8,0:0:0:0:
168,123,32855,1,8,0:0:0:0:
96,95,33082,1,0,0:0:0:0:
96,95,33536,1,0,0:0:0:0:
96,95,33764,1,8,0:0:0:0:
96,95,33991,1,0,0:0:0:0:
170,112,34218,1,8,0:0:0:0:
246,108,34445,1,0,0:0:0:0:
246,108,34673,1,8,0:0:0:0:
269,181,34900,1,8,0:0:0:0:
119,145,35355,1,0,0:0:0:0:
44,127,35809,1,8,0:0:0:0:
119,110,36036,1,0,0:0:0:0:
195,116,36264,1,8,0:0:0:0:
268,94,36491,1,0,0:0:0:0:
268,94,36718,1,4,0:0:0:0:
384,195,37173,1,0,0:0:0:0:
326,144,37400,1,0,0:0:0:0:
326,144,37627,1,8,0:0:0:0:
248,149,37855,1,8,0:0:0:0:
171,154,38082,1,0,0:0:0:0:
171,154,38309,1,8,0:0:0:0:
171,154,38536,1,8,0:0:0:0:
171,154,38991,1,8,0:0:0:0:
171,0,39445,1,0,0:0:0:0:
171,77,39673,1,0,0:0:0:0:
171,77,39900,1,8,0:0:0:0:
246,91,40127,1,0,0:0:0:0:
321,106,40355,1,8,0:0:0:0:
396,120,40582,1,8,0:0:0:0:
319,122,40809,1,0,0:0:0:0:
242,125,41036,1,0,0:0:0:0:
164,128,41264,1,8,0:0:0:0:
164,128,41491,1,8,0:0:0:0:
242,125,41945,1,0,0:0:0:0:
242,125,42173,1,8,0:0:0:0:
222,277,42627,1,8,0:0:0:0:
242,125,43082,1,0,0:0:0:0:
242,125,43309,1,0,0:0:0:0:
242,125,43536,1,8,0:0:0:0:
168,101,43764,1,0,0:0:0:0:
168,101,43991,1,8,0:0:0:0:
299,181,44445,1,0,0:0:0:0:
167,100,44900,1,0,0:0:0:0:
232,140,45127,1,0,0:0:0:0:
232,140,45355,1,8,0:0:0:0:
307,126,45582,1,0,0:0:0:0:
383,115,45809,1,8,0:0:0:0:
231,141,46264,1,0,0:0:0:0:
155,154,46491,1,8,0:0:0:0:
4,183,46945,1,8,0:0:0:0:
79,168,47173,1,0,0:0:0:0:
151,141,47400,1,0,0:0:0:0:
223,115,47627,1,8,0:0:0:0:
198,305,48082,1,0,0:0:0:0:
178,152,48536,1,0,0:0:0:0:
178,152,48764,1,0,0:0:0:0:
178,152,48991,1,8,0:0:0:0:
178,152,49218,1,0,0:0:0:0:
178,152,49445,1,8,0:0:0:0:
216,43,49786,1,8,0:0:0:0:
231,157,50127,1,0,0:0:0:0:
231,157,50355,1,8,0:0:0:0:
192,48,50695,1,8,0:0:0:0:
274,128,51036,1,0,0:0:0:0:
274,128,51264,1,6,0:0:0:0:
120,133,51718,1,0,0:0:0:0:
273,147,52173,1,0,0:0:0:0:
196,140,52400,1,8,0:0:0:0:
234,143,52514,1,8,0:0:0:0:
234,143,52627,1,8,0:0:0:0:
299,101,52855,1,0,0:0:0:0:
299,101,53082,1,8,0:0:0:0:
226,127,53309,1,0,0:0:0:0:
95,101,53536,1,0,0:0:0:0:
153,153,53764,1,8,0:0:0:0:
235,22,54218,1,8,0:0:0:0:
194,87,54445,1,0,0:0:0:0:
251,138,54673,1,0,0:0:0:0:
308,189,54900,1,6,0:0:0:0:
153,183,55355,1,0,0:0:0:0:
76,181,55582,1,0,0:0:0:0:
152,183,55809,1,6,0:0:0:0:
298,133,56264,1,0,0:0:0:0:
225,158,56491,1,0,0:0:0:0:
225,158,56718,1,6,0:0:0:0:
93,77,57173,1,0,0:0:0:0:
92,76,57627,1,0,0:0:0:0:
162,107,57855,1,8,0:0:0:0:
197,122,57968,1,8,0:0:0:0:
232,137,58082,1,8,0:0:0:0:
275,73,58309,1,0,0:0:0:0:
232,136,58536,1,6,0:0:0:0:
283,281,58991,1,0,0:0:0:0:
257,208,59218,1,0,0:0:0:0:
257,208,59445,1,8,0:0:0:0:
170,80,59900,1,0,0:0:0:0:
213,143,60127,1,0,0:0:0:0:
168,79,60355,1,8,0:0:0:0:
212,141,60582,1,0,0:0:0:0:
212,141,60809,1,0,0:0:0:0:
212,141,61036,1,8,0:0:0:0:
212,141,61264,1,8,0:0:0:0:
212,141,61491,1,0,0:0:0:0:
184,74,61945,1,0,0:0:0:0:
184,74,62173,1,8,0:0:0:0:
260,82,62400,1,8,0:0:0:0:
336,91,62627,1,0,0:0:0:0:
259,82,62855,1,0,0:0:0:0:
335,89,63082,1,8,0:0:0:0:
224,195,63536,1,0,0:0:0:0:
224,195,63764,1,0,0:0:0:0:
224,195,63991,1,8,0:0:0:0:
260,45,64445,1,0,0:0:0:0:
242,120,64673,1,8,0:0:0:0:
95,167,65127,1,0,0:0:0:0:
172,161,65355,1,8,0:0:0:0:
95,167,65582,1,0,0:0:0:0:
171,161,65809,1,8,0:0:0:0:
325,161,66264,1,0,0:0:0:0:
248,161,66491,1,0,0:0:0:0:
248,161,66718,1,8,0:0:0:0:
116,80,67173,1,8,0:0:0:0:
181,120,67400,1,0,0:0:0:0:
115,80,67627,1,8,0:0:0:0:
258,137,68082,1,8,0:0:0:0:
108,100,68536,1,0,0:0:0:0:
261,107,68763,1,8,0:0:0:0:
222,105,68877,1,8,0:0:0:0:
183,103,68990,1,8,0:0:0:0:
133,43,69218,1,0,0:0:0:0:
133,43,69445,1,6,0:0:0:0:
200,81,69786,1,8,0:0:0:0:
233,100,70127,1,8,0:0:0:0:
307,137,70355,1,0,0:0:0:0:
197,99,70695,1,8,0:0:0:0:
197,99,71036,1,8,0:0:0:0:
241,36,71264,1,0,0:0:0:0:
197,99,71491,1,8,0:0:0:0:
219,67,71605,1,8,0:0:0:0:
219,67,71718,1,8,0:0:0:0:
284,107,71945,1,8,0:0:0:0:
349,148,72173,1,0,0:0:0:0:
349,148,72400,1,8,0:0:0:0:
195,139,72855,1,0,0:0:0:0:
118,136,73082,1,8,0:0:0:0:
231,112,73423,1,8,0:0:0:0:
342,83,73764,1,0,0:0:0:0:
342,83,73991,1,8,0:0:0:0:
227,101,74332,1,8,0:0:0:0:
190,210,74673,1,0,0:0:0:0:
147,146,74900,1,8,0:0:0:0:
104,81,75127,1,0,0:0:0:0:
125,113,75241,1,0,0:0:0:0:
125,113,75355,1,0,0:0:0:0:
201,111,75582,1,8,0:0:0:0:
201,111,75809,1,0,0:0:0:0:
201,111,76036,1,8,0:0:0:0:
353,136,76491,1,0,0:0:0:0:
277,123,76718,1,8,0:0:0:0:
123,134,77173,1,8,0:0:0:0:
188,93,77400,1,0,0:0:0:0:
188,93,77514,1,0,0:0:0:0:
188,93,77627,1,0,0:0:0:0:
188,93,77855,1,0,0:0:0:0:
188,93,78082,1,8,0:0:0:0:
234,154,78309,1,0,0:0:0:0:
234,154,78536,1,8,0:0:0:0:
79,149,78991,1,0,0:0:0:0:
155,151,79218,1,8,0:0:0:0:
302,106,79673,1,8,0:0:0:0:
228,128,79900,1,0,0:0:0:0:
228,128,80127,1,0,0:0:0:0:
228,128,80355,1,8,0:0:0:0:
106,34,80809,1,0,0:0:0:0:
166,80,81036,1,8,0:0:0:0:
302,150,81491,1,0,0:0:0:0:
264,159,81605,1,0,0:0:0:0:
233,114,81718,1,0,0:0:0:0:
194,108,81945,1,0,0:0:0:0:
233,114,82173,1,8,0:0:0:0:
276,52,82400,1,8,0:0:0:0:
276,52,82627,1,0,0:0:0:0:
213,96,82855,1,8,0:0:0:0:
349,167,83309,1,8,0:0:0:0:
314,149,83423,1,8,0:0:0:0:
314,149,83536,1,8,0:0:0:0:
237,138,83764,1,0,0:0:0:0:
160,127,83991,1,8,0:0:0:0:
178,279,84445,1,8,0:0:0:0:
189,125,84900,1,8,0:0:0:0:
194,48,85127,1,0,0:0:0:0:
189,125,85355,1,8,0:0:0:0:
261,99,85582,1,8,0:0:0:0:
261,99,85809,1,0,0:0:0:0:
115,150,86264,1,0,0:0:0:0:
115,150,86491,1,8,0:0:0:0:
191,152,86718,1,0,0:0:0:0:
185,119,86945,1,8,0:0:0:0:
220,104,87059,1,8,0:0:0:0:
220,104,87172,1,8,0:0:0:0:
194,176,87400,1,0,0:0:0:0:
144,117,87627,1,6,0:0:0:0:
211,154,87855,1,0,0:0:0:0:
292,74,88082,1,0,0:0:0:0:
292,74,88536,1,8,0:0:0:0:
223,109,88764,1,0,0:0:0:0:
154,144,88991,1,0,0:0:0:0:
228,161,89218,1,0,0:0:0:0:
302,178,89445,1,8,0:0:0:0:
234,139,89673,1,0,0:0:0:0:
167,101,89900,1,8,0:0:0:0:
314,57,90355,1,0,0:0:0:0:
256,108,90582,1,8,0:0:0:0:
227,134,90695,1,8,0:0:0:0:
199,160,90809,1,8,0:0:0:0:
240,224,91036,1,0,0:0:0:0:
198,158,91264,1,8,0:0:0:0:
73,67,91718,1,8,0:0:0:0:
222,103,92173,1,8,0:0:0:0:
222,103,92400,1,8,0:0:0:0:
222,103,92627,1,0,0:0:0:0:
222,103,92855,1,0,0:0:0:0:
222,103,93082,1,8,0:0:0:0:
180,251,93536,1,0,0:0:0:0:
223,103,93991,1,8,0:0:0:0:
201,176,94218,1,0,0:0:0:0:
183,250,94445,1,8,0:0:0:0:
209,177,94673,1,0,0:0:0:0:
235,104,94900,1,8,0:0:0:0:
85,68,95355,1,8,0:0:0:0:
221,139,95809,1,8,0:0:0:0:
288,176,96036,1,8,0:0:0:0:
220,138,96264,1,0,0:0:0:0:
227,61,96491,1,0,0:0:0:0:
227,61,96718,1,8,0:0:0:0:
101,150,97173,1,0,0:0:0:0:
251,119,97627,1,8,0:0:0:0:
175,104,97855,1,0,0:0:0:0:
402,90,98082,1,8,0:0:0:0:
364,98,98195,1,8,0:0:0:0:
326,104,98309,1,8,0:0:0:0:
250,120,98536,1,0,0:0:0:0:
215,187,98991,1,8,0:0:0:0:
204,110,99446,1,0,0:0:0:0:
348,56,99673,1,0,0:0:0:0:
276,83,99900,1,8,0:0:0:0:
275,84,100355,1,0,0:0:0:0:
204,114,100582,1,0,0:0:0:0:
133,144,100809,1,8,0:0:0:0:
62,175,101037,1,0,0:0:0:0:
137,160,101264,1,0,0:0:0:0:
212,146,101491,1,0,0:0:0:0:
212,146,101718,1,8,0:0:0:0:
215,187,102173,1,0,0:0:0:0:
215,187,102627,1,8,0:0:0:0:
204,110,103082,1,0,0:0:0:0:
348,56,103309,1,0,0:0:0:0:
276,83,103536,1,8,0:0:0:0:
275,84,103990,1,0,0:0:0:0:
204,114,104217,1,0,0:0:0:0:
133,144,104444,1,8,0:0:0:0:
62,175,104671,1,0,0:0:0:0:
137,160,104898,1,0,0:0:0:0:
212,146,105125,1,0,0:0:0:0:
212,146,105352,1,8,0:0:0:0:
364,121,105809,1,6,0:0:0:0:
211,100,106264,1,0,0:0:0:0:
134,89,106491,1,0,0:0:0:0:
57,80,106718,1,8,0:0:0:0:
204,124,107173,1,8,0:0:0:0:
277,147,107400,1,0,0:0:0:0:
277,147,107627,1,8,0:0:0:0:
204,124,108082,1,8,0:0:0:0:
204,124,108309,1,0,0:0:0:0:
204,124,108536,1,0,0:0:0:0:
204,124,108991,1,8,0:0:0:0:
142,265,109445,1,0,0:0:0:0:
204,123,109900,1,8,0:0:0:0:
357,130,110355,1,0,0:0:0:0:
280,126,110582,1,0,0:0:0:0:
356,130,110809,1,8,0:0:0:0:
275,84,111264,1,0,0:0:0:0:
204,114,111491,1,0,0:0:0:0:
133,144,111718,1,8,0:0:0:0:
62,175,111946,1,0,0:0:0:0:
137,160,112173,1,0,0:0:0:0:
212,146,112400,1,0,0:0:0:0:
212,146,112627,1,8,0:0:0:0:
307,25,113082,1,8,0:0:0:0:
215,148,113536,1,8,0:0:0:0:
263,87,113764,1,0,0:0:0:0:
215,147,113991,1,8,0:0:0:0:
363,107,114445,1,0,0:0:0:0:
363,107,114673,1,8,0:0:0:0:
363,107,114900,1,8,0:0:0:0:
213,142,115355,1,8,0:0:0:0:
213,142,115582,1,0,0:0:0:0:
213,142,115809,1,8,0:0:0:0:
213,142,116264,1,8,0:0:0:0:
138,7,116718,1,0,0:0:0:0:
233,128,117173,1,8,0:0:0:0:
106,40,117627,1,0,0:0:0:0:
169,84,117855,1,0,0:0:0:0:
169,84,118082,1,8,0:0:0:0:
275,84,118536,1,0,0:0:0:0:
204,114,118763,1,0,0:0:0:0:
133,144,118990,1,8,0:0:0:0:
62,175,119218,1,0,0:0:0:0:
137,160,119445,1,0,0:0:0:0:
212,146,119672,1,8,0:0:0:0:
212,146,119899,1,8,0:0:0:0:
341,61,120355,1,6,0:0:0:0:
193,105,120809,1,0,0:0:0:0:
119,128,121036,1,8,0:0:0:0:
193,105,121264,1,8,0:0:0:0:
109,234,121718,1,8,0:0:0:0:
109,234,121945,1,0,0:0:0:0:
109,234,122173,1,8,0:0:0:0:
193,105,122627,1,0,0:0:0:0:
152,170,122855,1,0,0:0:0:0:
193,105,123082,1,8,0:0:0:0:
152,170,123309,1,0,0:0:0:0:
193,105,123536,1,8,0:0:0:0:
284,228,123991,1,0,0:0:0:0:
224,86,124445,1,8,0:0:0:0:
360,158,124900,1,0,0:0:0:0:
292,122,125127,1,0,0:0:0:0:
292,122,125355,1,8,0:0:0:0:
275,84,125809,1,0,0:0:0:0:
204,114,126036,1,0,0:0:0:0:
133,144,126263,1,8,0:0:0:0:
62,175,126491,1,0,0:0:0:0:
137,160,126718,1,0,0:0:0:0:
212,146,126945,1,0,0:0:0:0:
212,146,127172,1,8,0:0:0:0:
121,21,127627,1,8,0:0:0:0:
221,137,128082,1,0,0:0:0:0:
170,79,128309,1,0,0:0:0:0:
220,136,128536,1,8,0:0:0:0:
370,104,128991,1,8,0:0:0:0:
294,120,129218,1,0,0:0:0:0:
294,120,129445,1,8,0:0:0:0:
140,130,129900,1,8,0:0:0:0:
63,135,130127,1,0,0:0:0:0:
140,131,130355,1,0,0:0:0:0:
63,135,130582,1,0,0:0:0:0:
139,131,130809,1,8,0:0:0:0:
282,188,131264,1,0,0:0:0:0:
138,131,131718,1,8,0:0:0:0:
281,187,132173,1,0,0:0:0:0:
209,159,132400,1,0,0:0:0:0:
280,187,132627,1,8,0:0:0:0:
275,84,133082,1,0,0:0:0:0:
204,114,133309,1,0,0:0:0:0:
133,144,133536,1,8,0:0:0:0:
62,175,133764,1,0,0:0:0:0:
137,160,133991,1,0,0:0:0:0:
212,146,134218,1,8,0:0:0:0:
212,146,134445,1,8,0:0:0:0:
297,274,134900,1,6,0:0:0:0:
264,123,135355,1,8,0:0:0:0:
123,59,135809,1,0,0:0:0:0:
192,90,136036,1,0,0:0:0:0:
158,75,136264,1,8,0:0:0:0:
81,78,136491,1,0,0:0:0:0:
42,79,136605,1,0,0:0:0:0:
310,95,136718,1,0,0:0:0:0:
259,152,136945,1,0,0:0:0:0:
208,210,137173,1,8,0:0:0:0:
159,269,137400,1,0,0:0:0:0:
181,195,137627,1,8,0:0:0:0:
204,121,137855,1,0,0:0:0:0:
229,48,138082,1,8,0:0:0:0:
126,100,138536,1,0,0:0:0:0:
272,148,138991,1,8,0:0:0:0:
344,172,139218,1,0,0:0:0:0:
270,148,139445,1,8,0:0:0:0:
194,132,139673,1,8,0:0:0:0:
118,116,139900,1,0,0:0:0:0:
188,84,140127,1,0,0:0:0:0:
259,53,140355,1,8,0:0:0:0:
188,84,140582,1,0,0:0:0:0:
237,142,140809,1,8,0:0:0:0:
261,171,140923,1,8,0:0:0:0:
285,200,141036,1,8,0:0:0:0:
228,146,141264,1,8,0:0:0:0:
172,93,141491,1,0,0:0:0:0:
115,40,141718,1,8,0:0:0:0:
244,124,142173,1,8,0:0:0:0:
218,82,142627,1,0,0:0:0:0:
218,82,142855,1,0,0:0:0:0:
218,82,143082,1,8,0:0:0:0:
223,196,143536,1,8,0:0:0:0:
242,121,143764,1,0,0:0:0:0:
261,46,143991,1,8,0:0:0:0:
206,100,144218,1,0,0:0:0:0:
190,75,144445,1,8,0:0:0:0:
154,90,144559,1,8,0:0:0:0:
118,104,144672,1,8,0:0:0:0:
194,96,144900,1,0,0:0:0:0:
270,88,145127,1,8,0:0:0:0:
347,82,145355,1,0,0:0:0:0:
263,210,145809,1,8,0:0:0:0:
263,210,146036,1,0,0:0:0:0:
263,210,146264,1,8,0:0:0:0:
263,210,146491,1,0,0:0:0:0:
263,210,146718,1,8,0:0:0:0:
263,210,146945,1,0,0:0:0:0:
263,210,147059,1,0,0:0:0:0:
191,180,147173,1,0,0:0:0:0:
119,151,147400,1,0,0:0:0:0:
190,179,147627,1,8,0:0:0:0:
96,56,148082,1,8,0:0:0:0:
143,116,148309,1,0,0:0:0:0:
143,116,148536,1,8,0:0:0:0:
143,116,148764,1,8,0:0:0:0:
143,116,148991,1,0,0:0:0:0:
296,136,149445,1,8,0:0:0:0:
200,140,149900,1,8,0:0:0:0:
144,84,150127,1,0,0:0:0:0:
144,84,150241,1,0,0:0:0:0:
144,84,150355,1,0,0:0:0:0:
220,92,150582,1,0,0:0:0:0:
220,80,150809,1,8,0:0:0:0:
200,232,151264,1,8,0:0:0:0:
284,104,151718,1,0,0:0:0:0:
308,72,151945,1,8,0:0:0:0:
308,72,152059,1,8,0:0:0:0:
232,92,152173,1,8,0:0:0:0:
296,136,152400,1,0,0:0:0:0:
160,116,152627,1,8,0:0:0:0:
292,200,153082,1,0,0:0:0:0:
168,108,153536,1,8,0:0:0:0:
244,92,153764,1,0,0:0:0:0:
280,84,153877,1,0,0:0:0:0:
280,84,153991,1,0,0:0:0:0:
352,112,154218,1,0,0:0:0:0:
208,220,154445,1,8,0:0:0:0:
208,220,154673,1,8,0:0:0:0:
208,220,154900,1,0,0:0:0:0:
160,72,155355,1,8,0:0:0:0:
180,144,155582,1,0,0:0:0:0:
256,128,155809,1,8,0:0:0:0:
332,116,156036,1,0,0:0:0:0:
260,92,156264,1,0,0:0:0:0:
224,80,156377,1,0,0:0:0:0:
188,68,156491,1,0,0:0:0:0:
244,16,156718,1,6,0:0:0:0:
215,187,157173,1,8,0:0:0:0:
204,110,157628,1,0,0:0:0:0:
348,56,157855,1,0,0:0:0:0:
276,83,158082,1,8,0:0:0:0:
275,84,158537,1,0,0:0:0:0:
204,114,158764,1,0,0:0:0:0:
133,144,158991,1,8,0:0:0:0:
62,175,159219,1,0,0:0:0:0:
137,160,159446,1,0,0:0:0:0:
212,146,159673,1,0,0:0:0:0:
212,146,159900,1,8,0:0:0:0:
215,187,160355,1,0,0:0:0:0:
215,187,160811,1,8,0:0:0:0:
204,110,161266,1,0,0:0:0:0:
348,56,161493,1,0,0:0:0:0:
276,83,161720,1,8,0:0:0:0:
275,84,162175,1,0,0:0:0:0:
204,114,162402,1,0,0:0:0:0:
133,144,162629,1,8,0:0:0:0:
62,175,162857,1,0,0:0:0:0:
137,160,163084,1,0,0:0:0:0:
212,146,163311,1,0,0:0:0:0:
212,146,163538,1,8,0:0:0:0:
136,279,163991,1,6,0:0:0:0:
228,155,164445,1,0,0:0:0:0:
198,83,164673,1,0,0:0:0:0:
228,155,164900,1,8,0:0:0:0:
78,116,165127,1,0,0:0:0:0:
78,116,165241,1,0,0:0:0:0:
78,116,165355,1,0,0:0:0:0:
154,108,165582,1,0,0:0:0:0:
230,100,165809,1,8,0:0:0:0:
265,31,166036,1,0,0:0:0:0:
230,100,166264,1,8,0:0:0:0:
203,251,166718,1,0,0:0:0:0:
239,101,167173,1,0,0:0:0:0:
221,175,167400,1,0,0:0:0:0:
239,100,167627,1,8,0:0:0:0:
202,31,167855,1,0,0:0:0:0:
202,31,168082,1,0,0:0:0:0:
202,31,168309,1,8,0:0:0:0:
202,31,168536,1,0,0:0:0:0:
202,31,168764,1,8,0:0:0:0:
282,161,169218,1,0,0:0:0:0:
210,132,169445,1,8,0:0:0:0:
355,80,169900,1,0,0:0:0:0:
282,106,170127,1,0,0:0:0:0:
282,106,170355,1,8,0:0:0:0:
208,129,170582,1,0,0:0:0:0:
134,152,170809,1,8,0:0:0:0:
208,129,171264,1,0,0:0:0:0:
192,74,171718,1,8,0:0:0:0:
192,74,171945,1,0,0:0:0:0:
192,74,172173,1,8,0:0:0:0:
269,206,172627,1,0,0:0:0:0:
288,240,172855,1,0,0:0:0:0:
232,187,173082,1,8,0:0:0:0:
237,110,173309,1,8,0:0:0:0:
237,110,173536,1,0,0:0:0:0:
85,139,173991,1,0,0:0:0:0:
85,139,174218,1,0,0:0:0:0:
85,139,174445,1,8,0:0:0:0:
161,132,174673,1,0,0:0:0:0:
237,125,174900,1,8,0:0:0:0:
216,50,175127,1,0,0:0:0:0:
237,124,175355,1,0,0:0:0:0:
216,49,175582,1,8,0:0:0:0:
286,80,175809,1,0,0:0:0:0:
286,80,176036,1,8,0:0:0:0:
140,132,176491,1,0,0:0:0:0:
212,106,176718,1,8,0:0:0:0:
78,183,177400,1,0,0:0:0:0:
144,144,177627,1,8,0:0:0:0:
292,103,178082,1,0,0:0:0:0:
292,103,178195,1,0,0:0:0:0:
259,81,178309,1,0,0:0:0:0:
220,147,178536,1,6,0:0:0:0:
152,108,178764,1,0,0:0:0:0:
384,195,178991,1,8,0:0:0:0:
326,144,179218,1,0,0:0:0:0:
326,144,179445,1,8,0:0:0:0:
248,149,179673,1,8,0:0:0:0:
171,154,179900,1,0,0:0:0:0:
171,154,180127,1,8,0:0:0:0:
171,154,180354,1,8,0:0:0:0:
171,154,180809,1,8,0:0:0:0:
171,0,181263,1,0,0:0:0:0:
171,77,181491,1,0,0:0:0:0:
171,77,181718,1,8,0:0:0:0:
246,91,181945,1,0,0:0:0:0:
321,106,182173,1,8,0:0:0:0:
396,120,182400,1,8,0:0:0:0:
319,122,182627,1,0,0:0:0:0:
242,125,182854,1,8,0:0:0:0:
164,128,183082,1,0,0:0:0:0:
164,128,183309,1,8,0:0:0:0:
242,125,183763,1,0,0:0:0:0:
242,125,183991,1,8,0:0:0:0:
169,98,184218,1,8,0:0:0:0:
222,277,184445,1,0,0:0:0:0:
225,199,184673,1,0,0:0:0:0:
242,125,184900,1,8,0:0:0:0:
242,125,185354,1,8,0:0:0:0:
168,101,185582,1,0,0:0:0:0:
168,101,185809,1,8,0:0:0:0:
299,181,186263,1,0,0:0:0:0:
167,100,186718,1,0,0:0:0:0:
232,140,186945,1,0,0:0:0:0:
232,140,187173,1,8,0:0:0:0:
307,126,187400,1,0,0:0:0:0:
383,115,187627,1,8,0:0:0:0:
231,141,188082,1,0,0:0:0:0:
155,154,188309,1,8,0:0:0:0:
4,183,188763,1,8,0:0:0:0:
79,168,188991,1,0,0:0:0:0:
151,141,189218,1,0,0:0:0:0:
223,115,189445,1,8,0:0:0:0:
198,305,189900,1,0,0:0:0:0:
178,152,190354,1,0,0:0:0:0:
178,152,190582,1,0,0:0:0:0:
178,152,190809,1,8,0:0:0:0:
178,152,191036,1,0,0:0:0:0:
178,152,191263,1,8,0:0:0:0:
216,43,191604,1,8,0:0:0:0:
231,157,191945,1,0,0:0:0:0:
231,157,192173,1,8,0:0:0:0:
192,48,192513,1,8,0:0:0:0:
274,128,192854,1,0,0:0:0:0:
274,128,193082,1,6,0:0:0:0:
120,133,193536,1,0,0:0:0:0:
273,147,193991,1,0,0:0:0:0:
196,140,194218,1,8,0:0:0:0:
234,143,194332,1,8,0:0:0:0:
234,143,194445,1,8,0:0:0:0:
299,101,194673,1,0,0:0:0:0:
299,101,194900,1,8,0:0:0:0:
226,127,195127,1,0,0:0:0:0:
95,101,195354,1,0,0:0:0:0:
153,153,195582,1,8,0:0:0:0:
235,22,196036,1,8,0:0:0:0:
194,87,196263,1,0,0:0:0:0:
251,138,196491,1,0,0:0:0:0:
308,189,196718,1,6,0:0:0:0:
153,183,197173,1,0,0:0:0:0:
76,181,197400,1,0,0:0:0:0:
152,183,197627,1,6,0:0:0:0:
298,133,198082,1,0,0:0:0:0:
225,158,198309,1,0,0:0:0:0:
225,158,198536,1,6,0:0:0:0:
93,77,198991,1,0,0:0:0:0:
92,76,199445,1,0,0:0:0:0:
162,107,199673,1,8,0:0:0:0:
197,122,199786,1,8,0:0:0:0:
232,137,199900,1,8,0:0:0:0:
275,73,200127,1,0,0:0:0:0:
232,136,200354,1,6,0:0:0:0:
283,281,200809,1,0,0:0:0:0:
257,208,201036,1,0,0:0:0:0:
257,208,201263,1,8,0:0:0:0:
170,80,201718,1,0,0:0:0:0:
213,143,201945,1,0,0:0:0:0:
168,79,202173,1,8,0:0:0:0:
212,141,202400,1,0,0:0:0:0:
212,141,202627,1,0,0:0:0:0:
212,141,202854,1,8,0:0:0:0:
212,141,203082,1,8,0:0:0:0:
212,141,203309,1,0,0:0:0:0:
184,74,203763,1,0,0:0:0:0:
184,74,203991,1,8,0:0:0:0:
260,82,204218,1,8,0:0:0:0:
336,91,204445,1,0,0:0:0:0:
259,82,204673,1,8,0:0:0:0:
335,89,204900,1,0,0:0:0:0:
258,94,205127,1,8,0:0:0:0:
224,195,205582,1,0,0:0:0:0:
224,195,205809,1,8,0:0:0:0:
168,142,206036,1,0,0:0:0:0:
260,45,206263,1,0,0:0:0:0:
242,120,206491,1,8,0:0:0:0:
95,167,206945,1,0,0:0:0:0:
172,161,207173,1,8,0:0:0:0:
95,167,207400,1,0,0:0:0:0:
171,161,207627,1,8,0:0:0:0:
325,161,208082,1,0,0:0:0:0:
248,161,208309,1,0,0:0:0:0:
248,161,208536,1,8,0:0:0:0:
116,80,208991,1,8,0:0:0:0:
181,120,209218,1,0,0:0:0:0:
115,80,209445,1,8,0:0:0:0:
188,56,209673,1,0,0:0:0:0:
258,137,209900,1,8,0:0:0:0:
108,100,210354,1,8,0:0:0:0:
261,107,210581,1,8,0:0:0:0:
222,105,210695,1,8,0:0:0:0:
183,103,210808,1,8,0:0:0:0:
133,43,211036,1,0,0:0:0:0:
208,59,211264,1,8,0:0:0:0:
270,281,211945,1,0,0:0:0:0:
247,207,212173,1,6,0:0:0:0:
200,81,212513,1,8,0:0:0:0:
233,100,212854,1,8,0:0:0:0:
307,137,213082,1,0,0:0:0:0:
197,99,213422,1,8,0:0:0:0:
197,99,213763,1,8,0:0:0:0:
241,36,213991,1,0,0:0:0:0:
197,99,214218,1,8,0:0:0:0:
219,67,214332,1,8,0:0:0:0:
219,67,214445,1,8,0:0:0:0:
284,107,214672,1,8,0:0:0:0:
349,148,214900,1,0,0:0:0:0:
349,148,215127,1,8,0:0:0:0:
195,139,215582,1,0,0:0:0:0:
118,136,215809,1,8,0:0:0:0:
231,112,216150,1,8,0:0:0:0:
342,83,216491,1,0,0:0:0:0:
342,83,216718,1,8,0:0:0:0:
227,101,217059,1,8,0:0:0:0:
190,210,217400,1,0,0:0:0:0:
147,146,217627,1,8,0:0:0:0:
104,81,217854,1,0,0:0:0:0:
125,113,217968,1,0,0:0:0:0:
125,113,218082,1,0,0:0:0:0:
201,111,218309,1,8,0:0:0:0:
201,111,218536,1,0,0:0:0:0:
201,111,218763,1,8,0:0:0:0:
353,136,219218,1,0,0:0:0:0:
277,123,219445,1,8,0:0:0:0:
123,134,219900,1,8,0:0:0:0:
188,93,220127,1,0,0:0:0:0:
188,93,220241,1,0,0:0:0:0:
188,93,220354,1,0,0:0:0:0:
188,93,220582,1,0,0:0:0:0:
188,93,220809,1,8,0:0:0:0:
234,154,221036,1,0,0:0:0:0:
234,154,221263,1,8,0:0:0:0:
79,149,221718,1,0,0:0:0:0:
155,151,221945,1,8,0:0:0:0:
302,106,222400,1,8,0:0:0:0:
228,128,222627,1,0,0:0:0:0:
228,128,222854,1,0,0:0:0:0:
228,128,223082,1,8,0:0:0:0:
106,34,223536,1,0,0:0:0:0:
166,80,223763,1,8,0:0:0:0:
302,150,224218,1,0,0:0:0:0:
264,159,224332,1,0,0:0:0:0:
233,114,224445,1,0,0:0:0:0:
194,108,224672,1,0,0:0:0:0:
233,114,224900,1,8,0:0:0:0:
276,52,225127,1,8,0:0:0:0:
276,52,225354,1,0,0:0:0:0:
213,96,225582,1,8,0:0:0:0:
349,167,226036,1,8,0:0:0:0:
314,149,226150,1,8,0:0:0:0:
314,149,226263,1,8,0:0:0:0:
237,138,226491,1,0,0:0:0:0:
160,127,226718,1,8,0:0:0:0:
178,279,227172,1,8,0:0:0:0:
189,125,227627,1,8,0:0:0:0:
194,48,227854,1,0,0:0:0:0:
189,125,228082,1,8,0:0:0:0:
261,99,228309,1,8,0:0:0:0:
261,99,228536,1,0,0:0:0:0:
115,150,228991,1,0,0:0:0:0:
115,150,229218,1,8,0:0:0:0:
191,152,229445,1,0,0:0:0:0:
185,119,229672,1,8,0:0:0:0:
220,104,229786,1,8,0:0:0:0:
220,104,229899,1,8,0:0:0:0:
194,176,230127,1,0,0:0:0:0:
144,117,230354,1,6,0:0:0:0:
211,154,230582,1,0,0:0:0:0:
292,74,230809,1,0,0:0:0:0:
292,74,231263,1,8,0:0:0:0:
223,109,231491,1,0,0:0:0:0:
154,144,231718,1,0,0:0:0:0:
228,161,231945,1,0,0:0:0:0:
302,178,232172,1,8,0:0:0:0:
234,139,232400,1,0,0:0:0:0:
167,101,232627,1,8,0:0:0:0:
314,57,233082,1,0,0:0:0:0:
256,108,233309,1,8,0:0:0:0:
227,134,233422,1,8,0:0:0:0:
199,160,233536,1,8,0:0:0:0:
240,224,233763,1,0,0:0:0:0:
198,158,233991,1,8,0:0:0:0:
73,67,234445,1,8,0:0:0:0:
222,103,234900,1,8,0:0:0:0:
222,103,235127,1,8,0:0:0:0:
222,103,235354,1,0,0:0:0:0:
222,103,235582,1,0,0:0:0:0:
222,103,235809,1,8,0:0:0:0:
180,251,236263,1,0,0:0:0:0:
223,103,236718,1,8,0:0:0:0:
201,176,236945,1,0,0:0:0:0:
183,250,237172,1,8,0:0:0:0:
209,177,237400,1,0,0:0:0:0:
235,104,237627,1,8,0:0:0:0:
85,68,238082,1,8,0:0:0:0:
221,139,238536,1,8,0:0:0:0:
288,176,238763,1,8,0:0:0:0:
220,138,238991,1,0,0:0:0:0:
227,61,239218,1,0,0:0:0:0:
227,61,239445,1,8,0:0:0:0:
101,150,239900,1,0,0:0:0:0:
251,119,240354,1,8,0:0:0:0:
175,104,240582,1,0,0:0:0:0:
402,90,240809,1,8,0:0:0:0:
364,98,240922,1,8,0:0:0:0:
326,104,241036,1,8,0:0:0:0:
251,124,241263,1,6,0:0:0:0:
200,81,241604,1,8,0:0:0:0:
233,100,241945,1,0,0:0:0:0:
307,137,242173,1,8,0:0:0:0:
197,99,242513,1,8,0:0:0:0:
197,99,242854,1,8,0:0:0:0:
241,36,243082,1,0,0:0:0:0:
197,99,243309,1,8,0:0:0:0:
219,67,243423,1,8,0:0:0:0:
219,67,243536,1,8,0:0:0:0:
284,107,243763,1,8,0:0:0:0:
349,148,243991,1,0,0:0:0:0:
349,148,244218,1,8,0:0:0:0:
195,139,244673,1,0,0:0:0:0:
118,136,244900,1,8,0:0:0:0:
231,112,245241,1,8,0:0:0:0:
342,83,245582,1,0,0:0:0:0:
342,83,245809,1,8,0:0:0:0:
227,101,246150,1,0,0:0:0:0:
190,210,246491,1,0,0:0:0:0:
147,146,246718,1,8,0:0:0:0:
104,81,246945,1,0,0:0:0:0:
125,113,247059,1,0,0:0:0:0:
125,113,247173,1,0,0:0:0:0:
201,111,247400,1,8,0:0:0:0:
201,111,247627,1,0,0:0:0:0:
201,111,247854,1,8,0:0:0:0:
353,136,248309,1,0,0:0:0:0:
277,123,248536,1,8,0:0:0:0:
123,134,248991,1,8,0:0:0:0:
188,93,249218,1,0,0:0:0:0:
188,93,249332,1,0,0:0:0:0:
188,93,249445,1,0,0:0:0:0:
188,93,249673,1,0,0:0:0:0:
188,93,249900,1,8,0:0:0:0:
234,154,250127,1,0,0:0:0:0:
234,154,250354,1,8,0:0:0:0:
79,149,250809,1,0,0:0:0:0:
155,151,251036,1,8,0:0:0:0:
302,106,251491,1,8,0:0:0:0:
228,128,251718,1,0,0:0:0:0:
228,128,251945,1,0,0:0:0:0:
228,128,252173,1,8,0:0:0:0:
106,34,252627,1,0,0:0:0:0:
166,80,252854,1,8,0:0:0:0:
302,150,253309,1,0,0:0:0:0:
264,159,253423,1,0,0:0:0:0:
233,114,253536,1,0,0:0:0:0:
194,108,253763,1,0,0:0:0:0:
233,114,253991,1,8,0:0:0:0:
276,52,254218,1,8,0:0:0:0:
276,52,254445,1,0,0:0:0:0:
213,96,254673,1,8,0:0:0:0:
349,167,255127,1,8,0:0:0:0:
314,149,255241,1,8,0:0:0:0:
314,149,255354,1,8,0:0:0:0:
237,138,255582,1,0,0:0:0:0:
160,127,255809,1,8,0:0:0:0:
178,279,256263,1,8,0:0:0:0:
189,125,256718,1,8,0:0:0:0:
194,48,256945,1,0,0:0:0:0:
189,125,257173,1,8,0:0:0:0:
261,99,257400,1,8,0:0:0:0:
261,99,257627,1,0,0:0:0:0:
115,150,258082,1,0,0:0:0:0:
115,150,258309,1,8,0:0:0:0:
191,152,258536,1,0,0:0:0:0:
185,119,258763,1,8,0:0:0:0:
220,104,258877,1,8,0:0:0:0:
220,104,258990,1,8,0:0:0:0:
194,176,259218,1,0,0:0:0:0:
144,117,259445,1,6,0:0:0:0:
211,154,259673,1,0,0:0:0:0:
292,74,259900,1,0,0:0:0:0:
292,74,260354,1,8,0:0:0:0:
223,109,260582,1,0,0:0:0:0:
154,144,260809,1,0,0:0:0:0:
228,161,261036,1,0,0:0:0:0:
302,178,261263,1,8,0:0:0:0:
234,139,261491,1,0,0:0:0:0:
167,101,261718,1,8,0:0:0:0:
314,57,262173,1,0,0:0:0:0:
256,108,262400,1,8,0:0:0:0:
227,134,262513,1,8,0:0:0:0:
199,160,262627,1,8,0:0:0:0:
240,224,262854,1,0,0:0:0:0:
198,158,263082,1,8,0:0:0:0:
73,67,263536,1,8,0:0:0:0:
222,103,263991,1,8,0:0:0:0:
222,103,264218,1,8,0:0:0:0:
222,103,264445,1,0,0:0:0:0:
222,103,264673,1,0,0:0:0:0:
222,103,264900,1,8,0:0:0:0:
180,251,265354,1,0,0:0:0:0:
223,103,265809,1,8,0:0:0:0:
201,176,266036,1,0,0:0:0:0:
183,250,266263,1,8,0:0:0:0:
209,177,266491,1,0,0:0:0:0:
235,104,266718,1,8,0:0:0:0:
85,68,267173,1,8,0:0:0:0:
221,139,267627,1,8,0:0:0:0:
288,176,267854,1,8,0:0:0:0:
220,138,268082,1,0,0:0:0:0:
227,61,268309,1,0,0:0:0:0:
227,61,268536,1,8,0:0:0:0:
101,150,268991,1,0,0:0:0:0:
251,119,269445,1,8,0:0:0:0:
175,104,269673,1,0,0:0:0:0:
402,90,269900,1,8,0:0:0:0:
364,98,270013,1,8,0:0:0:0:
326,104,270127,1,8,0:0:0:0:
249,98,270354,1,6,0:0:0:0:
139,135,270809,1,8,0:0:0:0:
280,196,271263,1,0,0:0:0:0:
280,196,271718,1,8,0:0:0:0:
280,196,272173,1,0,0:0:0:0:
280,196,272628,1,8,0:0:0:0:
159,101,273082,1,0,0:0:0:0:
98,53,273309,1,0,0:0:0:0:
158,100,273536,1,8,0:0:0:0:
280,196,273991,1,0,0:0:0:0:
280,196,274446,1,8,0:0:0:0:
280,196,274901,1,0,0:0:0:0:
280,196,275356,1,8,0:0:0:0:
290,42,275809,1,0,0:0:0:0:
280,195,276263,1,8,0:0:0:0:
159,101,276718,1,0,0:0:0:0:
98,53,276945,1,0,0:0:0:0:
158,100,277172,1,8,0:0:0:0:
280,196,277627,1,0,0:0:0:0:
280,196,278082,1,8,0:0:0:0:
280,196,278537,1,0,0:0:0:0:
280,196,278992,1,8,0:0:0:0:
290,42,279445,1,0,0:0:0:0:
280,195,279899,1,8,0:0:0:0:
159,101,280354,1,0,0:0:0:0:
98,53,280581,1,0,0:0:0:0:
158,100,280808,1,8,0:0:0:0:
280,196,281263,1,0,0:0:0:0:
280,196,281718,1,8,0:0:0:0:
280,196,282173,1,0,0:0:0:0:
280,196,282628,1,8,0:0:0:0:
290,42,283081,1,0,0:0:0:0:
280,195,283535,1,8,0:0:0:0:
159,101,283990,1,0,0:0:0:0:
98,53,284217,1,0,0:0:0:0:
158,100,284444,1,8,0:0:0:0:
364,121,284900,1,0,0:0:0:0:
211,100,285355,1,0,0:0:0:0:
134,89,285582,1,0,0:0:0:0:
57,80,285809,1,8,0:0:0:0:
204,124,286264,1,8,0:0:0:0:
277,147,286491,1,0,0:0:0:0:
277,147,286718,1,8,0:0:0:0:
204,124,287173,1,8,0:0:0:0:
204,124,287400,1,0,0:0:0:0:
204,124,287627,1,0,0:0:0:0:
204,124,288082,1,8,0:0:0:0:
142,265,288536,1,0,0:0:0:0:
204,123,288991,1,8,0:0:0:0:
357,130,289446,1,0,0:0:0:0:
356,130,289900,1,8,0:0:0:0:
275,84,290355,1,0,0:0:0:0:
133,144,290809,1,8,0:0:0:0:
137,160,291264,1,0,0:0:0:0:
212,146,291491,1,0,0:0:0:0:
212,146,291718,1,8,0:0:0:0:
307,25,292173,1,8,0:0:0:0:
215,148,292627,1,8,0:0:0:0:
263,87,292855,1,0,0:0:0:0:
215,147,293082,1,8,0:0:0:0:
363,107,293536,1,0,0:0:0:0:
363,107,293764,1,8,0:0:0:0:
363,107,293991,1,8,0:0:0:0:
213,142,294446,1,8,0:0:0:0:
213,142,294673,1,0,0:0:0:0:
213,142,294900,1,8,0:0:0:0:
213,142,295355,1,8,0:0:0:0:
138,7,295809,1,0,0:0:0:0:
233,128,296264,1,8,0:0:0:0:
106,40,296718,1,0,0:0:0:0:
169,84,297173,1,8,0:0:0:0:
275,84,297627,1,0,0:0:0:0:
133,144,298081,1,8,0:0:0:0:
137,160,298536,1,0,0:0:0:0:
212,146,298763,1,8,0:0:0:0:
212,146,298990,1,8,0:0:0:0:
63,104,299445,1,8,0:0:0:0:
212,66,299900,1,0,0:0:0:0:
137,85,300127,1,0,0:0:0:0:
212,68,300354,1,8,0:0:0:0:
163,214,300809,1,8,0:0:0:0:
139,287,301036,1,0,0:0:0:0:
139,287,301263,1,8,0:0:0:0:
188,140,301718,1,8,0:0:0:0:
213,67,301945,1,0,0:0:0:0:
188,140,302173,1,8,0:0:0:0:
213,67,302400,1,0,0:0:0:0:
188,139,302627,1,8,0:0:0:0:
215,187,303082,1,0,0:0:0:0:
215,187,303309,1,0,0:0:0:0:
215,187,303536,1,8,0:0:0:0:
204,110,303991,1,0,0:0:0:0:
348,56,304218,1,0,0:0:0:0:
276,83,304445,1,8,0:0:0:0:
275,84,304900,1,0,0:0:0:0:
204,114,305127,1,0,0:0:0:0:
133,144,305354,1,8,0:0:0:0:
62,175,305582,1,0,0:0:0:0:
137,160,305809,1,0,0:0:0:0:
212,146,306036,1,0,0:0:0:0:
212,146,306263,1,8,0:0:0:0:
215,187,306718,1,8,0:0:0:0:
215,187,307173,1,8,0:0:0:0:
204,110,307400,1,0,0:0:0:0:
215,187,307627,1,0,0:0:0:0:
276,83,308082,1,8,0:0:0:0:
275,84,308309,1,0,0:0:0:0:
133,144,308536,1,8,0:0:0:0:
62,175,308991,1,0,0:0:0:0:
137,160,309218,1,0,0:0:0:0:
212,146,309445,1,8,0:0:0:0:
212,146,309673,1,0,0:0:0:0:
149,100,309900,1,8,0:0:0:0:
215,187,310354,1,0,0:0:0:0:
215,187,310581,1,0,0:0:0:0:
215,187,310808,1,8,0:0:0:0:
204,110,311263,1,0,0:0:0:0:
348,56,311490,1,0,0:0:0:0:
276,83,311717,1,8,0:0:0:0:
275,84,312172,1,0,0:0:0:0:
204,114,312399,1,0,0:0:0:0:
133,144,312626,1,8,0:0:0:0:
62,175,312854,1,0,0:0:0:0:
137,160,313081,1,0,0:0:0:0:
212,146,313308,1,0,0:0:0:0:
212,146,313535,1,8,0:0:0:0:
215,187,313991,1,0,0:0:0:0:
215,187,314445,1,8,0:0:0:0:
204,110,314900,1,0,0:0:0:0:
276,83,315354,1,8,0:0:0:0:
275,84,315809,1,0,0:0:0:0:
133,144,316263,1,8,0:0:0:0:
137,160,316718,1,0,0:0:0:0:
212,146,316945,1,0,0:0:0:0:
212,146,317172,1,8,0:0:0:0:
215,187,317627,1,0,0:0:0:0:
215,187,318081,1,8,0:0:0:0:
204,110,318536,1,0,0:0:0:0:
276,83,318990,1,8,0:0:0:0:
275,84,319445,1,0,0:0:0:0:
133,144,319899,1,8,0:0:0:0:
137,160,320354,1,0,0:0:0:0:
212,146,320809,1,0,0:0:0:0:
215,187,321263,1,8,0:0:0:0:
215,187,321718,1,8,0:0:0:0:
204,110,322173,1,0,0:0:0:0:
276,83,322627,1,8,0:0:0:0:
275,84,323082,1,0,0:0:0:0:
133,144,323536,1,8,0:0:0:0:
137,160,323991,1,0,0:0:0:0:
212,146,324218,1,0,0:0:0:0:
212,146,324445,1,8,0:0:0:0:
205,91,324900,1,0,0:0:0:0:
205,91,325354,1,8,0:0:0:0:
205,91,325809,1,0,0:0:0:0:
205,91,326263,1,8,0:0:0:0:
55,129,326718,1,0,0:0:0:0:
209,125,327173,1,8,0:0:0:0:
55,114,327627,1,0,0:0:0:0:
130,127,327854,1,0,0:0:0:0:
130,127,328082,1,8,0:0:0:0:
206,128,328309,1,0,0:0:0:0:
258,71,328536,1,8,0:0:0:0:
