osu file format v14

[General]
AudioFilename: audio.mp3
AudioLeadIn: 0
PreviewTime: 212173
Countdown: 1
SampleSet: None
StackLeniency: 0.7
Mode: 1
LetterboxInBreaks: 0
WidescreenStoryboard: 1

[Editor]
DistanceSpacing: 1.1
BeatDivisor: 4
GridSize: 4
TimelineZoom: 1

[Metadata]
Title:Aoi Shiori
TitleUnicode:青い栞
Artist:Galileo Galilei
ArtistUnicode:ガリレオガリレイ
Creator:Jorkseljund
Version:Futsuu
Source:Ano Hi Mita Hana no Namaeo wo Bokutachi wa Mada Shiranai
Tags:
BeatmapID:1879689
BeatmapSetID:899894

[Difficulty]
HPDrainRate:7
CircleSize:4
OverallDifficulty:4
ApproachRate:5
SliderMultiplier:1.4
SliderTickRate:1

[Events]
//Background and Video events
0,0,"647054.jpg",0,0
//Break Periods
//Storyboard Layer 0 (Background)
//Storyboard Layer 1 (Fail)
//Storyboard Layer 2 (Pass)
//Storyboard Layer 3 (Foreground)
//Storyboard Sound Samples

[TimingPoints]
355,454.545454545455,4,2,0,100,1,0
69445,-100,4,2,0,100,0,1
87173,-100,4,2,0,100,0,0
87627,-100,4,2,0,100,0,1
98536,-100,4,2,0,100,0,0
212173,454.545454545455,4,2,0,100,1,0
212173,-100,4,2,0,100,0,1
229900,-100,4,2,0,100,0,0
230355,-100,4,2,0,100,0,1
240809,-100,4,2,0,100,0,0
241264,-100,4,2,0,100,0,1
258991,-100,4,2,0,100,0,0
259445,-100,4,2,0,100,0,1
270355,-100,4,2,0,100,0,0

[HitObjects]
207,134,355,5,0,0:0:0:0:
213,105,1264,1,0,0:0:0:0:
221,71,2173,1,0,0:0:0:0:
145,77,3082,1,0,0:0:0:0:
145,77,3309,1,0,0:0:0:0:
145,77,3536,1,8,0:0:0:0:
207,134,3991,1,0,0:0:0:0:
213,105,4900,1,0,0:0:0:0:
364,126,5809,1,0,0:0:0:0:
56,146,6718,1,0,0:0:0:0:
132,141,6945,1,0,0:0:0:0:
209,136,7173,1,8,0:0:0:0:
207,134,7627,1,4,0:0:0:0:
61,85,8081,1,8,0:0:0:0:
213,105,8536,1,0,0:0:0:0:
365,127,8990,1,8,0:0:0:0:
221,71,9445,1,0,0:0:0:0:
364,126,9899,1,8,0:0:0:0:
222,187,10355,1,0,0:0:0:0:
297,199,10582,1,0,0:0:0:0:
222,187,10809,1,8,0:0:0:0:
207,134,11264,1,0,0:0:0:0:
61,85,11718,1,8,0:0:0:0:
213,105,12173,1,0,0:0:0:0:
365,127,12627,1,8,0:0:0:0:
221,71,13082,1,0,0:0:0:0:
364,126,13536,1,8,0:0:0:0:
213,158,13991,1,0,0:0:0:0:
200,82,14218,1,0,0:0:0:0:
62,191,14445,1,8,0:0:0:0:
207,134,14900,1,0,0:0:0:0:
61,85,15354,1,8,0:0:0:0:
213,105,15809,1,0,0:0:0:0:
365,127,16263,1,8,0:0:0:0:
221,71,16718,1,0,0:0:0:0:
364,126,17172,1,8,0:0:0:0:
220,182,17627,1,0,0:0:0:0:
282,136,17855,1,0,0:0:0:0:
220,182,18082,1,8,0:0:0:0:
207,134,18536,1,0,0:0:0:0:
61,85,18990,1,8,0:0:0:0:
213,105,19445,1,0,0:0:0:0:
365,127,19899,1,8,0:0:0:0:
221,71,20354,1,0,0:0:0:0:
364,126,20808,1,8,0:0:0:0:
210,113,21264,1,0,0:0:0:0:
137,138,21491,1,8,0:0:0:0:
65,164,21718,1,8,0:0:0:0:
137,138,22173,1,6,0:0:0:0:
290,130,22627,1,0,0:0:0:0:
290,130,22855,1,0,0:0:0:0:
290,130,23082,1,8,0:0:0:0:
139,159,23536,1,8,0:0:0:0:
186,98,23764,1,0,0:0:0:0:
290,130,23991,1,0,0:0:0:0:
139,159,24445,1,0,0:0:0:0:
443,108,25355,1,0,0:0:0:0:
291,133,25809,1,8,0:0:0:0:
92,14,26491,1,0,0:0:0:0:
224,92,26945,1,0,0:0:0:0:
224,92,27627,1,8,0:0:0:0:
147,226,28082,1,0,0:0:0:0:
147,226,28309,1,0,0:0:0:0:
224,92,28536,1,0,0:0:0:0:
297,97,29445,1,8,0:0:0:0:
148,136,29900,1,0,0:0:0:0:
148,136,30127,1,0,0:0:0:0:
148,136,30355,1,8,0:0:0:0:
148,136,30809,1,0,0:0:0:0:
148,136,31036,1,0,0:0:0:0:
148,136,31264,1,0,0:0:0:0:
148,136,31718,1,0,0:0:0:0:
454,165,32627,1,0,0:0:0:0:
378,146,32855,1,0,0:0:0:0:
300,150,33082,1,8,0:0:0:0:
69,129,33764,1,0,0:0:0:0:
222,143,34218,1,0,0:0:0:0:
202,116,34900,1,8,0:0:0:0:
321,213,35355,1,0,0:0:0:0:
261,164,35582,1,0,0:0:0:0:
201,115,35809,1,8,0:0:0:0:
340,179,36264,1,0,0:0:0:0:
200,114,36718,1,4,0:0:0:0:
64,81,37173,1,0,0:0:0:0:
64,81,37400,1,0,0:0:0:0:
455,286,37627,1,8,0:0:0:0:
317,216,38082,1,0,0:0:0:0:
258,166,38309,1,0,0:0:0:0:
180,146,38536,1,8,0:0:0:0:
180,146,38991,1,8,0:0:0:0:
179,145,39900,1,8,0:0:0:0:
309,227,40355,1,0,0:0:0:0:
42,73,41264,1,0,0:0:0:0:
308,227,42173,1,0,0:0:0:0:
218,102,42627,1,8,0:0:0:0:
308,226,43082,1,0,0:0:0:0:
259,166,43309,1,0,0:0:0:0:
330,257,43536,1,8,0:0:0:0:
206,165,43991,1,8,0:0:0:0:
217,119,44900,1,0,0:0:0:0:
504,9,45809,1,0,0:0:0:0:
319,63,46264,1,0,0:0:0:0:
288,91,46718,1,8,0:0:0:0:
317,161,46945,1,0,0:0:0:0:
139,131,47173,1,0,0:0:0:0:
288,91,47627,1,0,0:0:0:0:
127,140,48536,1,0,0:0:0:0:
278,169,48991,1,0,0:0:0:0:
237,103,49218,1,0,0:0:0:0:
133,115,49445,1,8,0:0:0:0:
30,103,49900,1,0,0:0:0:0:
30,103,50127,1,8,0:0:0:0:
397,273,50355,1,0,0:0:0:0:
264,194,50809,1,0,0:0:0:0:
198,154,51036,1,0,0:0:0:0:
198,154,51264,1,6,0:0:0:0:
105,182,52173,1,0,0:0:0:0:
329,127,52855,1,0,0:0:0:0:
254,147,53082,1,8,0:0:0:0:
100,139,53536,1,0,0:0:0:0:
100,139,53764,1,8,0:0:0:0:
252,155,54445,1,0,0:0:0:0:
328,163,54672,1,0,0:0:0:0:
328,163,54900,1,12,0:0:0:0:
97,168,55582,1,0,0:0:0:0:
173,166,55809,1,12,0:0:0:0:
403,174,56491,1,0,0:0:0:0:
326,171,56718,1,12,0:0:0:0:
19,141,57627,1,0,0:0:0:0:
95,131,57855,1,0,0:0:0:0:
172,156,58082,1,8,0:0:0:0:
289,57,58536,1,0,0:0:0:0:
122,102,59445,1,8,0:0:0:0:
195,120,60355,1,8,0:0:0:0:
137,68,60582,1,0,0:0:0:0:
271,137,61036,1,0,0:0:0:0:
195,120,61263,1,8,0:0:0:0:
270,136,61491,1,0,0:0:0:0:
42,96,62173,1,0,0:0:0:0:
195,103,62627,1,0,0:0:0:0:
348,110,63082,1,8,0:0:0:0:
197,79,63536,1,0,0:0:0:0:
347,111,63991,1,8,0:0:0:0:
194,128,64445,1,8,0:0:0:0:
121,62,64673,1,8,0:0:0:0:
238,260,65355,1,0,0:0:0:0:
215,186,65582,1,0,0:0:0:0:
159,127,65809,1,8,0:0:0:0:
309,93,66264,1,0,0:0:0:0:
215,186,66491,1,0,0:0:0:0:
460,65,66718,1,8,0:0:0:0:
323,136,67173,1,0,0:0:0:0:
254,171,67400,1,0,0:0:0:0:
186,207,67627,1,8,0:0:0:0:
162,54,68082,1,8,0:0:0:0:
186,205,68536,1,0,0:0:0:0:
162,51,68991,1,8,0:0:0:0:
173,127,69218,1,0,0:0:0:0:
249,119,69445,1,6,0:0:0:0:
386,49,69900,1,0,0:0:0:0:
317,84,70127,1,0,0:0:0:0:
317,84,70355,1,8,0:0:0:0:
181,157,70809,1,8,0:0:0:0:
114,194,71036,1,0,0:0:0:0:
182,158,71264,1,0,0:0:0:0:
321,93,71718,1,0,0:0:0:0:
321,93,71945,1,8,0:0:0:0:
321,93,72400,1,0,0:0:0:0:
94,138,73082,1,8,0:0:0:0:
245,109,73536,1,0,0:0:0:0:
169,123,73764,1,8,0:0:0:0:
169,123,73991,1,8,0:0:0:0:
318,159,74445,1,0,0:0:0:0:
392,178,74673,1,0,0:0:0:0:
317,158,74900,1,8,0:0:0:0:
162,158,75355,1,0,0:0:0:0:
162,158,75582,1,8,0:0:0:0:
162,158,76036,1,8,0:0:0:0:
314,139,76491,1,0,0:0:0:0:
237,148,76718,1,0,0:0:0:0:
90,99,77173,1,8,0:0:0:0:
237,141,77627,1,0,0:0:0:0:
310,163,77855,1,0,0:0:0:0:
236,141,78082,1,8,0:0:0:0:
110,52,78536,1,8,0:0:0:0:
211,167,78991,1,0,0:0:0:0:
211,167,79218,1,8,0:0:0:0:
260,107,79900,1,0,0:0:0:0:
273,182,80127,1,0,0:0:0:0:
260,107,80355,1,8,0:0:0:0:
223,256,80809,1,0,0:0:0:0:
241,181,81036,1,8,0:0:0:0:
306,77,81718,1,0,0:0:0:0:
306,77,81945,1,0,0:0:0:0:
306,77,82173,1,8,0:0:0:0:
119,213,82855,1,8,0:0:0:0:
347,179,83536,1,8,0:0:0:0:
347,179,83764,1,0,0:0:0:0:
347,179,83991,1,12,0:0:0:0:
202,231,84445,1,0,0:0:0:0:
347,179,84900,1,0,0:0:0:0:
197,140,85355,1,0,0:0:0:0:
269,118,85582,1,0,0:0:0:0:
196,140,85809,1,0,0:0:0:0:
305,30,86264,1,0,0:0:0:0:
122,122,86491,1,8,0:0:0:0:
273,146,86945,1,8,0:0:0:0:
349,158,87173,1,0,0:0:0:0:
273,146,87400,1,0,0:0:0:0:
348,158,87627,1,6,0:0:0:0:
193,164,88082,1,0,0:0:0:0:
175,11,88536,1,8,0:0:0:0:
248,146,88991,1,0,0:0:0:0:
211,78,89218,1,0,0:0:0:0:
211,78,89445,1,8,0:0:0:0:
211,78,89900,1,0,0:0:0:0:
177,228,90355,1,8,0:0:0:0:
211,78,90582,1,0,0:0:0:0:
211,78,90809,1,8,0:0:0:0:
285,212,91264,1,0,0:0:0:0:
285,212,91718,1,0,0:0:0:0:
143,149,92173,1,0,0:0:0:0:
72,119,92400,1,0,0:0:0:0:
142,148,92627,1,8,0:0:0:0:
295,161,93082,1,0,0:0:0:0:
141,150,93536,1,8,0:0:0:0:
295,144,93991,1,8,0:0:0:0:
371,141,94218,1,0,0:0:0:0:
371,141,94445,1,8,0:0:0:0:
221,177,94900,1,0,0:0:0:0:
221,177,95355,1,0,0:0:0:0:
204,24,95809,1,0,0:0:0:0:
251,170,96264,1,0,0:0:0:0:
275,242,96491,1,8,0:0:0:0:
250,169,96718,1,0,0:0:0:0:
125,77,97173,1,0,0:0:0:0:
125,77,97627,1,0,0:0:0:0:
121,130,97855,1,0,0:0:0:0:
121,130,98309,1,0,0:0:0:0:
196,142,98536,1,8,0:0:0:0:
481,257,99445,1,0,0:0:0:0:
196,137,100355,1,0,0:0:0:0:
156,120,101264,1,0,0:0:0:0:
156,120,101491,1,0,0:0:0:0:
156,120,101718,1,8,0:0:0:0:
308,139,102173,1,0,0:0:0:0:
481,257,103082,1,0,0:0:0:0:
196,137,103992,1,0,0:0:0:0:
156,120,104901,1,0,0:0:0:0:
156,120,105128,1,0,0:0:0:0:
156,120,105355,1,8,0:0:0:0:
277,26,105809,1,6,0:0:0:0:
217,168,106264,1,0,0:0:0:0:
157,309,106718,1,8,0:0:0:0:
263,197,107173,1,0,0:0:0:0:
316,142,107400,1,0,0:0:0:0:
316,142,107627,1,8,0:0:0:0:
166,104,108082,1,8,0:0:0:0:
90,87,108309,1,0,0:0:0:0:
165,103,108536,1,0,0:0:0:0:
309,155,108991,1,8,0:0:0:0:
189,58,109445,1,0,0:0:0:0:
426,254,110355,1,0,0:0:0:0:
318,143,110809,1,8,0:0:0:0:
188,57,111264,1,0,0:0:0:0:
424,254,112173,1,0,0:0:0:0:
359,211,112400,1,0,0:0:0:0:
294,168,112627,1,8,0:0:0:0:
143,132,113082,1,0,0:0:0:0:
89,120,113536,1,0,0:0:0:0:
89,120,113991,1,8,0:0:0:0:
233,171,114445,1,0,0:0:0:0:
160,145,114673,1,8,0:0:0:0:
232,171,114900,1,0,0:0:0:0:
213,17,115355,1,8,0:0:0:0:
222,93,115582,1,0,0:0:0:0:
222,93,115809,1,8,0:0:0:0:
363,154,116264,1,8,0:0:0:0:
209,168,116718,1,0,0:0:0:0:
246,121,117627,1,0,0:0:0:0:
246,121,118082,1,8,0:0:0:0:
246,121,118536,1,0,0:0:0:0:
168,167,119445,1,0,0:0:0:0:
168,167,119673,1,0,0:0:0:0:
168,167,119900,1,8,0:0:0:0:
319,137,120355,1,6,0:0:0:0:
470,108,120809,1,0,0:0:0:0:
318,137,121264,1,8,0:0:0:0:
166,140,121718,1,0,0:0:0:0:
89,142,121945,1,0,0:0:0:0:
89,142,122173,1,8,0:0:0:0:
241,164,122627,1,8,0:0:0:0:
241,164,122855,1,0,0:0:0:0:
279,170,123082,1,8,0:0:0:0:
126,150,123536,1,8,0:0:0:0:
279,157,123991,1,0,0:0:0:0:
301,138,124900,1,0,0:0:0:0:
301,138,125355,1,8,0:0:0:0:
301,138,125809,1,0,0:0:0:0:
144,134,126718,1,0,0:0:0:0:
144,134,126945,1,0,0:0:0:0:
144,134,127173,1,8,0:0:0:0:
296,118,127627,1,0,0:0:0:0:
296,118,128082,1,0,0:0:0:0:
296,118,128536,1,8,0:0:0:0:
249,264,128991,1,8,0:0:0:0:
272,190,129218,1,0,0:0:0:0:
272,190,129445,1,0,0:0:0:0:
154,89,129900,1,0,0:0:0:0:
212,138,130127,1,0,0:0:0:0:
212,138,130355,1,8,0:0:0:0:
365,143,130809,1,0,0:0:0:0:
210,147,131264,1,0,0:0:0:0:
178,148,132173,1,0,0:0:0:0:
178,148,132627,1,8,0:0:0:0:
178,148,133082,1,0,0:0:0:0:
470,244,133991,1,0,0:0:0:0:
396,220,134218,1,8,0:0:0:0:
322,196,134445,1,8,0:0:0:0:
178,139,134900,1,6,0:0:0:0:
330,122,135354,1,0,0:0:0:0:
253,131,135809,1,8,0:0:0:0:
99,141,136264,1,0,0:0:0:0:
175,136,136491,1,0,0:0:0:0:
175,136,136718,1,8,0:0:0:0:
294,233,137173,1,0,0:0:0:0:
234,184,137400,1,8,0:0:0:0:
174,135,137627,1,0,0:0:0:0:
322,92,138082,1,8,0:0:0:0:
199,185,138536,1,0,0:0:0:0:
267,47,138991,1,0,0:0:0:0:
447,3,139445,1,8,0:0:0:0:
322,94,139900,1,8,0:0:0:0:
319,170,140127,1,0,0:0:0:0:
198,185,140355,1,8,0:0:0:0:
346,226,140809,1,0,0:0:0:0:
271,206,141036,1,0,0:0:0:0:
345,226,141264,1,8,0:0:0:0:
242,111,141718,1,8,0:0:0:0:
250,264,142173,1,0,0:0:0:0:
242,110,142627,1,0,0:0:0:0:
267,37,142855,1,8,0:0:0:0:
250,263,143082,1,0,0:0:0:0:
268,110,143536,1,0,0:0:0:0:
268,110,143764,1,0,0:0:0:0:
268,110,143991,1,8,0:0:0:0:
124,166,144445,1,8,0:0:0:0:
196,138,144673,1,0,0:0:0:0:
267,110,144900,1,8,0:0:0:0:
112,107,145355,1,0,0:0:0:0:
263,134,145809,1,8,0:0:0:0:
206,185,146036,1,0,0:0:0:0:
414,160,146264,1,0,0:0:0:0:
262,134,146718,1,8,0:0:0:0:
139,227,147173,1,0,0:0:0:0:
139,227,147400,1,0,0:0:0:0:
139,227,147627,1,8,0:0:0:0:
238,108,148082,1,0,0:0:0:0:
189,167,148309,1,0,0:0:0:0:
189,167,148536,1,8,0:0:0:0:
339,202,148991,1,0,0:0:0:0:
339,202,149445,1,8,0:0:0:0:
338,203,150355,1,0,0:0:0:0:
199,135,150809,1,0,0:0:0:0:
349,167,151264,1,8,0:0:0:0:
41,152,152173,1,8,0:0:0:0:
155,167,152400,1,0,0:0:0:0:
155,167,152627,1,8,0:0:0:0:
262,56,153082,1,0,0:0:0:0:
48,278,153991,1,0,0:0:0:0:
154,167,154445,1,0,0:0:0:0:
231,161,154900,1,8,0:0:0:0:
305,152,155809,1,0,0:0:0:0:
305,152,156264,1,0,0:0:0:0:
305,152,156491,1,0,0:0:0:0:
228,156,156718,1,6,0:0:0:0:
116,152,157627,1,0,0:0:0:0:
423,159,158536,1,0,0:0:0:0:
268,155,158991,1,8,0:0:0:0:
114,155,159445,1,0,0:0:0:0:
191,155,159673,1,0,0:0:0:0:
267,155,159900,1,8,0:0:0:0:
223,7,160355,1,0,0:0:0:0:
116,152,161264,1,0,0:0:0:0:
423,159,162173,1,0,0:0:0:0:
268,155,162628,1,8,0:0:0:0:
114,155,163082,1,0,0:0:0:0:
191,155,163310,1,0,0:0:0:0:
267,155,163537,1,8,0:0:0:0:
132,80,163991,1,6,0:0:0:0:
424,175,164900,1,8,0:0:0:0:
125,101,165809,1,0,0:0:0:0:
125,101,166264,1,0,0:0:0:0:
389,258,167173,1,0,0:0:0:0:
256,179,167627,1,8,0:0:0:0:
47,79,168309,1,0,0:0:0:0:
185,146,168764,1,0,0:0:0:0:
281,25,169218,1,0,0:0:0:0:
233,85,169445,1,8,0:0:0:0:
387,256,170127,1,0,0:0:0:0:
335,198,170355,1,8,0:0:0:0:
36,120,171264,1,0,0:0:0:0:
342,148,172173,1,8,0:0:0:0:
200,207,172627,1,0,0:0:0:0:
343,151,173082,1,8,0:0:0:0:
199,206,173536,1,8,0:0:0:0:
213,140,174445,1,0,0:0:0:0:
213,140,174900,1,8,0:0:0:0:
428,222,175582,1,0,0:0:0:0:
284,167,176036,1,0,0:0:0:0:
53,185,176718,1,8,0:0:0:0:
273,114,177400,1,0,0:0:0:0:
199,137,177627,1,8,0:0:0:0:
332,60,178082,1,0,0:0:0:0:
199,137,178536,1,6,0:0:0:0:
357,147,178991,1,0,0:0:0:0:
433,151,179218,1,0,0:0:0:0:
433,151,179445,1,8,0:0:0:0:
279,141,179900,1,0,0:0:0:0:
202,136,180127,1,0,0:0:0:0:
124,131,180355,1,8,0:0:0:0:
279,141,180809,1,8,0:0:0:0:
212,142,181718,1,8,0:0:0:0:
245,67,182173,1,0,0:0:0:0:
245,67,182627,1,8,0:0:0:0:
252,220,183082,1,0,0:0:0:0:
246,66,183536,1,8,0:0:0:0:
306,207,183991,1,0,0:0:0:0:
306,206,184900,1,0,0:0:0:0:
275,135,185127,1,0,0:0:0:0:
275,135,185355,1,8,0:0:0:0:
275,135,185809,1,8,0:0:0:0:
243,127,186718,1,0,0:0:0:0:
243,127,187173,1,8,0:0:0:0:
243,127,187400,1,8,0:0:0:0:
243,127,187627,1,0,0:0:0:0:
89,139,188082,1,0,0:0:0:0:
165,133,188309,1,8,0:0:0:0:
11,146,188764,1,8,0:0:0:0:
87,139,188991,1,0,0:0:0:0:
239,158,189445,1,0,0:0:0:0:
149,135,190355,1,0,0:0:0:0:
149,135,190809,1,0,0:0:0:0:
149,135,191036,1,0,0:0:0:0:
149,135,191264,1,8,0:0:0:0:
296,99,191718,1,0,0:0:0:0:
221,117,191945,1,8,0:0:0:0:
221,117,192173,1,8,0:0:0:0:
370,82,192627,1,8,0:0:0:0:
294,99,192855,1,0,0:0:0:0:
219,118,193082,1,6,0:0:0:0:
176,160,193991,1,0,0:0:0:0:
397,92,194673,1,0,0:0:0:0:
323,114,194900,1,8,0:0:0:0:
176,160,195355,1,0,0:0:0:0:
139,172,195582,1,8,0:0:0:0:
366,129,196264,1,0,0:0:0:0:
290,144,196491,1,0,0:0:0:0:
365,129,196718,1,12,0:0:0:0:
137,167,197400,1,0,0:0:0:0:
212,154,197627,1,12,0:0:0:0:
212,154,198309,1,0,0:0:0:0:
212,154,198536,1,12,0:0:0:0:
212,154,199445,1,0,0:0:0:0:
212,154,199673,1,0,0:0:0:0:
212,154,199900,1,8,0:0:0:0:
329,54,200355,1,0,0:0:0:0:
133,291,201264,1,0,0:0:0:0:
53,180,202173,1,8,0:0:0:0:
236,42,202400,1,0,0:0:0:0:
287,187,202855,1,0,0:0:0:0:
287,187,203082,1,8,0:0:0:0:
287,187,203309,1,0,0:0:0:0:
42,96,203991,1,0,0:0:0:0:
195,103,204445,1,0,0:0:0:0:
348,110,204900,1,8,0:0:0:0:
197,79,205354,1,0,0:0:0:0:
347,111,205809,1,8,0:0:0:0:
194,128,206263,1,8,0:0:0:0:
121,62,206491,1,8,0:0:0:0:
238,260,207173,1,0,0:0:0:0:
215,186,207400,1,0,0:0:0:0:
159,127,207627,1,8,0:0:0:0:
309,93,208082,1,0,0:0:0:0:
215,186,208309,1,0,0:0:0:0:
460,65,208536,1,8,0:0:0:0:
323,136,208991,1,0,0:0:0:0:
254,171,209218,1,0,0:0:0:0:
186,207,209445,1,8,0:0:0:0:
162,54,209900,1,8,0:0:0:0:
186,205,210354,1,0,0:0:0:0:
162,51,210809,1,8,0:0:0:0:
173,127,211036,1,0,0:0:0:0:
249,119,211263,1,0,0:0:0:0:
476,327,212173,1,6,0:0:0:0:
386,49,212627,1,0,0:0:0:0:
317,84,212854,1,0,0:0:0:0:
317,84,213082,1,8,0:0:0:0:
181,157,213536,1,8,0:0:0:0:
114,194,213763,1,0,0:0:0:0:
182,158,213991,1,0,0:0:0:0:
321,93,214445,1,0,0:0:0:0:
321,93,214672,1,8,0:0:0:0:
321,93,215127,1,8,0:0:0:0:
94,138,215809,1,0,0:0:0:0:
245,109,216263,1,0,0:0:0:0:
169,123,216491,1,0,0:0:0:0:
169,123,216718,1,8,0:0:0:0:
318,159,217172,1,8,0:0:0:0:
392,178,217400,1,0,0:0:0:0:
317,158,217627,1,8,0:0:0:0:
162,158,218082,1,0,0:0:0:0:
162,158,218309,1,8,0:0:0:0:
162,158,218763,1,8,0:0:0:0:
314,139,219218,1,0,0:0:0:0:
237,148,219445,1,0,0:0:0:0:
90,99,219900,1,8,0:0:0:0:
237,141,220354,1,0,0:0:0:0:
310,163,220582,1,0,0:0:0:0:
236,141,220809,1,8,0:0:0:0:
110,52,221263,1,8,0:0:0:0:
211,167,221718,1,0,0:0:0:0:
211,167,221945,1,8,0:0:0:0:
260,107,222627,1,0,0:0:0:0:
273,182,222854,1,0,0:0:0:0:
260,107,223082,1,8,0:0:0:0:
223,256,223536,1,0,0:0:0:0:
241,181,223763,1,8,0:0:0:0:
306,77,224445,1,0,0:0:0:0:
306,77,224672,1,0,0:0:0:0:
306,77,224900,1,8,0:0:0:0:
119,213,225582,1,8,0:0:0:0:
347,179,226263,1,8,0:0:0:0:
347,179,226491,1,0,0:0:0:0:
347,179,226718,1,12,0:0:0:0:
202,231,227172,1,0,0:0:0:0:
347,179,227627,1,0,0:0:0:0:
197,140,228082,1,0,0:0:0:0:
269,118,228309,1,0,0:0:0:0:
196,140,228536,1,0,0:0:0:0:
305,30,228991,1,0,0:0:0:0:
122,122,229218,1,8,0:0:0:0:
273,146,229672,1,8,0:0:0:0:
349,158,229900,1,0,0:0:0:0:
273,146,230127,1,0,0:0:0:0:
348,158,230354,1,6,0:0:0:0:
193,164,230809,1,0,0:0:0:0:
175,11,231263,1,8,0:0:0:0:
248,146,231718,1,0,0:0:0:0:
211,78,231945,1,0,0:0:0:0:
211,78,232172,1,8,0:0:0:0:
211,78,232627,1,0,0:0:0:0:
177,228,233082,1,8,0:0:0:0:
211,78,233309,1,0,0:0:0:0:
211,78,233536,1,8,0:0:0:0:
285,212,233991,1,0,0:0:0:0:
285,212,234445,1,0,0:0:0:0:
143,149,234900,1,0,0:0:0:0:
72,119,235127,1,0,0:0:0:0:
142,148,235354,1,8,0:0:0:0:
295,161,235809,1,0,0:0:0:0:
141,150,236263,1,8,0:0:0:0:
295,144,236718,1,8,0:0:0:0:
371,141,236945,1,0,0:0:0:0:
371,141,237172,1,8,0:0:0:0:
221,177,237627,1,0,0:0:0:0:
221,177,238082,1,0,0:0:0:0:
204,24,238536,1,0,0:0:0:0:
251,170,238991,1,0,0:0:0:0:
275,242,239218,1,8,0:0:0:0:
250,169,239445,1,0,0:0:0:0:
125,77,239900,1,0,0:0:0:0:
125,77,240354,1,0,0:0:0:0:
264,141,240809,1,0,0:0:0:0:
121,130,241036,1,0,0:0:0:0:
182,176,241263,1,6,0:0:0:0:
386,49,241718,1,0,0:0:0:0:
317,84,241945,1,0,0:0:0:0:
317,84,242173,1,8,0:0:0:0:
181,157,242627,1,8,0:0:0:0:
114,194,242854,1,0,0:0:0:0:
182,158,243082,1,0,0:0:0:0:
321,93,243536,1,0,0:0:0:0:
321,93,243763,1,8,0:0:0:0:
321,93,244218,1,0,0:0:0:0:
94,138,244900,1,8,0:0:0:0:
245,109,245354,1,0,0:0:0:0:
169,123,245582,1,8,0:0:0:0:
169,123,245809,1,8,0:0:0:0:
318,159,246263,1,0,0:0:0:0:
392,178,246491,1,0,0:0:0:0:
317,158,246718,1,8,0:0:0:0:
162,158,247173,1,0,0:0:0:0:
162,158,247400,1,8,0:0:0:0:
162,158,247854,1,8,0:0:0:0:
314,139,248309,1,0,0:0:0:0:
237,148,248536,1,0,0:0:0:0:
90,99,248991,1,8,0:0:0:0:
237,141,249445,1,0,0:0:0:0:
310,163,249673,1,0,0:0:0:0:
236,141,249900,1,8,0:0:0:0:
110,52,250354,1,8,0:0:0:0:
211,167,250809,1,0,0:0:0:0:
211,167,251036,1,8,0:0:0:0:
260,107,251718,1,0,0:0:0:0:
273,182,251945,1,0,0:0:0:0:
260,107,252173,1,8,0:0:0:0:
223,256,252627,1,0,0:0:0:0:
241,181,252854,1,8,0:0:0:0:
306,77,253536,1,0,0:0:0:0:
306,77,253763,1,0,0:0:0:0:
306,77,253991,1,8,0:0:0:0:
119,213,254673,1,0,0:0:0:0:
347,179,255354,1,8,0:0:0:0:
347,179,255582,1,0,0:0:0:0:
347,179,255809,1,12,0:0:0:0:
202,231,256263,1,0,0:0:0:0:
347,179,256718,1,0,0:0:0:0:
197,140,257173,1,0,0:0:0:0:
269,118,257400,1,0,0:0:0:0:
196,140,257627,1,8,0:0:0:0:
305,30,258082,1,0,0:0:0:0:
122,122,258309,1,8,0:0:0:0:
273,146,258763,1,8,0:0:0:0:
349,158,258991,1,0,0:0:0:0:
273,146,259218,1,0,0:0:0:0:
348,158,259445,1,6,0:0:0:0:
193,164,259900,1,0,0:0:0:0:
175,11,260354,1,8,0:0:0:0:
248,146,260809,1,0,0:0:0:0:
211,78,261036,1,0,0:0:0:0:
211,78,261263,1,8,0:0:0:0:
211,78,261718,1,0,0:0:0:0:
177,228,262173,1,8,0:0:0:0:
211,78,262400,1,0,0:0:0:0:
211,78,262627,1,8,0:0:0:0:
285,212,263082,1,0,0:0:0:0:
285,212,263536,1,0,0:0:0:0:
143,149,263991,1,0,0:0:0:0:
72,119,264218,1,0,0:0:0:0:
142,148,264445,1,8,0:0:0:0:
295,161,264900,1,0,0:0:0:0:
141,150,265354,1,8,0:0:0:0:
295,144,265809,1,8,0:0:0:0:
371,141,266036,1,0,0:0:0:0:
371,141,266263,1,8,0:0:0:0:
221,177,266718,1,0,0:0:0:0:
221,177,267173,1,0,0:0:0:0:
204,24,267627,1,0,0:0:0:0:
251,170,268082,1,0,0:0:0:0:
275,242,268309,1,8,0:0:0:0:
250,169,268536,1,0,0:0:0:0:
125,77,268991,1,0,0:0:0:0:
121,130,269673,1,0,0:0:0:0:
197,123,269900,1,0,0:0:0:0:
121,130,270127,1,0,0:0:0:0:
196,142,270354,1,8,0:0:0:0:
149,161,271263,1,0,0:0:0:0:
176,131,272173,1,0,0:0:0:0:
176,131,273082,1,0,0:0:0:0:
327,103,273536,1,8,0:0:0:0:
176,131,273991,1,0,0:0:0:0:
149,161,274900,1,0,0:0:0:0:
176,131,275810,1,0,0:0:0:0:
176,131,276719,1,0,0:0:0:0:
319,75,277173,1,8,0:0:0:0:
176,131,277628,1,0,0:0:0:0:
149,161,278536,1,0,0:0:0:0:
176,131,279446,1,0,0:0:0:0:
176,131,280355,1,0,0:0:0:0:
329,133,280809,1,8,0:0:0:0:
176,131,281264,1,0,0:0:0:0:
149,161,282173,1,0,0:0:0:0:
176,131,283083,1,0,0:0:0:0:
176,131,283992,1,0,0:0:0:0:
326,160,284445,1,8,0:0:0:0:
176,131,284901,1,0,0:0:0:0:
309,56,285354,1,0,0:0:0:0:
175,132,285809,1,8,0:0:0:0:
39,204,286263,1,0,0:0:0:0:
107,167,286491,1,0,0:0:0:0:
175,132,286718,1,8,0:0:0:0:
328,142,287173,1,8,0:0:0:0:
328,142,287400,1,0,0:0:0:0:
328,142,287627,1,8,0:0:0:0:
197,59,288082,1,8,0:0:0:0:
149,161,288536,1,0,0:0:0:0:
176,131,289446,1,0,0:0:0:0:
176,131,290355,1,0,0:0:0:0:
176,131,291264,1,0,0:0:0:0:
170,101,291718,1,8,0:0:0:0:
226,244,292173,1,0,0:0:0:0:
226,244,292627,1,0,0:0:0:0:
278,98,293082,1,8,0:0:0:0:
248,248,293536,1,0,0:0:0:0:
263,172,293763,1,0,0:0:0:0:
279,96,293991,1,8,0:0:0:0:
126,114,294445,1,8,0:0:0:0:
202,106,294673,1,0,0:0:0:0:
125,114,294900,1,0,0:0:0:0:
278,111,295354,1,8,0:0:0:0:
149,161,295809,1,0,0:0:0:0:
176,131,296719,1,0,0:0:0:0:
176,131,297628,1,0,0:0:0:0:
176,131,298537,1,0,0:0:0:0:
329,124,298991,1,8,0:0:0:0:
175,131,299445,1,0,0:0:0:0:
225,276,299900,1,0,0:0:0:0:
225,276,300354,1,8,0:0:0:0:
185,126,300809,1,8,0:0:0:0:
185,126,301036,1,0,0:0:0:0:
185,126,301263,1,0,0:0:0:0:
316,206,301718,1,8,0:0:0:0:
250,166,301945,1,0,0:0:0:0:
250,166,302173,1,8,0:0:0:0:
146,52,302627,1,0,0:0:0:0:
149,161,303082,1,0,0:0:0:0:
176,131,303992,1,0,0:0:0:0:
176,131,304901,1,0,0:0:0:0:
176,131,305810,1,0,0:0:0:0:
323,87,306263,1,8,0:0:0:0:
176,131,306718,1,0,0:0:0:0:
25,99,307173,1,8,0:0:0:0:
175,130,307627,1,0,0:0:0:0:
321,82,308082,1,0,0:0:0:0:
247,106,308309,1,0,0:0:0:0:
247,106,308536,1,8,0:0:0:0:
93,117,308991,1,8,0:0:0:0:
169,111,309218,1,0,0:0:0:0:
169,111,309445,1,0,0:0:0:0:
321,131,309900,1,8,0:0:0:0:
149,161,310354,1,0,0:0:0:0:
176,131,311264,1,0,0:0:0:0:
176,131,312173,1,0,0:0:0:0:
176,131,313082,1,0,0:0:0:0:
328,148,313536,1,8,0:0:0:0:
136,126,313991,1,0,0:0:0:0:
443,133,314900,1,0,0:0:0:0:
136,103,315809,1,0,0:0:0:0:
404,253,316718,1,0,0:0:0:0:
336,215,316945,1,0,0:0:0:0:
268,177,317173,1,8,0:0:0:0:
149,161,317627,1,0,0:0:0:0:
176,131,318537,1,0,0:0:0:0:
176,131,319446,1,0,0:0:0:0:
176,131,320355,1,0,0:0:0:0:
300,221,320809,1,0,0:0:0:0:
175,130,321263,1,8,0:0:0:0:
149,161,322173,1,0,0:0:0:0:
176,131,323083,1,8,0:0:0:0:
176,131,323992,1,0,0:0:0:0:
176,131,324901,1,8,0:0:0:0:
149,161,325809,1,0,0:0:0:0:
176,131,326718,1,8,0:0:0:0:
176,131,327628,1,0,0:0:0:0:
327,103,328082,1,0,0:0:0:0:
176,131,328536,1,8,0:0:0:0:
