osu file format v14

[General]
AudioFilename: audio.mp3
AudioLeadIn: 0
PreviewTime: 15
Countdown: 0
SampleSet: Normal
StackLeniency: 0.7
Mode: 1
LetterboxInBreaks: 0
WidescreenStoryboard: 1

[Editor]
Bookmarks: 9600,38400,48000,76800,86400,124800,146400,196800,264000,297600
DistanceSpacing: 0.4
BeatDivisor: 16
GridSize: 32
TimelineZoom: 8

[Metadata]
Title:mutant
TitleUnicode:mutant
Artist:Galen Tipton (feat. Atlas Moe, Tripp Fontane, T5UMUT5UMU & Junior Astronaut)
ArtistUnicode:Galen Tipton (feat. Atlas Moe, Tripp Fontane, T5UMUT5UMU & Junior Astronaut)
Creator:Ulqui
Version:angel
Source:
Tags:electronic english lms: shift cup 3 deskpop experimental idm maximalism dance future neo oil queercore soundscape
BeatmapID:4177264
BeatmapSetID:2004174

[Difficulty]
HPDrainRate:6.6
CircleSize:7
OverallDifficulty:6.6
ApproachRate:7
SliderMultiplier:1.4
SliderTickRate:1

[Events]
//Background and Video events
0,0,"bg.jpg",0,0
//Break Periods
//Storyboard Layer 0 (Background)
//Storyboard Layer 1 (Fail)
//Storyboard Layer 2 (Pass)
//Storyboard Layer 3 (Foreground)
//Storyboard Layer 4 (Overlay)
//Storyboard Sound Samples

[TimingPoints]
158,300,4,1,0,90,1,0
158,-100,4,1,0,90,0,0
307,-100.961538461538,4,1,0,90,0,0
382,-101.449275362319,4,1,0,90,0,0
457,-101.941747572816,4,1,0,90,0,0
682,-62.5,4,1,0,90,0,0
719,-62.7250302179314,4,1,0,90,0,0
757,-62.9578134430385,4,1,0,90,0,0
1057,-106.060606060606,4,1,0,90,0,0
1357,-108.247422680412,4,1,0,90,0,0
1507,-109.375,4,1,0,90,0,0
1582,-109.947643979058,4,1,0,90,0,0
1657,-110.526315789474,4,1,0,90,0,0
1882,-70.5813730550179,4,1,0,90,0,0
1919,-70.8543083522616,4,1,0,90,0,0
1957,-71.1359165016261,4,1,0,90,0,0
2557,-117.977528089888,4,1,0,90,0,0
2707,-119.318181818182,4,1,0,90,0,0
2782,-120,4,1,0,90,0,0
2857,-120.689655172414,4,1,0,90,0,0
3082,-79.9293579712936,4,1,0,90,0,0
3119,-80.2277924808372,4,1,0,90,0,0
3157,-80.5344365083357,4,1,0,90,0,0
3457,-126.506024096386,4,1,0,90,0,0
3757,-129.62962962963,4,1,0,90,0,0
3907,-131.25,4,1,0,90,0,0
3982,-132.075471698113,4,1,0,90,0,0
4057,-132.911392405063,4,1,0,90,0,0
4282,-89.387385705208,4,1,0,90,0,0
4319,-89.6603379801048,4,1,0,90,0,0
4357,-89.9386724329479,4,1,0,90,0,0
4957,-143.835616438356,4,1,0,90,0,0
5107,-145.833333333333,4,1,0,90,0,0
5182,-146.853146853147,4,1,0,90,0,0
5257,-147.887323943662,4,1,0,90,0,0
5482,-96.8700224485935,4,1,0,90,0,0
5519,-97.0422664316564,4,1,0,90,0,0
5557,-97.2146761817093,4,1,0,90,0,0
5857,-156.716417910448,4,1,0,90,0,0
6157,-161.538461538461,4,1,0,90,0,0
6307,-164.0625,4,1,0,90,0,0
6382,-165.354330708661,4,1,0,90,0,0
6457,-166.666666666667,4,1,0,90,0,0
6682,-99.9887194995506,4,1,0,90,0,0
6719,-99.997103859909,4,1,0,90,0,0
6757,-100,4,1,0,90,0,0
7283,-20,4,1,0,90,0,0
7358,-333.333333333333,4,1,0,90,0,0
7359,-20,4,1,0,90,0,0
7433,-100,4,1,0,90,0,0
8183,-10,4,1,0,90,0,0
8483,-333.333333333333,4,1,0,90,0,0
9683,-50,4,1,0,90,0,0
9758,-333.333333333332,4,1,0,90,0,1
9759,-50,4,1,0,90,0,1
9908,-112.244897959184,4,1,0,90,0,1
10357,-114.583333333333,4,1,0,90,0,1
10657,-117.021276595745,4,1,0,90,0,1
10958,-333.333333333333,4,1,0,90,0,1
10959,-119.565217391304,4,1,0,90,0,1
11107,-120.879120879121,4,1,0,90,0,1
11257,-122.222222222222,4,1,0,90,0,1
11557,-125,4,1,0,90,0,1
12158,-333.333333333333,4,1,0,90,0,1
12159,-50,4,1,0,90,0,1
12383,-125.628140703518,4,1,0,90,0,1
12757,-128.205128205128,4,1,0,90,0,1
13057,-130.890052356021,4,1,0,90,0,1
13358,-333.333333333333,4,1,0,90,0,1
13359,-133.689839572193,4,1,0,90,0,1
13507,-135.135135135135,4,1,0,90,0,1
13657,-136.612021857924,4,1,0,90,0,1
13957,-139.664804469274,4,1,0,90,0,1
14257,-142.857142857143,4,1,0,90,0,1
14483,-50,4,1,0,90,0,1
14558,-333.333333333333,4,1,0,90,0,1
14559,-50,4,1,0,90,0,1
14783,-143.835616438356,4,1,0,90,0,1
15157,-147.887323943662,4,1,0,90,0,1
15457,-152.173913043478,4,1,0,90,0,1
15758,-333.333333333333,4,1,0,90,0,1
15759,-156.716417910448,4,1,0,90,0,1
15907,-159.090909090909,4,1,0,90,0,1
16057,-161.538461538461,4,1,0,90,0,1
16357,-166.666666666667,4,1,0,90,0,1
16883,-50,4,1,0,90,0,1
16958,-333.333333333333,4,1,0,90,0,1
16959,-50,4,1,0,90,0,1
17183,-168,4,1,0,90,0,1
17557,-173.553719008264,4,1,0,90,0,1
17857,-179.48717948718,4,1,0,90,0,1
18158,-333.333333333333,4,1,0,90,0,1
18159,-185.840707964602,4,1,0,90,0,1
18307,-189.189189189189,4,1,0,90,0,1
18457,-192.660550458716,4,1,0,90,0,1
18758,-200,4,1,0,90,0,0
19132,-125,4,1,0,90,0,0
19207,-115.384615384615,4,1,0,90,0,0
19282,-107.142857142857,4,1,0,90,0,0
19358,-100,4,1,0,90,0,0
19507,-102.564102564103,4,1,0,90,0,0
19582,-103.896103896104,4,1,0,90,0,0
19657,-105.263157894737,4,1,0,90,0,0
19807,-108.108108108108,4,1,0,90,0,0
19957,-111.111111111111,4,1,0,90,0,0
20257,-125,4,1,0,90,0,0
20332,-117.647058823529,4,1,0,90,0,0
20407,-111.111111111111,4,1,0,90,0,0
20482,-105.263157894737,4,1,0,90,0,0
20557,-100,4,1,0,90,0,0
20707,-102.564102564103,4,1,0,90,0,0
20782,-103.896103896104,4,1,0,90,0,0
20857,-105.263157894737,4,1,0,90,0,0
21007,-108.108108108108,4,1,0,90,0,0
21157,-111.111111111111,4,1,0,90,0,0
21457,-125,4,1,0,90,0,0
21532,-117.647058823529,4,1,0,90,0,0
21607,-111.111111111111,4,1,0,90,0,0
21757,-100,4,1,0,90,0,0
21907,-102.564102564103,4,1,0,90,0,0
21982,-103.896103896104,4,1,0,90,0,0
22057,-105.263157894737,4,1,0,90,0,0
22207,-108.108108108108,4,1,0,90,0,0
22357,-111.111111111111,4,1,0,90,0,0
22657,-125,4,1,0,90,0,0
22732,-117.647058823529,4,1,0,90,0,0
22807,-111.111111111111,4,1,0,90,0,0
22882,-105.263157894737,4,1,0,90,0,0
22957,-100,4,1,0,90,0,0
23107,-102.564102564103,4,1,0,90,0,0
23182,-103.896103896104,4,1,0,90,0,0
23257,-105.263157894737,4,1,0,90,0,0
23407,-108.108108108108,4,1,0,90,0,0
23557,-111.111111111111,4,1,0,90,0,0
23857,-125,4,1,0,90,0,0
24007,-111.111111111111,4,1,0,90,0,0
24157,-100,4,1,0,90,0,0
24307,-98.4848484848485,4,1,0,90,0,0
24382,-97.7443609022557,4,1,0,90,0,0
24457,-97.0149253731343,4,1,0,90,0,0
24607,-95.5882352941176,4,1,0,90,0,0
24757,-94.2028985507246,4,1,0,90,0,0
24832,-93.5251798561151,4,1,0,90,0,0
24907,-92.8571428571429,4,1,0,90,0,0
24982,-92.1985815602837,4,1,0,90,0,0
25057,-91.5492957746479,4,1,0,90,0,0
25132,-90.9090909090909,4,1,0,90,0,0
25207,-90.2777777777778,4,1,0,90,0,0
25282,-89.6551724137931,4,1,0,90,0,0
25357,-89.041095890411,4,1,0,90,0,0
25507,-87.8378378378378,4,1,0,90,0,0
25582,-87.248322147651,4,1,0,90,0,0
25657,-86.6666666666667,4,1,0,90,0,0
25807,-85.5263157894737,4,1,0,90,0,0
25957,-84.4155844155844,4,1,0,90,0,0
26032,-83.8709677419355,4,1,0,90,0,0
26107,-83.3333333333333,4,1,0,90,0,0
26257,-90.9090909090909,4,1,0,90,0,0
26332,-93.0232558139535,4,1,0,90,0,0
26407,-95.2380952380952,4,1,0,90,0,0
26482,-97.5609756097561,4,1,0,90,0,0
26557,-100,4,1,0,90,0,0
26707,-98.6394557823129,4,1,0,90,0,0
26782,-97.972972972973,4,1,0,90,0,0
26857,-97.3154362416107,4,1,0,90,0,0
27007,-96.0264900662252,4,1,0,90,0,0
27157,-94.7712418300654,4,1,0,90,0,0
27232,-94.1558441558442,4,1,0,90,0,0
27307,-93.5483870967742,4,1,0,90,0,0
27382,-92.948717948718,4,1,0,90,0,0
27457,-92.3566878980892,4,1,0,90,0,0
27532,-91.7721518987342,4,1,0,90,0,0
27607,-91.1949685534591,4,1,0,90,0,0
27682,-90.625,4,1,0,90,0,0
27757,-90.0657479960371,4,1,0,90,0,0
27907,-91.4636291360908,4,1,0,90,0,0
27982,-92.178969013685,4,1,0,90,0,0
28057,-92.9055864843811,4,1,0,90,0,0
28132,-93.6437503601683,4,1,0,90,0,0
28282,-95.1558359806175,4,1,0,90,0,0
28357,-95.9303398147807,4,1,0,90,0,0
28507,-97.5177969979521,4,1,0,90,0,0
28582,-98.3313919186724,4,1,0,90,0,0
28657,-99.1586767655965,4,1,0,90,0,0
28732,-100,4,1,0,90,0,0
28883,-125,4,1,0,90,0,0
29107,-123.287671232877,4,1,0,90,0,0
29182,-122.448979591837,4,1,0,90,0,0
29257,-121.621621621622,4,1,0,90,0,0
29407,-120,4,1,0,90,0,0
29457,-119.469026548673,4,1,0,90,0,0
29507,-118.942731277533,4,1,0,90,0,0
29557,-118.421052631579,4,1,0,90,0,0
29707,-116.883116883117,4,1,0,90,0,0
29782,-116.129032258064,4,1,0,90,0,0
29857,-115.384615384615,4,1,0,90,0,0
29932,-114.649681528662,4,1,0,90,0,0
30082,-113.207547169811,4,1,0,90,0,0
30157,-112.5,4,1,0,90,0,0
30232,-111.801242236025,4,1,0,90,0,0
30382,-110.429447852761,4,1,0,90,0,0
30457,-109.756097560976,4,1,0,90,0,0
30607,-108.433734939759,4,1,0,90,0,0
30757,-107.142857142857,4,1,0,90,0,0
30907,-105.882352941177,4,1,0,90,0,0
30982,-105.263157894737,4,1,0,90,0,0
31057,-104.651162790698,4,1,0,90,0,0
31132,-104.046242774566,4,1,0,90,0,0
31207,-103.448275862069,4,1,0,90,0,0
31257,-103.053435114504,4,1,0,90,0,0
31307,-102.661596958175,4,1,0,90,0,0
31357,-102.272727272727,4,1,0,90,0,0
31507,-101.123595505618,4,1,0,90,0,0
31582,-100.558659217877,4,1,0,90,0,0
31657,-100,4,1,0,90,0,0
31807,-98.9010989010989,4,1,0,90,0,0
31882,-98.3606557377049,4,1,0,90,0,0
31957,-97.8260869565217,4,1,0,90,0,0
32107,-96.7741935483871,4,1,0,90,0,0
32257,-95.7446808510638,4,1,0,90,0,0
32407,-94.7368421052632,4,1,0,90,0,0
32482,-94.2408376963351,4,1,0,90,0,0
32557,-93.75,4,1,0,90,0,0
32632,-93.2642487046632,4,1,0,90,0,0
32782,-92.3076923076923,4,1,0,90,0,0
32857,-91.8367346938775,4,1,0,90,0,0
33007,-95.2380952380952,4,1,0,90,0,0
33157,-100,4,1,0,90,0,0
33257,-95.2380952380952,4,1,0,90,0,0
33357,-90.9090909090909,4,1,0,90,0,0
33457,-86.9565217391304,4,1,0,90,0,0
33557,-83.3333333333333,4,1,0,90,0,0
33657,-80,4,1,0,90,0,0
33757,-76.9230769230769,4,1,0,90,0,0
33907,-78.502871837453,4,1,0,90,0,0
33982,-79.3151521217787,4,1,0,90,0,0
34057,-80.1417211378732,4,1,0,90,0,0
34207,-81.8354800476428,4,1,0,90,0,0
34282,-82.7013916834524,4,1,0,90,0,0
34357,-83.5790290756811,4,1,0,90,0,0
34432,-84.4675831079899,4,1,0,90,0,0
34582,-86.2738345731511,4,1,0,90,0,0
34657,-87.1895356173424,4,1,0,90,0,0
34807,-89.0404932761766,4,1,0,90,0,0
34882,-89.9732622189555,4,1,0,90,0,0
34957,-90.9090909090909,4,1,0,90,0,0
35032,-91.8465216187457,4,1,0,90,0,0
35182,-93.7199286793031,4,1,0,90,0,0
35257,-94.6525629095947,4,1,0,90,0,0
35407,-96.5007222720684,4,1,0,90,0,0
35557,-98.3132119549453,4,1,0,90,0,0
35707,-100.07364649731,4,1,0,90,0,0
35782,-100.928968529317,4,1,0,90,0,0
35857,-101.764736500461,4,1,0,90,0,0
35932,-102.578692288018,4,1,0,90,0,0
36007,-103.36855855593,4,1,0,90,0,0
36057,-103.880624692803,4,1,0,90,0,0
36107,-104.380292707744,4,1,0,90,0,0
36157,-104.866889268393,4,1,0,90,0,0
36307,-106.241597899314,4,1,0,90,0,0
36382,-106.877061140562,4,1,0,90,0,0
36457,-107.475087165155,4,1,0,90,0,0
36607,-108.55076661013,4,1,0,90,0,0
36657,-108.871595808479,4,1,0,90,0,0
36707,-109.172682417922,4,1,0,90,0,0
36757,-109.453538277098,4,1,0,90,0,0
36907,-110.170270728908,4,1,0,90,0,0
36982,-110.455414978977,4,1,0,90,0,0
37057,-110.690235418413,4,1,0,90,0,0
37132,-110.873827651093,4,1,0,90,0,0
37282,-105.263157894737,4,1,0,90,0,0
37357,-100,4,1,0,90,0,0
37507,-90.1956046269069,4,1,0,90,0,0
37657,-82.511504545157,4,1,0,90,0,0
37807,-76.6533298335698,4,1,0,90,0,0
37957,-72.3628440147186,4,1,0,90,0,0
38107,-69.4384991601539,4,1,0,90,0,0
38257,-67.7390992103836,4,1,0,90,0,0
38407,-67.1817265703729,4,1,0,90,0,0
38558,-111.111111111111,4,1,0,90,0,0
38559,-50,4,1,0,90,0,0
38633,-111.111111111111,4,1,0,70,0,0
39007,-111.129233052672,4,1,0,70,0,0
39307,-111.274261686815,4,1,0,70,0,0
39757,-111.764425743271,4,1,0,70,0,0
39907,-112.000808311905,4,1,0,70,0,0
40207,-112.58370476911,4,1,0,70,0,0
40357,-112.930485193868,4,1,0,70,0,0
40957,-114.690220612291,4,1,0,70,0,0
41107,-115.224220801725,4,1,0,70,0,0
41407,-116.406497760365,4,1,0,70,0,0
41707,-117.742548817086,4,1,0,70,0,0
42007,-119.234064195748,4,1,0,70,0,0
42157,-120.03863226833,4,1,0,70,0,0
42307,-120.882662699713,4,1,0,70,0,0
42607,-122.689792305267,4,1,0,70,0,0
42757,-123.65318343695,4,1,0,70,0,0
43357,-127.907705494219,4,1,0,70,0,0
43657,-130.275612599008,4,1,0,70,0,0
43807,-131.519396818577,4,1,0,70,0,0
43957,-132.802777306682,4,1,0,70,0,0
44107,-134.125442109209,4,1,0,70,0,0
44407,-136.886944541933,4,1,0,70,0,0
44557,-138.324699885687,4,1,0,70,0,0
44707,-139.799556682593,4,1,0,70,0,0
45007,-142.857142857143,4,1,0,70,0,0
45157,-58.8235294117647,4,1,0,70,0,0
45232,-63.4920634920635,4,1,0,70,0,0
45307,-68.9655172413793,4,1,0,70,0,0
45382,-75.4716981132076,4,1,0,70,0,0
45457,-83.3333333333333,4,1,0,70,0,0
45532,-93.0232558139535,4,1,0,70,0,0
45607,-105.263157894737,4,1,0,70,0,0
45682,-121.212121212121,4,1,0,70,0,0
45757,-142.857142857143,4,1,0,70,0,0
46058,-150.943396226415,4,1,0,70,0,0
46657,-160,4,1,0,70,0,0
46957,-166.666666666667,4,1,0,70,0,0
47557,-200,4,1,0,70,0,0
47707,-187.5,4,1,0,70,0,0
47857,-176.470588235294,4,1,0,70,0,0
48007,-166.666666666667,4,1,0,70,0,0
48158,-200,4,1,0,70,0,0
48159,-50,4,1,0,90,0,0
48383,-200,4,1,0,90,0,0
48494,-198.774225608746,4,1,0,90,0,0
48607,-195.121951219512,4,1,0,90,0,0
48757,-190.476190476191,4,1,0,90,0,0
48907,-186.046511627907,4,1,0,90,0,0
49207,-177.777777777778,4,1,0,90,0,0
49357,-173.913043478261,4,1,0,90,0,0
49507,-170.212765957447,4,1,0,90,0,0
49807,-163.265306122449,4,1,0,90,0,0
50107,-156.862745098039,4,1,0,90,0,0
50257,-153.846153846154,4,1,0,90,0,0
50407,-150.943396226415,4,1,0,90,0,0
50558,-148.148148148148,4,1,0,90,0,0
50559,-50,4,1,0,90,0,0
50608,-145.454545454545,4,1,0,90,0,0
50857,-142.857142857143,4,1,0,90,0,0
51007,-140.350877192982,4,1,0,90,0,0
51157,-137.931034482759,4,1,0,90,0,0
51307,-135.593220338983,4,1,0,90,0,0
51457,-133.333333333333,4,1,0,90,0,0
51607,-131.147540983607,4,1,0,90,0,0
51757,-129.032258064516,4,1,0,90,0,0
51907,-126.984126984127,4,1,0,90,0,0
52057,-125,4,1,0,90,0,0
52207,-123.076923076923,4,1,0,90,0,0
52357,-121.212121212121,4,1,0,90,0,0
52507,-119.402985074627,4,1,0,90,0,0
52657,-117.647058823529,4,1,0,90,0,0
52807,-115.942028985507,4,1,0,90,0,0
52958,-114.285714285714,4,1,0,90,0,0
52959,-50,4,1,0,90,0,0
53008,-112.676056338028,4,1,0,90,0,0
53257,-111.111111111111,4,1,0,90,0,0
53557,-113.207547169811,4,1,0,90,0,0
53707,-114.285714285714,4,1,0,90,0,0
53857,-115.384615384615,4,1,0,90,0,0
54007,-116.504854368932,4,1,0,90,0,0
54157,-117.647058823529,4,1,0,90,0,0
54307,-118.811881188119,4,1,0,90,0,0
54457,-120,4,1,0,90,0,0
54532,-120.603015075377,4,1,0,90,0,0
54607,-121.212121212121,4,1,0,90,0,0
54682,-121.827411167513,4,1,0,90,0,0
54757,-122.448979591837,4,1,0,90,0,0
54907,-123.711340206186,4,1,0,90,0,0
55057,-125,4,1,0,90,0,0
55358,-117.647058823529,4,1,0,90,0,0
55359,-50,4,1,0,90,0,0
55408,-111.111111111111,4,1,0,90,0,0
55657,-107.142857142857,4,1,0,90,0,0
55807,-103.448275862069,4,1,0,90,0,0
55957,-100,4,1,0,90,0,0
56057,-98.3606557377049,4,1,0,90,0,0
56157,-96.7741935483871,4,1,0,90,0,0
56257,-95.2380952380952,4,1,0,90,0,0
56457,-92.3076923076923,4,1,0,90,0,0
56557,-90.9090909090909,4,1,0,90,0,0
56707,-95.2380952380952,4,1,0,90,0,0
56857,-90.9090909090909,4,1,0,90,0,0
56957,-89.5522388059701,4,1,0,90,0,0
57057,-88.2352941176471,4,1,0,90,0,0
57157,-86.9565217391304,4,1,0,90,0,0
57257,-85.7142857142857,4,1,0,90,0,0
57357,-84.5070422535211,4,1,0,90,0,0
57457,-83.3333333333333,4,1,0,90,0,0
57607,-87.719298245614,4,1,0,90,0,0
57682,-90.0900900900901,4,1,0,90,0,0
57758,-111.111111111111,4,1,0,90,0,0
57759,-50,4,1,0,90,0,0
57808,-111.436950146628,4,1,0,90,0,0
58057,-112.426035502959,4,1,0,90,0,0
58207,-114.457831325301,4,1,0,90,0,0
58357,-116.564417177914,4,1,0,90,0,0
58507,-118.75,4,1,0,90,0,0
58657,-121.019108280255,4,1,0,90,0,0
58807,-123.376623376623,4,1,0,90,0,0
58957,-125.827814569536,4,1,0,90,0,0
59107,-128.378378378378,4,1,0,90,0,0
59182,-129.692832764505,4,1,0,90,0,0
59257,-131.034482758621,4,1,0,90,0,0
59407,-133.802816901408,4,1,0,90,0,0
59557,-136.690647482014,4,1,0,90,0,0
59707,-139.705882352941,4,1,0,90,0,0
59857,-142.857142857143,4,1,0,90,0,0
60007,-137.931034482759,4,1,0,90,0,0
60157,-133.333333333333,4,1,0,90,0,0
60307,-129.032258064516,4,1,0,90,0,0
60382,-126.984126984127,4,1,0,90,0,0
60457,-125,4,1,0,90,0,0
60607,-121.212121212121,4,1,0,90,0,0
60757,-117.647058823529,4,1,0,90,0,0
60907,-114.285714285714,4,1,0,90,0,0
60982,-112.676056338028,4,1,0,90,0,0
61057,-111.111111111111,4,1,0,90,0,0
61357,-106.382978723404,4,1,0,90,0,0
61507,-104.166666666667,4,1,0,90,0,0
61582,-103.092783505155,4,1,0,90,0,0
61657,-102.040816326531,4,1,0,90,0,0
61807,-100,4,1,0,90,0,0
61957,-98.0392156862745,4,1,0,90,0,0
62107,-96.1538461538461,4,1,0,90,0,0
62257,-97.4025974025974,4,1,0,90,0,0
62407,-98.6842105263158,4,1,0,90,0,0
62557,-100,4,1,0,90,0,0
62707,-83.3333333333333,4,1,0,90,0,0
62782,-85.1063829787234,4,1,0,90,0,0
62857,-86.9565217391304,4,1,0,90,0,0
62958,-102.564102564103,4,1,0,90,0,0
63157,-103.448275862069,4,1,0,90,0,0
63308,-86.9565217391304,4,1,0,90,0,0
63382,-88.8888888888889,4,1,0,90,0,0
63457,-90.9090909090909,4,1,0,90,0,0
63558,-106.194690265487,4,1,0,90,0,0
63757,-107.142857142857,4,1,0,90,0,0
63907,-90.9090909090909,4,1,0,90,0,0
63982,-93.0232558139535,4,1,0,90,0,0
64057,-95.2380952380952,4,1,0,90,0,0
64158,-110.091743119266,4,1,0,90,0,0
64357,-111.111111111111,4,1,0,90,0,0
64507,-95.2380952380952,4,1,0,90,0,0
64582,-97.5609756097561,4,1,0,90,0,0
64657,-100,4,1,0,90,0,0
64758,-125,4,1,0,90,0,0
64957,-121.951219512195,4,1,0,90,0,0
65089,-100,4,1,0,90,0,0
65164,-97.5609756097561,4,1,0,90,0,0
65239,-95.2380952380952,4,1,0,90,0,0
65358,-113.636363636364,4,1,0,90,0,0
65557,-111.111111111111,4,1,0,90,0,0
65689,-95.2380952380952,4,1,0,90,0,0
65764,-93.0232558139535,4,1,0,90,0,0
65839,-90.9090909090909,4,1,0,90,0,0
65958,-104.166666666667,4,1,0,90,0,0
66157,-102.040816326531,4,1,0,90,0,0
66289,-90.9090909090909,4,1,0,90,0,0
66363,-88.8888888888889,4,1,0,90,0,0
66439,-86.9565217391304,4,1,0,90,0,0
66558,-97.3451327433628,4,1,0,90,0,0
66757,-99.8185117967332,4,1,0,90,0,0
66907,-102.420856610801,4,1,0,90,0,0
67057,-105.162523900574,4,1,0,90,0,0
67133,-108.055009823183,4,1,0,90,0,0
67283,-111.111111111111,4,1,0,90,0,0
67376,-111.111111111111,4,1,0,90,0,0
67582,-111.3074204947,4,1,0,90,0,0
67657,-111.504424778761,4,1,0,90,0,0
67807,-111.90053285968,4,1,0,90,0,0
67957,-112.299465240642,4,1,0,90,0,0
68107,-112.701252236136,4,1,0,90,0,0
68257,-113.10592459605,4,1,0,90,0,0
68407,-113.513513513514,4,1,0,90,0,0
68557,-113.924050632911,4,1,0,90,0,0
68707,-114.337568058076,4,1,0,90,0,0
68857,-114.754098360656,4,1,0,90,0,0
68932,-114.963503649635,4,1,0,90,0,0
69007,-115.173674588665,4,1,0,90,0,0
69082,-115.384615384615,4,1,0,90,0,0
69157,-115.596330275229,4,1,0,90,0,0
69307,-116.022099447514,4,1,0,90,0,0
69457,-116.45101663586,4,1,0,90,0,0
69607,-116.883116883117,4,1,0,90,0,0
69757,-117.31843575419,4,1,0,90,0,0
69907,-117.757009345794,4,1,0,90,0,0
69982,-117.977528089888,4,1,0,90,0,0
70057,-118.198874296435,4,1,0,90,0,0
70207,-118.64406779661,4,1,0,90,0,0
70357,-119.092627599244,4,1,0,90,0,0
70507,-119.544592030361,4,1,0,90,0,0
70657,-120,4,1,0,90,0,0
70807,-120.458891013384,4,1,0,90,0,0
70957,-120.921305182342,4,1,0,90,0,0
71107,-121.387283236994,4,1,0,90,0,0
71257,-121.856866537718,4,1,0,90,0,0
71407,-122.330097087379,4,1,0,90,0,0
71557,-122.80701754386,4,1,0,90,0,0
71707,-123.287671232877,4,1,0,90,0,0
71857,-123.7721021611,4,1,0,90,0,0
72007,-124.260355029586,4,1,0,90,0,0
72157,-124.752475247525,4,1,0,90,0,0
72307,-125.248508946322,4,1,0,90,0,0
72382,-125.498007968127,4,1,0,90,0,0
72457,-125.748502994012,4,1,0,90,0,0
72607,-126.25250501002,4,1,0,90,0,0
72907,-127.272727272727,4,1,0,90,0,0
72982,-127.53036437247,4,1,0,90,0,0
73057,-127.789046653144,4,1,0,90,0,0
73207,-128.309572301426,4,1,0,90,0,0
73357,-128.834355828221,4,1,0,90,0,0
73807,-130.434782608696,4,1,0,90,0,0
73957,-130.977130977131,4,1,0,90,0,0
74107,-131.524008350731,4,1,0,90,0,0
74257,-132.075471698113,4,1,0,90,0,0
74557,-133.192389006342,4,1,0,90,0,0
74707,-133.757961783439,4,1,0,90,0,0
74782,-134.042553191489,4,1,0,90,0,0
74857,-134.328358208955,4,1,0,90,0,0
75007,-134.903640256959,4,1,0,90,0,0
75157,-135.483870967742,4,1,0,90,0,0
75457,-136.659436008677,4,1,0,90,0,0
75757,-137.855579868709,4,1,0,90,0,0
75907,-138.461538461539,4,1,0,90,0,0
75982,-138.766519823789,4,1,0,90,0,0
76057,-139.072847682119,4,1,0,90,0,0
76207,-139.689578713969,4,1,0,90,0,0
76357,-140.311804008909,4,1,0,90,0,0
76457,-140.729709605361,4,1,0,90,0,0
76557,-141.150112023898,4,1,0,90,0,0
76657,-141.573033707865,4,1,0,90,0,0
76857,-142.426525998493,4,1,0,90,0,0
76958,-142.857142857143,4,1,0,90,0,0
76959,-100,4,1,0,90,0,0
76995,-142.856638213314,4,1,0,70,0,0
77257,-142.819025383609,4,1,0,70,0,0
77357,-142.721814888252,4,1,0,70,0,0
77457,-142.565285381155,4,1,0,70,0,0
77557,-142.349884207172,4,1,0,70,0,0
77657,-142.076224247527,4,1,0,70,0,0
77757,-141.74507962569,4,1,0,70,0,0
77857,-141.357380329552,4,1,0,70,0,0
77957,-140.914205819104,4,1,0,70,0,0
78057,-140.416777700678,4,1,0,70,0,0
78157,-139.866451559117,4,1,0,70,0,0
78257,-139.264708047681,4,1,0,70,0,0
78357,-138.613143342062,4,1,0,70,0,0
78457,-137.913459069454,4,1,0,70,0,0
78557,-137.167451826222,4,1,0,70,0,0
78657,-136.37700239831,4,1,0,70,0,0
78757,-135.544064797369,4,1,0,70,0,0
78857,-134.670655222521,4,1,0,70,0,0
78957,-133.758841053205,4,1,0,70,0,0
79057,-132.81072997254,4,1,0,70,0,0
79157,-131.828459313529,4,1,0,70,0,0
79257,-130.814185712321,4,1,0,70,0,0
79357,-129.770075143891,4,1,0,70,0,0
79457,-128.69829340613,4,1,0,70,0,0
79557,-127.600997108694,4,1,0,70,0,0
79757,-125.338391161368,4,1,0,70,0,0
80107,-121.203850582397,4,1,0,70,0,0
80257,-119.381111956478,4,1,0,70,0,0
80407,-117.537030797819,4,1,0,70,0,0
80557,-115.67751609774,4,1,0,70,0,0
80707,-113.808138366561,4,1,0,70,0,0
80857,-111.934115241182,4,1,0,70,0,0
81007,-110.060302822929,4,1,0,70,0,0
81307,-106.330910309151,4,1,0,70,0,0
81457,-104.483225244767,4,1,0,70,0,0
81607,-102.651554217039,4,1,0,70,0,0
81757,-100.838974783127,4,1,0,70,0,0
81907,-99.0482380922867,4,1,0,70,0,0
82057,-97.2817838869929,4,1,0,70,0,0
82207,-95.5417567747831,4,1,0,70,0,0
82507,-92.1481899438102,4,1,0,70,0,0
82657,-90.497620305019,4,1,0,70,0,0
82807,-88.8794536089052,4,1,0,70,0,0
82957,-87.2946219240316,4,1,0,70,0,0
83107,-85.7438673552648,4,1,0,70,0,0
83257,-84.227758593045,4,1,0,70,0,0
83407,-82.7467067808446,4,1,0,70,0,0
83557,-81.3009806222503,4,1,0,70,0,0
83707,-79.8907206735566,4,1,0,70,0,0
83857,-78.5159527886396,4,1,0,70,0,0
84007,-77.1766007004629,4,1,0,70,0,0
84157,-75.8724977381262,4,1,0,70,0,0
84307,-74.6033976902217,4,1,0,70,0,0
84607,-72.1688831628982,4,1,0,70,0,0
84757,-71.0026648305279,4,1,0,70,0,0
84907,-69.8698578731564,4,1,0,70,0,0
85207,-67.7024110854678,4,1,0,70,0,0
85357,-66.6666666666667,4,1,0,70,0,0
85432,-68.5714285714286,4,1,0,70,0,0
85507,-70.5882352941176,4,1,0,70,0,0
85582,-72.7272727272727,4,1,0,70,0,0
85657,-75,4,1,0,70,0,0
85732,-77.4193548387097,4,1,0,70,0,0
85807,-80,4,1,0,70,0,0
85882,-82.7586206896552,4,1,0,70,0,0
85957,-85.7142857142857,4,1,0,70,0,0
86032,-88.8888888888889,4,1,0,70,0,0
86107,-92.3076923076923,4,1,0,70,0,0
86182,-96,4,1,0,70,0,0
86257,-50,4,1,0,70,0,0
86539,-50,4,1,0,100,0,0
86558,-66.6666666666667,4,1,0,100,0,1
86632,-67.573816726228,4,1,0,100,0,1
86707,-68.4933106042478,4,1,0,100,0,1
86857,-70.3700039629494,4,1,0,100,0,1
86932,-71.3275462622442,4,1,0,100,0,1
87007,-72.2981180798466,4,1,0,100,0,1
87082,-73.2818967116811,4,1,0,100,0,1
87157,-74.2790618661827,4,1,0,100,0,1
87307,-76.3142828368888,4,1,0,100,0,1
87382,-77.3527104302018,4,1,0,100,0,1
87457,-78.4052681683116,4,1,0,100,0,1
87532,-79.4721483236437,4,1,0,100,0,1
87607,-80.5535457849226,4,1,0,100,0,1
87682,-81.6496580927726,4,1,0,100,0,1
87757,-82.7606854758029,4,1,0,100,0,1
87832,-83.8868308871836,4,1,0,100,0,1
87907,-85.0283000417194,4,1,0,100,0,1
88057,-87.3580464736299,4,1,0,100,0,1
88132,-88.5467493295556,4,1,0,100,0,1
88207,-89.7516271634797,4,1,0,100,0,1
88282,-90.9729000723858,4,1,0,100,0,1
88357,-92.2107911481728,4,1,0,100,0,1
88507,-94.7373353876283,4,1,0,100,0,1
88582,-96.0264500792218,4,1,0,100,0,1
88657,-97.3331060778543,4,1,0,100,0,1
88732,-98.6575420724915,4,1,0,100,0,1
88807,-100,4,1,0,100,0,1
88957,-100,4,1,0,100,0,1
89032,-98.7409151787941,4,1,0,100,0,1
89107,-97.4976833034581,4,1,0,100,0,1
89257,-95.0579824954141,4,1,0,100,0,1
89332,-93.8611218664697,4,1,0,100,0,1
89407,-92.6793307280354,4,1,0,100,0,1
89482,-91.5124193424435,4,1,0,100,0,1
89557,-90.3602003609845,4,1,0,100,0,1
89707,-88.0991019803228,4,1,0,100,0,1
89782,-86.9898595596699,4,1,0,100,0,1
89857,-85.8945834419657,4,1,0,100,0,1
89932,-84.8130977796099,4,1,0,100,0,1
90007,-83.7452289390723,4,1,0,100,0,1
90082,-82.6908054730163,4,1,0,100,0,1
90157,-81.6496580927726,4,1,0,100,0,1
90232,-80.62161964116,4,1,0,100,0,1
90307,-79.6065250656478,4,1,0,100,0,1
90457,-77.6145176973932,4,1,0,100,0,1
90607,-75.6723566621109,4,1,0,100,0,1
90682,-74.7195775055294,4,1,0,100,0,1
90757,-73.7787946466881,4,1,0,100,0,1
90907,-71.9326155497366,4,1,0,100,0,1
90982,-71.0269229058535,4,1,0,100,0,1
91057,-70.1326337005763,4,1,0,100,0,1
91132,-69.2496043549404,4,1,0,100,0,1
91207,-68.3776930977622,4,1,0,100,0,1
91341,-66.6666666666667,4,1,0,100,0,1
91416,-67.573816726228,4,1,0,100,0,1
91491,-68.4933106042478,4,1,0,100,0,1
91641,-70.3700039629494,4,1,0,100,0,1
91716,-71.3275462622442,4,1,0,100,0,1
91791,-72.2981180798466,4,1,0,100,0,1
91866,-73.2818967116811,4,1,0,100,0,1
91941,-74.2790618661827,4,1,0,100,0,1
92091,-76.3142828368888,4,1,0,100,0,1
92166,-77.3527104302018,4,1,0,100,0,1
92241,-78.4052681683116,4,1,0,100,0,1
92316,-79.4721483236437,4,1,0,100,0,1
92391,-80.5535457849226,4,1,0,100,0,1
92466,-81.6496580927726,4,1,0,100,0,1
92541,-82.7606854758029,4,1,0,100,0,1
92616,-83.8868308871836,4,1,0,100,0,1
92691,-85.0283000417194,4,1,0,100,0,1
92841,-87.3580464736299,4,1,0,100,0,1
92916,-88.5467493295556,4,1,0,100,0,1
92991,-89.7516271634797,4,1,0,100,0,1
93066,-90.9729000723858,4,1,0,100,0,1
93141,-92.2107911481728,4,1,0,100,0,1
93291,-94.7373353876283,4,1,0,100,0,1
93366,-96.0264500792218,4,1,0,100,0,1
93441,-97.3331060778543,4,1,0,100,0,1
93516,-98.6575420724915,4,1,0,100,0,1
93591,-100,4,1,0,100,0,1
93683,-20,4,1,0,100,0,1
93758,-20,4,1,0,100,0,0
93833,-100,4,1,0,100,0,0
94883,-111.111111111111,4,1,0,100,0,0
95820,-33.3333333333333,4,1,0,100,0,0
96120,-125,4,1,0,100,0,0
96232,-124.489795918367,4,1,0,100,0,0
96307,-123.983739837398,4,1,0,100,0,0
96457,-122.983870967742,4,1,0,100,0,0
96607,-122,4,1,0,100,0,0
96682,-121.513944223108,4,1,0,100,0,0
96757,-121.031746031746,4,1,0,100,0,0
96907,-120.07874015748,4,1,0,100,0,0
97057,-119.140625,4,1,0,100,0,0
97132,-118.677042801556,4,1,0,100,0,0
97207,-118.217054263566,4,1,0,100,0,0
97282,-117.760617760618,4,1,0,100,0,0
97357,-117.307692307692,4,1,0,100,0,0
97432,-116.858237547893,4,1,0,100,0,0
97507,-116.412213740458,4,1,0,100,0,0
97657,-115.530303030303,4,1,0,100,0,0
97807,-114.661654135338,4,1,0,100,0,0
97882,-114.232209737828,4,1,0,100,0,0
97957,-113.805970149254,4,1,0,100,0,0
98107,-112.962962962963,4,1,0,100,0,0
98257,-112.132352941177,4,1,0,100,0,0
98332,-111.721611721612,4,1,0,100,0,0
98407,-111.313868613139,4,1,0,100,0,0
98482,-110.909090909091,4,1,0,100,0,0
98557,-110.507246376812,4,1,0,100,0,0
98632,-110.108303249098,4,1,0,100,0,0
98707,-109.712230215827,4,1,0,100,0,0
98857,-108.928571428571,4,1,0,100,0,0
99007,-108.156028368794,4,1,0,100,0,0
99082,-115.749525616698,4,1,0,100,0,0
99083,-107.773851590106,4,1,0,100,0,0
99157,-107.394366197183,4,1,0,100,0,0
99307,-106.643356643357,4,1,0,100,0,0
99457,-105.902777777778,4,1,0,100,0,0
99532,-105.536332179931,4,1,0,100,0,0
99682,-104.810996563574,4,1,0,100,0,0
99757,-104.452054794521,4,1,0,100,0,0
99832,-104.095563139932,4,1,0,100,0,0
99907,-103.74149659864,4,1,0,100,0,0
100057,-103.040540540541,4,1,0,100,0,0
100207,-102.348993288591,4,1,0,100,0,0
100282,-102.006688963211,4,1,0,100,0,0
100357,-101.666666666667,4,1,0,100,0,0
100507,-100.993377483444,4,1,0,100,0,0
100657,-100.328947368421,4,1,0,100,0,0
100807,-99.6732026143791,4,1,0,100,0,0
100957,-99.025974025974,4,1,0,100,0,0
101032,-98.705501618123,4,1,0,100,0,0
101107,-98.3870967741936,4,1,0,100,0,0
101257,-97.7564102564103,4,1,0,100,0,0
101407,-97.1337579617834,4,1,0,100,0,0
101482,-96.8253968253968,4,1,0,100,0,0
101557,-96.5189873417721,4,1,0,100,0,0
101707,-95.9119496855346,4,1,0,100,0,0
101857,-95.3125,4,1,0,100,0,0
101932,-95.0155763239875,4,1,0,100,0,0
102007,-94.7204968944099,4,1,0,100,0,0
102082,-94.4272445820433,4,1,0,100,0,0
102157,-94.1358024691358,4,1,0,100,0,0
102232,-93.8461538461538,4,1,0,100,0,0
102307,-93.5582822085889,4,1,0,100,0,0
102457,-92.9878048780488,4,1,0,100,0,0
102607,-92.4242424242424,4,1,0,100,0,0
102682,-92.1450151057402,4,1,0,100,0,0
102757,-91.8674698795181,4,1,0,100,0,0
102832,-91.5915915915916,4,1,0,100,0,0
102982,-91.044776119403,4,1,0,100,0,0
103057,-90.7738095238095,4,1,0,100,0,0
103132,-90.5044510385757,4,1,0,100,0,0
103207,-90.2366863905325,4,1,0,100,0,0
103282,-89.9705014749263,4,1,0,100,0,0
103357,-89.7058823529412,4,1,0,100,0,0
103432,-89.4428152492669,4,1,0,100,0,0
103507,-89.1812865497076,4,1,0,100,0,0
103657,-88.6627906976744,4,1,0,100,0,0
103807,-88.150289017341,4,1,0,100,0,0
103882,-87.8962536023055,4,1,0,100,0,0
103957,-87.6436781609195,4,1,0,100,0,0
104107,-87.1428571428572,4,1,0,100,0,0
104257,-86.6477272727273,4,1,0,100,0,0
104332,-86.4022662889518,4,1,0,100,0,0
104482,-85.9154929577465,4,1,0,100,0,0
104557,-85.6741573033708,4,1,0,100,0,0
104632,-85.4341736694678,4,1,0,100,0,0
104707,-85.195530726257,4,1,0,100,0,0
104857,-84.7222222222222,4,1,0,100,0,0
105007,-84.2541436464088,4,1,0,100,0,0
105082,-84.0220385674931,4,1,0,100,0,0
105157,-83.7912087912088,4,1,0,100,0,0
105307,-83.3333333333333,4,1,0,100,0,0
105458,-80,4,1,0,100,0,0
105757,-125,4,1,0,100,0,0
105832,-124.271844660194,4,1,0,100,0,0
105907,-123.552123552124,4,1,0,100,0,0
105982,-122.840690978887,4,1,0,100,0,0
106057,-122.137404580153,4,1,0,100,0,0
106207,-120.754716981132,4,1,0,100,0,0
106282,-120.075046904315,4,1,0,100,0,0
106357,-119.402985074627,4,1,0,100,0,0
106507,-118.081180811808,4,1,0,100,0,0
106657,-116.788321167883,4,1,0,100,0,0
106732,-116.152450090744,4,1,0,100,0,0
106807,-115.523465703971,4,1,0,100,0,0
106882,-114.901256732495,4,1,0,100,0,0
106957,-114.285714285714,4,1,0,100,0,0
107032,-113.676731793961,4,1,0,100,0,0
107107,-113.074204946997,4,1,0,100,0,0
107182,-112.478031634446,4,1,0,100,0,0
107257,-111.888111888112,4,1,0,100,0,0
107407,-110.726643598616,4,1,0,100,0,0
107482,-110.154905335628,4,1,0,100,0,0
107557,-109.58904109589,4,1,0,100,0,0
107707,-108.474576271186,4,1,0,100,0,0
107857,-107.382550335571,4,1,0,100,0,0
107932,-106.844741235392,4,1,0,100,0,0
108007,-106.312292358804,4,1,0,100,0,0
108082,-105.785123966942,4,1,0,100,0,0
108157,-105.263157894737,4,1,0,100,0,0
108232,-104.746317512275,4,1,0,100,0,0
108307,-104.234527687296,4,1,0,100,0,0
108457,-103.225806451613,4,1,0,100,0,0
108607,-102.23642172524,4,1,0,100,0,0
108682,-101.748807631161,4,1,0,100,0,0
108757,-101.26582278481,4,1,0,100,0,0
108907,-100.313479623824,4,1,0,100,0,0
109057,-99.3788819875776,4,1,0,100,0,0
109132,-98.9180834621329,4,1,0,100,0,0
109207,-98.4615384615385,4,1,0,100,0,0
109282,-98.0091883614089,4,1,0,100,0,0
109357,-97.5609756097561,4,1,0,100,0,0
109432,-97.1168437025797,4,1,0,100,0,0
109507,-96.6767371601208,4,1,0,100,0,0
109657,-95.8083832335329,4,1,0,100,0,0
109807,-94.9554896142433,4,1,0,100,0,0
109882,-94.5347119645495,4,1,0,100,0,0
109957,-94.1176470588235,4,1,0,100,0,0
110032,-93.7042459736457,4,1,0,100,0,0
110107,-93.2944606413994,4,1,0,100,0,0
110257,-92.485549132948,4,1,0,100,0,0
110407,-91.6905444126074,4,1,0,100,0,0
110557,-90.9090909090909,4,1,0,100,0,0
110632,-91.0815939278937,4,1,0,100,0,0
110707,-91.254752851711,4,1,0,100,0,0
110782,-91.4285714285714,4,1,0,100,0,0
110857,-91.6030534351145,4,1,0,100,0,0
111007,-91.9540229885057,4,1,0,100,0,0
111082,-92.1305182341651,4,1,0,100,0,0
111157,-92.3076923076923,4,1,0,100,0,0
111307,-92.6640926640926,4,1,0,100,0,0
111457,-93.0232558139535,4,1,0,100,0,0
111532,-93.2038834951456,4,1,0,100,0,0
111607,-93.3852140077821,4,1,0,100,0,0
111682,-93.5672514619883,4,1,0,100,0,0
111757,-93.75,4,1,0,100,0,0
111832,-93.9334637964775,4,1,0,100,0,0
111907,-94.1176470588235,4,1,0,100,0,0
111982,-94.3025540275049,4,1,0,100,0,0
112057,-94.488188976378,4,1,0,100,0,0
112207,-94.8616600790514,4,1,0,100,0,0
112282,-95.049504950495,4,1,0,100,0,0
112357,-95.2380952380952,4,1,0,100,0,0
112507,-95.6175298804781,4,1,0,100,0,0
112657,-96,4,1,0,100,0,0
112807,-96.3855421686747,4,1,0,100,0,0
112882,-96.579476861167,4,1,0,100,0,0
112957,-96.7741935483871,4,1,0,100,0,0
113032,-96.969696969697,4,1,0,100,0,0
113107,-97.165991902834,4,1,0,100,0,0
113182,-97.3630831643002,4,1,0,100,0,0
113257,-97.5609756097561,4,1,0,100,0,0
113407,-97.9591836734694,4,1,0,100,0,0
113482,-98.159509202454,4,1,0,100,0,0
113557,-98.3606557377049,4,1,0,100,0,0
113632,-98.5626283367556,4,1,0,100,0,0
113707,-98.7654320987654,4,1,0,100,0,0
113857,-99.1735537190083,4,1,0,100,0,0
113932,-99.3788819875776,4,1,0,100,0,0
114007,-99.5850622406639,4,1,0,100,0,0
114082,-99.7920997920998,4,1,0,100,0,0
114157,-100,4,1,0,100,0,0
114307,-97.5609756097561,4,1,0,100,0,0
114457,-95.2380952380952,4,1,0,100,0,0
114607,-93.0232558139535,4,1,0,100,0,0
114682,-91.9540229885058,4,1,0,100,0,0
114757,-90.9090909090909,4,1,0,100,0,0
114832,-89.8876404494382,4,1,0,100,0,0
114907,-88.8888888888889,4,1,0,100,0,0
115057,-86.9565217391304,4,1,0,100,0,0
115207,-85.1063829787234,4,1,0,100,0,0
115282,-84.2105263157895,4,1,0,100,0,0
115357,-83.3333333333333,4,1,0,100,0,0
115507,-84.5588235294118,4,1,0,100,0,0
115582,-85.1851851851852,4,1,0,100,0,0
115657,-85.8208955223881,4,1,0,100,0,0
115807,-87.1212121212121,4,1,0,100,0,0
115882,-87.7862595419847,4,1,0,100,0,0
115957,-88.4615384615385,4,1,0,100,0,0
116032,-89.1472868217054,4,1,0,100,0,0
116107,-89.84375,4,1,0,100,0,0
116257,-91.2698412698413,4,1,0,100,0,0
116332,-92,4,1,0,100,0,0
116407,-92.741935483871,4,1,0,100,0,0
116482,-93.4959349593496,4,1,0,100,0,0
116557,-94.2622950819672,4,1,0,100,0,0
116707,-95.8333333333333,4,1,0,100,0,0
116782,-96.6386554621849,4,1,0,100,0,0
116857,-97.4576271186441,4,1,0,100,0,0
116932,-98.2905982905983,4,1,0,100,0,0
117007,-99.1379310344828,4,1,0,100,0,0
117082,-100,4,1,0,100,0,0
117157,-100.877192982456,4,1,0,100,0,0
117307,-102.678571428571,4,1,0,100,0,0
117382,-103.603603603604,4,1,0,100,0,0
117457,-104.545454545455,4,1,0,100,0,0
117607,-106.481481481481,4,1,0,100,0,0
117757,-108.490566037736,4,1,0,100,0,0
117832,-109.52380952381,4,1,0,100,0,0
117907,-110.576923076923,4,1,0,100,0,0
117982,-111.650485436893,4,1,0,100,0,0
118057,-112.745098039216,4,1,0,100,0,0
118207,-115,4,1,0,100,0,0
118282,-116.161616161616,4,1,0,100,0,0
118357,-117.34693877551,4,1,0,100,0,0
118507,-119.791666666667,4,1,0,100,0,0
118657,-122.340425531915,4,1,0,100,0,0
118807,-125,4,1,0,100,0,0
118957,-123.152709359606,4,1,0,100,0,0
119032,-122.249388753056,4,1,0,100,0,0
119107,-121.359223300971,4,1,0,100,0,0
119182,-120.481927710843,4,1,0,100,0,0
119257,-119.617224880383,4,1,0,100,0,0
119407,-117.924528301887,4,1,0,100,0,0
119482,-117.096018735363,4,1,0,100,0,0
119557,-116.279069767442,4,1,0,100,0,0
119632,-115.473441108545,4,1,0,100,0,0
119707,-114.678899082569,4,1,0,100,0,0
119782,-113.895216400911,4,1,0,100,0,0
119857,-113.122171945701,4,1,0,100,0,0
120007,-111.607142857143,4,1,0,100,0,0
120157,-110.132158590308,4,1,0,100,0,0
120307,-108.695652173913,4,1,0,100,0,0
120382,-107.991360691145,4,1,0,100,0,0
120457,-107.296137339056,4,1,0,100,0,0
120607,-105.932203389831,4,1,0,100,0,0
120682,-105.263157894737,4,1,0,100,0,0
120757,-104.602510460251,4,1,0,100,0,0
120832,-103.950103950104,4,1,0,100,0,0
120907,-103.305785123967,4,1,0,100,0,0
121057,-102.040816326531,4,1,0,100,0,0
121207,-100.806451612903,4,1,0,100,0,0
121282,-100.200400801603,4,1,0,100,0,0
121357,-99.601593625498,4,1,0,100,0,0
121507,-98.4251968503937,4,1,0,100,0,0
121582,-97.8473581213307,4,1,0,100,0,0
121657,-97.2762645914397,4,1,0,100,0,0
121807,-96.1538461538461,4,1,0,100,0,0
121882,-95.6022944550669,4,1,0,100,0,0
121957,-95.0570342205323,4,1,0,100,0,0
122032,-94.5179584120983,4,1,0,100,0,0
122107,-93.984962406015,4,1,0,100,0,0
122257,-92.9368029739777,4,1,0,100,0,0
122407,-91.9117647058823,4,1,0,100,0,0
122482,-91.4076782449726,4,1,0,100,0,0
122557,-90.9090909090909,4,1,0,100,0,0
122707,-92.1985815602837,4,1,0,100,0,0
122782,-92.8571428571428,4,1,0,100,0,0
122857,-93.5251798561151,4,1,0,100,0,0
123007,-94.8905109489051,4,1,0,100,0,0
123082,-95.5882352941176,4,1,0,100,0,0
123157,-96.2962962962963,4,1,0,100,0,0
123232,-97.0149253731343,4,1,0,100,0,0
123307,-97.7443609022556,4,1,0,100,0,0
123457,-99.236641221374,4,1,0,100,0,0
123532,-100,4,1,0,100,0,0
123607,-100.77519379845,4,1,0,100,0,0
123757,-102.362204724409,4,1,0,100,0,0
123907,-104,4,1,0,100,0,0
123982,-104.838709677419,4,1,0,100,0,0
124057,-105.691056910569,4,1,0,100,0,0
124207,-107.438016528926,4,1,0,100,0,0
124282,-108.333333333333,4,1,0,100,0,0
124357,-109.243697478992,4,1,0,100,0,0
124432,-110.169491525424,4,1,0,100,0,0
124507,-111.111111111111,4,1,0,100,0,0
124583,-90.9090909090909,4,1,0,100,0,0
124939,-90.9090909090909,4,1,0,70,0,0
124958,-111.111111111111,4,1,0,70,0,0
125032,-111.41060197664,4,1,0,70,0,0
125107,-111.711711711712,4,1,0,70,0,0
125257,-112.31884057971,4,1,0,70,0,0
125407,-112.932604735883,4,1,0,70,0,0
125482,-113.24200913242,4,1,0,70,0,0
125707,-114.180478821363,4,1,0,70,0,0
125782,-114.49676823638,4,1,0,70,0,0
125857,-114.814814814815,4,1,0,70,0,0
126157,-116.104868913858,4,1,0,70,0,0
126307,-116.760828625235,4,1,0,70,0,0
126382,-117.091595845137,4,1,0,70,0,0
126607,-118.095238095238,4,1,0,70,0,0
126682,-118.433619866285,4,1,0,70,0,0
126757,-118.773946360153,4,1,0,70,0,0
127057,-120.15503875969,4,1,0,70,0,0
127207,-120.857699805068,4,1,0,70,0,0
127357,-121.56862745098,4,1,0,70,0,0
127507,-122.287968441815,4,1,0,70,0,0
127582,-122.650840751731,4,1,0,70,0,0
127732,-123.383084577114,4,1,0,70,0,0
127807,-123.75249500998,4,1,0,70,0,0
127957,-124.497991967871,4,1,0,70,0,0
128107,-125.252525252525,4,1,0,70,0,0
128257,-126.016260162602,4,1,0,70,0,0
128332,-126.401630988787,4,1,0,70,0,0
128482,-127.179487179487,4,1,0,70,0,0
128557,-127.572016460905,4,1,0,70,0,0
128632,-127.96697626419,4,1,0,70,0,0
128707,-128.364389233955,4,1,0,70,0,0
128857,-129.166666666667,4,1,0,70,0,0
129007,-129.979035639413,4,1,0,70,0,0
129082,-130.389064143007,4,1,0,70,0,0
129157,-130.801687763713,4,1,0,70,0,0
129382,-132.055378061768,4,1,0,70,0,0
129457,-132.478632478633,4,1,0,70,0,0
129607,-133.333333333333,4,1,0,70,0,0
129683,-66.6666666666667,4,1,0,70,0,0
129833,-111.111111111111,4,1,0,70,0,0
129982,-111.42061281337,4,1,0,70,0,0
130057,-111.731843575419,4,1,0,70,0,0
130207,-112.359550561798,4,1,0,70,0,0
130357,-112.994350282486,4,1,0,70,0,0
130507,-113.636363636364,4,1,0,70,0,0
130582,-113.960113960114,4,1,0,70,0,0
130657,-114.285714285714,4,1,0,70,0,0
130732,-114.613180515759,4,1,0,70,0,0
130807,-114.942528735632,4,1,0,70,0,0
130957,-115.606936416185,4,1,0,70,0,0
131032,-115.942028985507,4,1,0,70,0,0
131107,-116.279069767442,4,1,0,70,0,0
131182,-116.618075801749,4,1,0,70,0,0
131332,-117.302052785924,4,1,0,70,0,0
131407,-117.647058823529,4,1,0,70,0,0
131482,-117.994100294985,4,1,0,70,0,0
131557,-118.343195266272,4,1,0,70,0,0
131707,-119.047619047619,4,1,0,70,0,0
131782,-119.402985074627,4,1,0,70,0,0
131857,-119.760479041916,4,1,0,70,0,0
132007,-120.481927710843,4,1,0,70,0,0
132157,-121.212121212121,4,1,0,70,0,0
132307,-121.951219512195,4,1,0,70,0,0
132457,-122.699386503068,4,1,0,70,0,0
132607,-123.456790123457,4,1,0,70,0,0
132757,-124.223602484472,4,1,0,70,0,0
132907,-125,4,1,0,70,0,0
133057,-125.786163522013,4,1,0,70,0,0
133207,-126.582278481013,4,1,0,70,0,0
133357,-127.388535031847,4,1,0,70,0,0
133432,-127.795527156549,4,1,0,70,0,0
133507,-128.205128205128,4,1,0,70,0,0
133582,-128.617363344052,4,1,0,70,0,0
133732,-129.449838187702,4,1,0,70,0,0
133807,-129.87012987013,4,1,0,70,0,0
133882,-130.29315960912,4,1,0,70,0,0
133957,-130.718954248366,4,1,0,70,0,0
134107,-131.578947368421,4,1,0,70,0,0
134182,-132.013201320132,4,1,0,70,0,0
134257,-132.450331125828,4,1,0,70,0,0
134407,-133.333333333333,4,1,0,70,0,0
134483,-66.6666666666667,4,1,0,70,0,0
134633,-148.679567870667,4,1,0,70,0,0
135382,-147.128809496592,4,1,0,70,0,0
135457,-145.619580216593,4,1,0,70,0,0
135757,-139.985000680244,4,1,0,70,0,0
135907,-137.40010575512,4,1,0,70,0,0
135982,-136.163539025063,4,1,0,70,0,0
136132,-133.799081022001,4,1,0,70,0,0
136207,-132.669983416252,4,1,0,70,0,0
136357,-130.515114858106,4,1,0,70,0,0
136657,-126.60298896018,4,1,0,70,0,0
136807,-124.837226691154,4,1,0,70,0,0
136957,-123.193024839823,4,1,0,70,0,0
137107,-121.666686755365,4,1,0,70,0,0
137257,-120.254747713504,4,1,0,70,0,0
137407,-118.953977009435,4,1,0,70,0,0
137557,-117.761378592939,4,1,0,70,0,0
137707,-116.674190593546,4,1,0,70,0,0
137857,-115.68718186025,4,1,0,70,0,0
138007,-112.612612612613,4,1,0,70,0,0
138082,-112.510399954499,4,1,0,70,0,0
138157,-112.205645218891,4,1,0,70,0,0
138232,-111.703920737083,4,1,0,70,0,0
138307,-111.014261727259,4,1,0,70,0,0
138607,-106.655451853438,4,1,0,70,0,0
138682,-105.252814048304,4,1,0,70,0,0
138757,-103.763607014722,4,1,0,70,0,0
138982,-98.9702219162464,4,1,0,70,0,0
139057,-97.3243843407615,4,1,0,70,0,0
139207,-94.0568676141363,4,1,0,70,0,0
139339,-94.0568676141363,4,1,0,80,0,0
139358,-90.9090909090909,4,1,0,80,0,1
139507,-90.8692887135054,4,1,0,80,0,1
139582,-90.8196073961221,4,1,0,80,0,1
139657,-90.7501865626007,4,1,0,80,0,1
139732,-90.6611585069845,4,1,0,80,0,1
139807,-90.5526923044294,4,1,0,80,0,1
139882,-90.4249930600699,4,1,0,80,0,1
140032,-90.1128904386434,4,1,0,80,0,1
140107,-89.9290685506024,4,1,0,80,0,1
140182,-89.7271740906829,4,1,0,80,0,1
140257,-89.5075759384246,4,1,0,80,0,1
140332,-89.2706715588164,4,1,0,80,0,1
140407,-89.0168853641964,4,1,0,80,0,1
140557,-88.4604895212233,4,1,0,80,0,1
140632,-88.1588476096977,4,1,0,80,0,1
140707,-87.8422556162378,4,1,0,80,0,1
140782,-87.5112456692421,4,1,0,80,0,1
140857,-87.1663657250325,4,1,0,80,0,1
140932,-86.8081776179223,4,1,0,80,0,1
141007,-86.4372551152689,4,1,0,80,0,1
141082,-86.0541819887603,4,1,0,80,0,1
141157,-85.6595501125602,4,1,0,80,0,1
141232,-85.2539575982366,4,1,0,80,0,1
141382,-84.4123034280665,4,1,0,80,0,1
141457,-83.9774530892774,4,1,0,80,0,1
141532,-83.53406140892,4,1,0,80,0,1
141607,-83.0827315922181,4,1,0,80,0,1
141682,-82.6240631187632,4,1,0,80,0,1
141757,-82.1586503444525,4,1,0,80,0,1
141832,-81.6870811897496,4,1,0,80,0,1
141907,-81.2099359166309,4,1,0,80,0,1
142057,-80.2411930649886,4,1,0,80,0,1
142207,-79.2568699477688,4,1,0,80,0,1
142282,-78.7602057708257,4,1,0,80,0,1
142357,-78.2612291508659,4,1,0,80,0,1
142432,-77.7604400999605,4,1,0,80,0,1
142507,-77.2583244265182,4,1,0,80,0,1
142582,-76.7553533032324,4,1,0,80,0,1
142657,-76.2519829123747,4,1,0,80,0,1
142807,-75.2457924902401,4,1,0,80,0,1
142882,-74.7438076913549,4,1,0,80,0,1
142957,-74.2430938637859,4,1,0,80,0,1
143032,-73.7440293720216,4,1,0,80,0,1
143107,-73.2469768807402,4,1,0,80,0,1
143257,-72.2602805948805,4,1,0,80,0,1
143407,-71.2855965533449,4,1,0,80,0,1
143482,-70.8035027351243,4,1,0,80,0,1
143557,-70.3252748018579,4,1,0,80,0,1
143707,-69.3814321209325,4,1,0,80,0,1
143857,-68.4559620366237,4,1,0,80,0,1
144007,-67.550546186917,4,1,0,80,0,1
144158,-100,4,1,0,80,0,0
144159,-50,4,1,0,80,0,0
144233,-100,4,1,0,50,0,0
144608,-111.111111111111,4,1,0,50,0,0
144833,-125,4,1,0,50,0,0
145057,-142.857142857143,4,1,0,80,0,0
145357,-128.205128205128,4,1,0,80,0,0
145394,-126.60364618501,4,1,0,80,0,0
145657,-116.279069767442,4,1,0,80,0,0
145694,-114.960147148988,4,1,0,80,0,0
145957,-106.382978723404,4,1,0,80,0,0
145994,-105.277933745087,4,1,0,80,0,0
146107,-102.040816326531,4,1,0,80,0,0
146144,-101.023706896552,4,1,0,80,0,0
146257,-98.0392156862745,4,1,0,80,0,0
146294,-97.0999482133609,4,1,0,80,0,0
146407,-94.3396226415094,4,1,0,80,0,0
146444,-93.469591226321,4,1,0,80,0,0
146539,-93.469591226321,4,1,0,90,0,0
146558,-90.9090909090909,4,1,0,90,0,0
146707,-89.8876404494382,4,1,0,90,0,0
146782,-89.3854748603352,4,1,0,90,0,0
146857,-88.8888888888889,4,1,0,90,0,0
146932,-88.3977900552486,4,1,0,90,0,0
147082,-87.431693989071,4,1,0,90,0,0
147157,-86.9565217391304,4,1,0,90,0,0
147307,-86.0215053763441,4,1,0,90,0,0
147382,-85.5614973262032,4,1,0,90,0,0
147457,-85.1063829787234,4,1,0,90,0,0
147532,-84.6560846560847,4,1,0,90,0,0
147682,-83.7696335078534,4,1,0,90,0,0
147757,-83.3333333333333,4,1,0,90,0,0
147857,-84.5070422535211,4,1,0,90,0,0
147957,-85.7142857142857,4,1,0,90,0,0
148057,-86.9565217391304,4,1,0,90,0,0
148157,-88.2352941176471,4,1,0,90,0,0
148257,-89.5522388059701,4,1,0,90,0,0
148357,-90.9090909090909,4,1,0,90,0,0
148407,-92.3076923076923,4,1,0,90,0,0
148457,-93.75,4,1,0,90,0,0
148507,-95.2380952380952,4,1,0,90,0,0
148657,-100,4,1,0,90,0,0
148882,-93.0232558139535,4,1,0,90,0,0
148957,-90.9090909090909,4,1,0,90,0,0
149007,-90.5660377358491,4,1,0,90,0,0
149057,-90.2255639097744,4,1,0,90,0,0
149107,-89.8876404494382,4,1,0,90,0,0
149182,-89.3854748603352,4,1,0,90,0,0
149257,-88.8888888888889,4,1,0,90,0,0
149407,-87.9120879120879,4,1,0,90,0,0
149482,-87.431693989071,4,1,0,90,0,0
149557,-86.9565217391304,4,1,0,90,0,0
149707,-86.0215053763441,4,1,0,90,0,0
149857,-85.1063829787234,4,1,0,90,0,0
149932,-84.6560846560847,4,1,0,90,0,0
150082,-83.7696335078534,4,1,0,90,0,0
150157,-83.3333333333333,4,1,0,90,0,0
150207,-83.6909871244635,4,1,0,90,0,0
150307,-84.4155844155844,4,1,0,90,0,0
150382,-84.9673202614379,4,1,0,90,0,0
150457,-85.5263157894737,4,1,0,90,0,0
150507,-85.9030837004405,4,1,0,90,0,0
150607,-86.6666666666667,4,1,0,90,0,0
150682,-87.248322147651,4,1,0,90,0,0
150757,-87.8378378378378,4,1,0,90,0,0
150807,-88.2352941176471,4,1,0,90,0,0
150907,-89.041095890411,4,1,0,90,0,0
150982,-89.6551724137931,4,1,0,90,0,0
151057,-90.2777777777778,4,1,0,90,0,0
151107,-90.6976744186046,4,1,0,90,0,0
151282,-90.6947215672048,4,1,0,90,0,0
151357,-90.2258831521739,4,1,0,90,0,0
151407,-89.9160078702953,4,1,0,90,0,0
151457,-89.6082537986872,4,1,0,90,0,0
151507,-89.302599230947,4,1,0,90,0,0
151582,-88.8480071914622,4,1,0,90,0,0
151657,-88.3980198843546,4,1,0,90,0,0
151732,-87.9525676976087,4,1,0,90,0,0
151882,-87.0749971828677,4,1,0,90,0,0
151957,-86.6427464731306,4,1,0,90,0,0
152107,-85.7909929550455,4,1,0,90,0,0
152257,-84.9558229720545,4,1,0,90,0,0
152332,-84.5443061896379,4,1,0,90,0,0
152482,-83.7331179257829,4,1,0,90,0,0
152557,-83.3333333333333,4,1,0,90,0,0
152607,-84.2696629213483,4,1,0,90,0,0
152657,-85.2272727272727,4,1,0,90,0,0
152707,-86.2068965517241,4,1,0,90,0,0
152782,-87.719298245614,4,1,0,90,0,0
152857,-89.2857142857143,4,1,0,90,0,0
152932,-90.9090909090909,4,1,0,90,0,0
153157,-76.9230769230769,4,1,0,90,0,0
153232,-79.2079207920792,4,1,0,90,0,0
153382,-84.2105263157895,4,1,0,90,0,0
153457,-86.9565217391304,4,1,0,90,0,0
153532,-89.8876404494382,4,1,0,90,0,0
153607,-93.0232558139535,4,1,0,90,0,0
153757,-100,4,1,0,90,0,0
153907,-98.7654320987654,4,1,0,90,0,0
153982,-98.159509202454,4,1,0,90,0,0
154057,-97.5609756097561,4,1,0,90,0,0
154132,-96.969696969697,4,1,0,90,0,0
154282,-95.8083832335329,4,1,0,90,0,0
154357,-95.2380952380952,4,1,0,90,0,0
154507,-94.1176470588235,4,1,0,90,0,0
154657,-93.0232558139535,4,1,0,90,0,0
154732,-92.485549132948,4,1,0,90,0,0
154882,-91.4285714285714,4,1,0,90,0,0
154957,-90.9090909090909,4,1,0,90,0,0
155007,-91.9002858334531,4,1,0,90,0,0
155107,-92.7121146207005,4,1,0,90,0,0
155257,-93.9571121920194,4,1,0,90,0,0
155307,-94.3795752919112,4,1,0,90,0,0
155407,-95.2360021391471,4,1,0,90,0,0
155557,-96.5501875301719,4,1,0,90,0,0
155607,-96.9963464709496,4,1,0,90,0,0
155707,-97.9011499619692,4,1,0,90,0,0
155857,-99.2904551321709,4,1,0,90,0,0
155907,-99.7623609402219,4,1,0,90,0,0
156157,-99.7605746209098,4,1,0,90,0,0
156307,-98.2882719409666,4,1,0,90,0,0
156382,-97.5682978084659,4,1,0,90,0,0
156457,-96.8587947785659,4,1,0,90,0,0
156532,-96.1595360672229,4,1,0,90,0,0
156682,-94.7908767426938,4,1,0,90,0,0
156757,-94.1210541558065,4,1,0,90,0,0
156907,-92.8094123022446,4,1,0,90,0,0
157057,-91.5338252689686,4,1,0,90,0,0
157132,-90.9090909090909,4,1,0,90,0,0
157357,-83.3333333333333,4,1,0,90,0,0
157582,-80.8080808080808,4,1,0,90,0,0
157807,-78.4313725490196,4,1,0,90,0,0
157857,-77.9220779220779,4,1,0,90,0,0
157907,-77.4193548387097,4,1,0,90,0,0
157957,-76.9230769230769,4,1,0,90,0,0
158107,-75.4716981132076,4,1,0,90,0,0
158257,-74.0740740740741,4,1,0,90,0,0
158332,-76.9230769230769,4,1,0,90,0,0
158407,-80,4,1,0,90,0,0
158482,-83.3333333333333,4,1,0,90,0,0
158557,-86.9565217391304,4,1,0,90,0,0
158857,-102.836879432624,4,1,0,90,0,0
159082,-105.072463768116,4,1,0,90,0,0
159157,-105.839416058394,4,1,0,90,0,0
159307,-107.407407407407,4,1,0,90,0,0
159382,-108.208955223881,4,1,0,90,0,0
159457,-109.022556390977,4,1,0,90,0,0
159607,-110.687022900763,4,1,0,90,0,0
159757,-112.403100775194,4,1,0,90,0,0
159807,-112.987012987013,4,1,0,90,0,0
160057,-116,4,1,0,90,0,0
160107,-116.621983914209,4,1,0,90,0,0
160357,-119.834710743802,4,1,0,90,0,0
160407,-120.498614958449,4,1,0,90,0,0
160657,-123.931623931624,4,1,0,90,0,0
160707,-124.641833810888,4,1,0,90,0,0
160883,-76.9230769230769,4,1,0,90,0,0
161033,-102.189781021898,4,1,0,90,0,0
161332,-102.941176470588,4,1,0,90,0,0
161482,-104.477611940299,4,1,0,90,0,0
161557,-105.263157894737,4,1,0,90,0,0
161707,-106.870229007634,4,1,0,90,0,0
161782,-107.692307692308,4,1,0,90,0,0
161857,-108.527131782946,4,1,0,90,0,0
162007,-110.236220472441,4,1,0,90,0,0
162157,-112,4,1,0,90,0,0
162207,-112.600536193029,4,1,0,90,0,0
162457,-115.702479338843,4,1,0,90,0,0
162507,-116.343490304709,4,1,0,90,0,0
162757,-119.65811965812,4,1,0,90,0,0
162807,-120.343839541547,4,1,0,90,0,0
163057,-123.893805309735,4,1,0,90,0,0
163107,-124.629080118694,4,1,0,90,0,0
163308,-62.5,4,1,0,90,0,0
163408,-102.189781021898,4,1,0,90,0,0
163807,-103.703703703704,4,1,0,90,0,0
163882,-104.477611940299,4,1,0,90,0,0
163957,-105.263157894737,4,1,0,90,0,0
164107,-106.870229007634,4,1,0,90,0,0
164182,-107.692307692308,4,1,0,90,0,0
164257,-108.527131782946,4,1,0,90,0,0
164407,-110.236220472441,4,1,0,90,0,0
164557,-112,4,1,0,90,0,0
164607,-112.600536193029,4,1,0,90,0,0
164857,-115.702479338843,4,1,0,90,0,0
164907,-116.343490304709,4,1,0,90,0,0
165157,-119.65811965812,4,1,0,90,0,0
165207,-120.343839541547,4,1,0,90,0,0
165457,-123.893805309735,4,1,0,90,0,0
165507,-124.629080118694,4,1,0,90,0,0
165708,-45.4545454545455,4,1,0,90,0,0
165808,-125,4,1,0,90,0,0
166207,-117.647058823529,4,1,0,90,0,0
166282,-114.285714285714,4,1,0,90,0,0
166357,-111.111111111111,4,1,0,90,0,0
166507,-105.263157894737,4,1,0,90,0,0
166582,-102.564102564103,4,1,0,90,0,0
166657,-100,4,1,0,90,0,0
166807,-95.2380952380952,4,1,0,90,0,0
166957,-90.9090909090909,4,1,0,90,0,0
167107,-83.8430221699282,4,1,0,90,0,0
167182,-80.8932458761296,4,1,0,90,0,0
167257,-78.349300845991,4,1,0,90,0,0
167407,-74.4765176848441,4,1,0,90,0,0
167557,-72.1856465028578,4,1,0,90,0,0
167632,-71.6175136647851,4,1,0,90,0,0
167707,-71.4285714285714,4,1,0,90,0,0
168008,-111.111111111111,4,1,0,90,0,0
168157,-110.38961038961,4,1,0,90,0,0
168457,-107.594936708861,4,1,0,90,0,0
168607,-106.25,4,1,0,90,0,0
168682,-105.590062111801,4,1,0,90,0,0
168757,-104.938271604938,4,1,0,90,0,0
168907,-103.658536585366,4,1,0,90,0,0
168982,-103.030303030303,4,1,0,90,0,0
169057,-102.409638554217,4,1,0,90,0,0
169207,-101.190476190476,4,1,0,90,0,0
169357,-100,4,1,0,90,0,0
169407,-98.9583333333333,4,1,0,90,0,0
169657,-94.0594059405941,4,1,0,90,0,0
169707,-93.1372549019608,4,1,0,90,0,0
169957,-88.785046728972,4,1,0,90,0,0
170007,-87.962962962963,4,1,0,90,0,0
170257,-84.070796460177,4,1,0,90,0,0
170307,-83.3333333333333,4,1,0,90,0,0
170557,-111.111111111111,4,1,0,90,0,0
170707,-109.58904109589,4,1,0,90,0,0
170782,-108.843537414966,4,1,0,90,0,0
170857,-108.108108108108,4,1,0,90,0,0
171007,-106.666666666667,4,1,0,90,0,0
171157,-105.263157894737,4,1,0,90,0,0
171232,-104.575163398693,4,1,0,90,0,0
171382,-103.225806451613,4,1,0,90,0,0
171457,-102.564102564103,4,1,0,90,0,0
171607,-101.26582278481,4,1,0,90,0,0
171757,-100,4,1,0,90,0,0
171807,-98.9583333333333,4,1,0,90,0,0
172057,-94.0594059405941,4,1,0,90,0,0
172107,-93.1372549019608,4,1,0,90,0,0
172357,-88.785046728972,4,1,0,90,0,0
172407,-87.962962962963,4,1,0,90,0,0
172657,-84.070796460177,4,1,0,90,0,0
172707,-83.3333333333333,4,1,0,90,0,0
172957,-111.111111111111,4,1,0,90,0,0
173107,-109.58904109589,4,1,0,90,0,0
173182,-108.843537414966,4,1,0,90,0,0
173257,-108.108108108108,4,1,0,90,0,0
173332,-107.382550335571,4,1,0,90,0,0
173482,-105.960264900662,4,1,0,90,0,0
173557,-105.263157894737,4,1,0,90,0,0
173707,-103.896103896104,4,1,0,90,0,0
173782,-103.225806451613,4,1,0,90,0,0
173857,-102.564102564103,4,1,0,90,0,0
174007,-101.26582278481,4,1,0,90,0,0
174157,-100,4,1,0,90,0,0
174207,-98.9583333333333,4,1,0,90,0,0
174457,-94.0594059405941,4,1,0,90,0,0
174507,-93.1372549019608,4,1,0,90,0,0
174757,-88.785046728972,4,1,0,90,0,0
174807,-87.962962962963,4,1,0,90,0,0
175057,-84.070796460177,4,1,0,90,0,0
175107,-83.3333333333333,4,1,0,90,0,0
175357,-111.111111111111,4,1,0,90,0,0
175507,-108.108108108108,4,1,0,90,0,0
175582,-106.666666666667,4,1,0,90,0,0
175657,-105.263157894737,4,1,0,90,0,0
175807,-102.564102564103,4,1,0,90,0,0
175882,-101.26582278481,4,1,0,90,0,0
175957,-100,4,1,0,90,0,0
176107,-97.5609756097561,4,1,0,90,0,0
176182,-96.3855421686747,4,1,0,90,0,0
176257,-95.2380952380952,4,1,0,90,0,0
176407,-93.0232558139535,4,1,0,90,0,0
176557,-90.9090909090909,4,1,0,90,0,0
176707,-86.6141732283465,4,1,0,90,0,0
176782,-84.6153846153846,4,1,0,90,0,0
176857,-82.7067669172932,4,1,0,90,0,0
177007,-79.136690647482,4,1,0,90,0,0
177082,-77.4647887323944,4,1,0,90,0,0
177157,-75.8620689655172,4,1,0,90,0,0
177232,-74.3243243243243,4,1,0,90,0,0
177307,-72.8476821192053,4,1,0,90,0,0
177608,-100.217864923747,4,1,0,90,0,0
177757,-100.877192982456,4,1,0,90,0,0
177907,-102.222222222222,4,1,0,90,0,0
178057,-103.603603603604,4,1,0,90,0,0
178207,-105.022831050228,4,1,0,90,0,0
178282,-105.747126436782,4,1,0,90,0,0
178357,-106.481481481481,4,1,0,90,0,0
178432,-107.226107226107,4,1,0,90,0,0
178582,-108.747044917258,4,1,0,90,0,0
178657,-109.52380952381,4,1,0,90,0,0
178807,-111.111111111111,4,1,0,90,0,0
178957,-100,4,1,0,90,0,0
179007,-97.9381443298969,4,1,0,90,0,0
179257,-88.785046728972,4,1,0,90,0,0
179307,-87.1559633027523,4,1,0,90,0,0
179557,-79.8319327731092,4,1,0,90,0,0
179607,-78.5123966942149,4,1,0,90,0,0
179857,-72.5190839694657,4,1,0,90,0,0
179907,-71.4285714285714,4,1,0,90,0,0
180108,-100,4,1,0,90,0,0
180307,-101.449275362319,4,1,0,90,0,0
180382,-102.189781021898,4,1,0,90,0,0
180457,-102.941176470588,4,1,0,90,0,0
180607,-104.477611940299,4,1,0,90,0,0
180757,-106.060606060606,4,1,0,90,0,0
180907,-107.692307692308,4,1,0,90,0,0
180982,-108.527131782946,4,1,0,90,0,0
181057,-109.375,4,1,0,90,0,0
181207,-111.111111111111,4,1,0,90,0,0
181357,-100,4,1,0,90,0,0
181407,-97.9381443298969,4,1,0,90,0,0
181657,-88.785046728972,4,1,0,90,0,0
181707,-87.1559633027523,4,1,0,90,0,0
181957,-79.8319327731092,4,1,0,90,0,0
182007,-78.5123966942149,4,1,0,90,0,0
182257,-72.5190839694657,4,1,0,90,0,0
182307,-71.4285714285714,4,1,0,90,0,0
182557,-100,4,1,0,90,0,0
182857,-102.941176470588,4,1,0,90,0,0
183007,-104.477611940299,4,1,0,90,0,0
183082,-105.263157894737,4,1,0,90,0,0
183157,-106.060606060606,4,1,0,90,0,0
183232,-106.870229007634,4,1,0,90,0,0
183382,-108.527131782946,4,1,0,90,0,0
183457,-109.375,4,1,0,90,0,0
183607,-111.111111111111,4,1,0,90,0,0
183757,-100,4,1,0,90,0,0
183807,-97.9381443298969,4,1,0,90,0,0
184057,-88.785046728972,4,1,0,90,0,0
184107,-87.1559633027523,4,1,0,90,0,0
184357,-79.8319327731092,4,1,0,90,0,0
184407,-78.5123966942149,4,1,0,90,0,0
184657,-72.5190839694657,4,1,0,90,0,0
184707,-71.4285714285714,4,1,0,90,0,0
184957,-100,4,1,0,90,0,0
185107,-101.449275362319,4,1,0,90,0,0
185257,-102.941176470588,4,1,0,90,0,0
185407,-104.477611940299,4,1,0,90,0,0
185557,-106.060606060606,4,1,0,90,0,0
185707,-107.692307692308,4,1,0,90,0,0
185782,-108.527131782946,4,1,0,90,0,0
185857,-109.375,4,1,0,90,0,0
186007,-111.111111111111,4,1,0,90,0,0
186108,-90.9090909090909,4,1,0,90,0,0
186307,-85.7142857142857,4,1,0,90,0,0
186382,-83.3333333333333,4,1,0,90,0,0
186457,-81.0810810810811,4,1,0,90,0,0
186607,-76.9230769230769,4,1,0,90,0,0
186757,-73.1707317073171,4,1,0,90,0,0
186832,-71.4285714285714,4,1,0,90,0,0
186907,-69.7674418604651,4,1,0,90,0,0
187057,-66.6666666666667,4,1,0,90,0,0
187308,-90.9090909090909,4,1,0,90,0,0
187507,-92.3076923076923,4,1,0,90,0,0
187582,-93.0232558139535,4,1,0,90,0,0
187657,-93.75,4,1,0,90,0,0
187807,-95.2380952380952,4,1,0,90,0,0
187882,-96,4,1,0,90,0,0
187957,-96.7741935483871,4,1,0,90,0,0
188032,-97.5609756097561,4,1,0,90,0,0
188182,-99.1735537190083,4,1,0,90,0,0
188257,-100,4,1,0,90,0,0
188407,-101.694915254237,4,1,0,90,0,0
188557,-103.448275862069,4,1,0,90,0,0
188707,-105.263157894737,4,1,0,90,0,0
188857,-107.142857142857,4,1,0,90,0,0
189007,-109.090909090909,4,1,0,90,0,0
189157,-111.111111111111,4,1,0,90,0,0
189457,-105.263157894737,4,1,0,90,0,0
189757,-100,4,1,0,90,0,0
189907,-101.694915254237,4,1,0,90,0,0
189982,-102.564102564103,4,1,0,90,0,0
190057,-103.448275862069,4,1,0,90,0,0
190207,-105.263157894737,4,1,0,90,0,0
190357,-107.142857142857,4,1,0,90,0,0
190432,-108.108108108108,4,1,0,90,0,0
190507,-109.090909090909,4,1,0,90,0,0
190582,-110.091743119266,4,1,0,90,0,0
190657,-111.111111111111,4,1,0,90,0,0
190807,-113.207547169811,4,1,0,90,0,0
190957,-115.384615384615,4,1,0,90,0,0
191107,-117.647058823529,4,1,0,90,0,0
191257,-120,4,1,0,90,0,0
191407,-122.448979591837,4,1,0,90,0,0
191557,-125,4,1,0,90,0,0
191857,-117.647058823529,4,1,0,90,0,0
192157,-111.111111111111,4,1,0,90,0,0
192307,-113.207547169811,4,1,0,90,0,0
192382,-114.285714285714,4,1,0,90,0,0
192457,-115.384615384615,4,1,0,90,0,0
192607,-117.647058823529,4,1,0,90,0,0
192682,-118.811881188119,4,1,0,90,0,0
192757,-120,4,1,0,90,0,0
192832,-121.212121212121,4,1,0,90,0,0
192982,-123.711340206186,4,1,0,90,0,0
193057,-125,4,1,0,90,0,0
193207,-127.659574468085,4,1,0,90,0,0
193282,-129.032258064516,4,1,0,90,0,0
193357,-130.434782608696,4,1,0,90,0,0
193507,-133.333333333333,4,1,0,90,0,0
193657,-136.363636363636,4,1,0,90,0,0
193807,-139.53488372093,4,1,0,90,0,0
193957,-142.857142857143,4,1,0,90,0,0
194257,-133.333333333333,4,1,0,90,0,0
194557,-125,4,1,0,90,0,0
194707,-126.984126984127,4,1,0,90,0,0
194782,-128,4,1,0,90,0,0
194857,-129.032258064516,4,1,0,90,0,0
195007,-131.147540983607,4,1,0,90,0,0
195157,-133.333333333333,4,1,0,90,0,0
195232,-134.453781512605,4,1,0,90,0,0
195307,-135.593220338983,4,1,0,90,0,0
195382,-136.752136752137,4,1,0,90,0,0
195457,-137.931034482759,4,1,0,90,0,0
195607,-140.350877192982,4,1,0,90,0,0
195757,-100,4,1,0,90,0,0
195907,-94.1176470588235,4,1,0,90,0,0
195982,-91.4285714285714,4,1,0,90,0,0
196057,-88.8888888888889,4,1,0,90,0,0
196207,-84.2105263157895,4,1,0,90,0,0
196357,-80,4,1,0,90,0,0
196432,-78.0487804878049,4,1,0,90,0,0
196507,-76.1904761904762,4,1,0,90,0,0
196807,-69.5652173913043,4,1,0,90,0,0
196957,-66.6666666666667,4,1,0,90,0,0
197033,-200,4,1,0,50,0,0
197333,-133.333333333333,4,1,0,50,0,0
198157,-200,4,1,0,50,0,0
199357,-186.666666666667,4,1,0,50,0,0
200557,-175,4,1,0,50,0,0
201720,-175,4,1,0,5,0,0
201757,-164.705882352941,4,1,0,10,0,0
202957,-155.555555555556,4,1,0,15,0,0
204157,-147.368421052632,4,1,0,20,0,0
205357,-140,4,1,0,25,0,0
206557,-133.333333333333,4,1,0,50,0,0
206632,-133.319948841329,4,1,0,50,0,0
206707,-133.279819540132,4,1,0,50,0,0
206782,-133.213017852389,4,1,0,50,0,0
206857,-133.119664143947,4,1,0,50,0,0
206932,-132.999926218832,4,1,0,50,0,0
207007,-132.854018617784,4,1,0,50,0,0
207082,-132.682201725856,4,1,0,50,0,0
207157,-132.484780696029,4,1,0,50,0,0
207232,-132.262104197129,4,1,0,50,0,0
207307,-132.01456299565,4,1,0,50,0,0
207382,-131.742588382169,4,1,0,50,0,0
207457,-131.446650454107,4,1,0,50,0,0
207532,-131.127256267446,4,1,0,50,0,0
207607,-130.784947870742,4,1,0,50,0,0
207682,-130.420300235365,4,1,0,50,0,0
207757,-130.033919096333,4,1,0,50,0,0
207832,-129.626438718357,4,1,0,50,0,0
207907,-129.198519601873,4,1,0,50,0,0
207982,-128.750846143776,4,1,0,50,0,0
208057,-128.284124267441,4,1,0,50,0,0
208132,-127.799079036287,4,1,0,50,0,0
208207,-127.296452264753,4,1,0,50,0,0
208282,-126.777000139981,4,1,0,50,0,0
208357,-126.241490866899,4,1,0,50,0,0
208432,-125.690702348654,4,1,0,50,0,0
208507,-125.125419913563,4,1,0,50,0,0
208582,-124.546434098869,4,1,0,50,0,0
208657,-123.954538500698,4,1,0,50,0,0
208732,-123.350527698669,4,1,0,50,0,0
208807,-122.735195262626,4,1,0,50,0,0
208882,-122.10933184802,4,1,0,50,0,0
208957,-121.473723385459,4,1,0,50,0,0
209032,-120.829149369005,4,1,0,50,0,0
209107,-120.176381246859,4,1,0,50,0,0
209182,-119.51618091716,4,1,0,50,0,0
209257,-118.849299330745,4,1,0,50,0,0
209332,-118.176475201923,4,1,0,50,0,0
209407,-117.498433827498,4,1,0,50,0,0
209482,-116.81588601359,4,1,0,50,0,0
209557,-116.129527109117,4,1,0,50,0,0
209632,-115.440036144208,4,1,0,50,0,0
209707,-114.748075071256,4,1,0,50,0,0
209782,-114.054288105858,4,1,0,50,0,0
209857,-113.359301164449,4,1,0,50,0,0
209932,-112.663721395068,4,1,0,50,0,0
210007,-111.968136797408,4,1,0,50,0,0
210082,-111.273115928026,4,1,0,50,0,0
210157,-110.579207686412,4,1,0,50,0,0
210232,-109.886941177444,4,1,0,50,0,0
210307,-109.196825645666,4,1,0,50,0,0
210382,-108.509350476777,4,1,0,50,0,0
210457,-107.824985261662,4,1,0,50,0,0
210532,-107.144179918353,4,1,0,50,0,0
210607,-106.467364867322,4,1,0,50,0,0
210682,-105.79495125561,4,1,0,50,0,0
210757,-105.127331225363,4,1,0,50,0,0
210832,-104.464878222509,4,1,0,50,0,0
210907,-103.807947341411,4,1,0,50,0,0
210982,-103.156875701516,4,1,0,50,0,0
211057,-102.511982852171,4,1,0,50,0,0
211132,-101.873571201953,4,1,0,50,0,0
211207,-101.241926469066,4,1,0,50,0,0
211282,-100.617318149518,4,1,0,50,0,0
211357,-100,4,1,0,50,0,0
211432,-99.3902105325948,4,1,0,50,0,0
211507,-98.7881735185973,4,1,0,50,0,0
211582,-98.1940984989652,4,1,0,50,0,0
211657,-97.6081812990739,4,1,0,50,0,0
211732,-97.0306045456449,4,1,0,50,0,0
211807,-96.4615381838957,4,1,0,50,0,0
211882,-95.9011399931272,4,1,0,50,0,0
211957,-95.3495560991314,4,1,0,50,0,0
212032,-94.8069214819618,4,1,0,50,0,0
212107,-94.2733604777573,4,1,0,50,0,0
212182,-93.7489872734545,4,1,0,50,0,0
212257,-93.2339063933578,4,1,0,50,0,0
212332,-92.728213176666,4,1,0,50,0,0
212407,-92.2319942451683,4,1,0,50,0,0
212482,-91.7453279604407,4,1,0,50,0,0
212557,-91.2682848699712,4,1,0,50,0,0
212632,-90.8009281417419,4,1,0,50,0,0
212707,-90.3433139868841,4,1,0,50,0,0
212782,-89.8954920701016,4,1,0,50,0,0
212857,-89.4575059076369,4,1,0,50,0,0
212932,-89.0293932526176,4,1,0,50,0,0
213007,-88.6111864676863,4,1,0,50,0,0
213082,-88.2029128848712,4,1,0,50,0,0
213157,-87.804595152705,4,1,0,50,0,0
213232,-87.4162515706449,4,1,0,50,0,0
213307,-87.0378964108875,4,1,0,50,0,0
213382,-86.6695402277044,4,1,0,50,0,0
213457,-86.3111901544598,4,1,0,50,0,0
213532,-85.9628501884931,4,1,0,50,0,0
213607,-85.6245214640771,4,1,0,50,0,0
213682,-85.2962025136787,4,1,0,50,0,0
213757,-84.9778895177665,4,1,0,50,0,0
213832,-84.6695765434226,4,1,0,50,0,0
213907,-84.3712557720265,4,1,0,50,0,0
213982,-84.0829177162876,4,1,0,50,0,0
214057,-83.8045514269065,4,1,0,50,0,0
214132,-83.536144689152,4,1,0,50,0,0
214207,-83.277684209638,4,1,0,50,0,0
214282,-83.0291557935908,4,1,0,50,0,0
214357,-82.7905445128881,4,1,0,50,0,0
214432,-82.5618348651542,4,1,0,50,0,0
214507,-82.3430109241894,4,1,0,50,0,0
214582,-82.1340564820049,4,1,0,50,0,0
214657,-81.9349551827302,4,1,0,50,0,0
214732,-81.745690648653,4,1,0,50,0,0
214807,-81.5662465986406,4,1,0,50,0,0
214882,-81.3966069591865,4,1,0,50,0,0
214957,-81.2367559683149,4,1,0,50,0,0
215032,-81.0866782725665,4,1,0,50,0,0
215107,-80.9463590172772,4,1,0,50,0,0
215182,-80.815783930353,4,1,0,50,0,0
215257,-80.6949393997324,4,1,0,50,0,0
215332,-80.5838125447145,4,1,0,50,0,0
215407,-80.4823912813215,4,1,0,50,0,0
215482,-80.3906643818533,4,1,0,50,0,0
215557,-80.3086215287757,4,1,0,50,0,0
215632,-80.2362533630765,4,1,0,50,0,0
215707,-80.1735515272086,4,1,0,50,0,0
215782,-80.1205087027265,4,1,0,50,0,0
215857,-80.0771186427135,4,1,0,50,0,0
215932,-80.0433761990791,4,1,0,50,0,0
216007,-80.0192773447985,4,1,0,50,0,0
216082,-80.0048191911508,4,1,0,50,0,0
216157,-80,4,1,0,50,0,0
216233,-200,4,1,0,50,0,0
218558,-200,4,1,0,50,0,0
218559,-166.666666666667,4,1,0,50,0,0
218633,-200,4,1,0,50,0,0
220958,-200,4,1,0,50,0,0
220959,-142.857142857143,4,1,0,50,0,0
221033,-200,4,1,0,50,0,0
223358,-200,4,1,0,50,0,0
223359,-125,4,1,0,50,0,0
223433,-200,4,1,0,50,0,0
225720,-200,4,1,0,60,0,0
225758,-200,4,1,0,60,0,0
225759,-111.111111111111,4,1,0,60,0,0
225795,-200,4,1,0,60,0,0
226357,-111.111111111111,4,1,0,60,0,0
226657,-111.969111969112,4,1,0,60,0,0
226920,-200,4,1,0,60,0,0
227557,-114.624505928854,4,1,0,60,0,0
227857,-115.537848605578,4,1,0,60,0,0
228120,-200,4,1,0,60,0,0
228158,-200,4,1,0,60,0,0
228159,-83.3333333333333,4,1,0,60,0,0
228195,-200,4,1,0,60,0,0
228757,-118.367346938775,4,1,0,60,0,0
229057,-119.341563786008,4,1,0,60,0,0
229320,-200,4,1,0,60,0,0
229957,-122.362869198312,4,1,0,60,0,0
230257,-123.404255319149,4,1,0,60,0,0
230520,-200,4,1,0,60,0,0
230558,-200,4,1,0,60,0,0
230559,-71.4285714285714,4,1,0,60,0,0
230595,-200,4,1,0,60,0,0
231157,-126.637554585153,4,1,0,60,0,0
231457,-127.753303964758,4,1,0,60,0,0
231720,-200,4,1,0,60,0,0
232357,-131.221719457014,4,1,0,60,0,0
232657,-132.420091324201,4,1,0,60,0,0
232920,-200,4,1,0,60,0,0
232958,-200,4,1,0,60,0,0
232959,-62.5,4,1,0,60,0,0
232995,-200,4,1,0,60,0,0
233557,-136.150234741784,4,1,0,60,0,0
233857,-137.440758293839,4,1,0,60,0,0
234120,-200,4,1,0,60,0,0
234757,-141.463414634146,4,1,0,60,0,0
235057,-142.857142857143,4,1,0,60,0,0
235339,-142.857142857143,4,1,0,60,0,0
235357,-133.333333333333,4,1,0,60,0,0
235432,-133.319948841329,4,1,0,60,0,0
235507,-133.279819540132,4,1,0,60,0,0
235582,-133.213017852389,4,1,0,60,0,0
235657,-133.119664143947,4,1,0,60,0,0
235732,-132.999926218832,4,1,0,60,0,0
235807,-132.854018617784,4,1,0,60,0,0
235882,-132.682201725856,4,1,0,60,0,0
235957,-132.484780696029,4,1,0,60,0,0
236032,-132.262104197129,4,1,0,60,0,0
236107,-132.01456299565,4,1,0,60,0,0
236182,-131.742588382169,4,1,0,60,0,0
236257,-131.446650454107,4,1,0,60,0,0
236332,-131.127256267446,4,1,0,60,0,0
236407,-130.784947870742,4,1,0,60,0,0
236482,-130.420300235365,4,1,0,60,0,0
236557,-130.033919096333,4,1,0,60,0,0
236632,-129.626438718357,4,1,0,60,0,0
236707,-129.198519601873,4,1,0,60,0,0
236782,-128.750846143776,4,1,0,60,0,0
236857,-128.284124267441,4,1,0,60,0,0
236932,-127.799079036287,4,1,0,60,0,0
237007,-127.296452264753,4,1,0,60,0,0
237082,-126.777000139981,4,1,0,60,0,0
237157,-126.241490866899,4,1,0,60,0,0
237232,-125.690702348654,4,1,0,60,0,0
237307,-125.125419913563,4,1,0,60,0,0
237382,-124.546434098869,4,1,0,60,0,0
237457,-123.954538500698,4,1,0,60,0,0
237532,-123.350527698669,4,1,0,60,0,0
237607,-122.735195262626,4,1,0,60,0,0
237682,-122.10933184802,4,1,0,60,0,0
237757,-121.473723385459,4,1,0,60,0,0
237832,-120.829149369005,4,1,0,60,0,0
237907,-120.176381246859,4,1,0,60,0,0
237982,-119.51618091716,4,1,0,60,0,0
238057,-118.849299330745,4,1,0,60,0,0
238132,-118.176475201923,4,1,0,60,0,0
238207,-117.498433827498,4,1,0,60,0,0
238282,-116.81588601359,4,1,0,60,0,0
238357,-116.129527109117,4,1,0,60,0,0
238432,-115.440036144208,4,1,0,60,0,0
238507,-114.748075071256,4,1,0,60,0,0
238582,-114.054288105858,4,1,0,60,0,0
238657,-113.359301164449,4,1,0,60,0,0
238732,-112.663721395068,4,1,0,60,0,0
238807,-111.968136797408,4,1,0,60,0,0
238882,-111.273115928026,4,1,0,60,0,0
238957,-110.579207686412,4,1,0,60,0,0
239032,-109.886941177444,4,1,0,60,0,0
239107,-109.196825645666,4,1,0,60,0,0
239182,-108.509350476777,4,1,0,60,0,0
239257,-107.824985261662,4,1,0,60,0,0
239332,-107.144179918353,4,1,0,60,0,0
239407,-106.467364867322,4,1,0,60,0,0
239482,-105.79495125561,4,1,0,60,0,0
239557,-105.127331225363,4,1,0,60,0,0
239632,-104.464878222509,4,1,0,60,0,0
239707,-103.807947341411,4,1,0,60,0,0
239782,-103.156875701516,4,1,0,60,0,0
239857,-102.511982852171,4,1,0,60,0,0
239932,-101.873571201953,4,1,0,60,0,0
240007,-101.241926469066,4,1,0,60,0,0
240082,-100.617318149518,4,1,0,60,0,0
240157,-100,4,1,0,60,0,0
240232,-99.3902105325948,4,1,0,60,0,0
240307,-98.7881735185973,4,1,0,60,0,0
240382,-98.1940984989652,4,1,0,60,0,0
240457,-97.6081812990739,4,1,0,60,0,0
240532,-97.0306045456449,4,1,0,60,0,0
240607,-96.4615381838957,4,1,0,60,0,0
240682,-95.9011399931272,4,1,0,60,0,0
240757,-95.3495560991314,4,1,0,60,0,0
240832,-94.8069214819618,4,1,0,60,0,0
240907,-94.2733604777573,4,1,0,60,0,0
240982,-93.7489872734545,4,1,0,60,0,0
241057,-93.2339063933578,4,1,0,60,0,0
241132,-92.728213176666,4,1,0,60,0,0
241207,-92.2319942451683,4,1,0,60,0,0
241282,-91.7453279604407,4,1,0,60,0,0
241357,-91.2682848699712,4,1,0,60,0,0
241432,-90.8009281417419,4,1,0,60,0,0
241507,-90.3433139868841,4,1,0,60,0,0
241582,-89.8954920701016,4,1,0,60,0,0
241657,-89.4575059076369,4,1,0,60,0,0
241732,-89.0293932526176,4,1,0,60,0,0
241807,-88.6111864676863,4,1,0,60,0,0
241882,-88.2029128848712,4,1,0,60,0,0
241957,-87.804595152705,4,1,0,60,0,0
242032,-87.4162515706449,4,1,0,60,0,0
242107,-87.0378964108875,4,1,0,60,0,0
242182,-86.6695402277044,4,1,0,60,0,0
242257,-86.3111901544598,4,1,0,60,0,0
242332,-85.9628501884931,4,1,0,60,0,0
242407,-85.6245214640771,4,1,0,60,0,0
242482,-85.2962025136787,4,1,0,60,0,0
242557,-84.9778895177665,4,1,0,60,0,0
242632,-84.6695765434226,4,1,0,60,0,0
242707,-84.3712557720265,4,1,0,60,0,0
242782,-84.0829177162876,4,1,0,60,0,0
242857,-83.8045514269065,4,1,0,60,0,0
242932,-83.536144689152,4,1,0,60,0,0
243007,-83.277684209638,4,1,0,60,0,0
243082,-83.0291557935908,4,1,0,60,0,0
243157,-82.7905445128881,4,1,0,60,0,0
243232,-82.5618348651542,4,1,0,60,0,0
243307,-82.3430109241894,4,1,0,60,0,0
243382,-82.1340564820049,4,1,0,60,0,0
243457,-81.9349551827302,4,1,0,60,0,0
243532,-81.745690648653,4,1,0,60,0,0
243607,-81.5662465986406,4,1,0,60,0,0
243682,-81.3966069591865,4,1,0,60,0,0
243757,-81.2367559683149,4,1,0,60,0,0
243832,-81.0866782725665,4,1,0,60,0,0
243907,-80.9463590172772,4,1,0,60,0,0
243982,-80.815783930353,4,1,0,60,0,0
244057,-80.6949393997324,4,1,0,60,0,0
244132,-80.5838125447145,4,1,0,60,0,0
244207,-80.4823912813215,4,1,0,60,0,0
244282,-80.3906643818533,4,1,0,60,0,0
244357,-80.3086215287757,4,1,0,60,0,0
244432,-80.2362533630765,4,1,0,60,0,0
244507,-80.1735515272086,4,1,0,60,0,0
244582,-80.1205087027265,4,1,0,60,0,0
244657,-80.0771186427135,4,1,0,60,0,0
244732,-80.0433761990791,4,1,0,60,0,0
244807,-80.0192773447985,4,1,0,60,0,0
244882,-80.0048191911508,4,1,0,60,0,0
244958,-80,4,1,0,70,0,1
245032,-79.9167533818939,4,1,0,70,0,1
245107,-79.8336798336798,4,1,0,70,0,1
245182,-79.7507788161994,4,1,0,70,0,1
245257,-79.6680497925311,4,1,0,70,0,1
245332,-79.5854922279793,4,1,0,70,0,1
245407,-79.5031055900621,4,1,0,70,0,1
245482,-79.4208893485005,4,1,0,70,0,1
245557,-79.3388429752066,4,1,0,70,0,1
245632,-79.2569659442725,4,1,0,70,0,1
245707,-79.1752577319588,4,1,0,70,0,1
245782,-79.0937178166838,4,1,0,70,0,1
245857,-79.0123456790123,4,1,0,70,0,1
245932,-78.9311408016444,4,1,0,70,0,1
246007,-78.8501026694045,4,1,0,70,0,1
246082,-78.7692307692308,4,1,0,70,0,1
246157,-78.6885245901639,4,1,0,70,0,1
246232,-78.6079836233367,4,1,0,70,0,1
246307,-78.5276073619632,4,1,0,70,0,1
246382,-78.4473953013279,4,1,0,70,0,1
246457,-78.3673469387755,4,1,0,70,0,1
246532,-78.2874617737003,4,1,0,70,0,1
246607,-78.2077393075356,4,1,0,70,0,1
246682,-78.1281790437436,4,1,0,70,0,1
246757,-78.0487804878049,4,1,0,70,0,1
246832,-77.9695431472081,4,1,0,70,0,1
246907,-77.8904665314402,4,1,0,70,0,1
246982,-77.8115501519757,4,1,0,70,0,1
247057,-77.7327935222672,4,1,0,70,0,1
247132,-77.6541961577351,4,1,0,70,0,1
247207,-77.5757575757576,4,1,0,70,0,1
247282,-77.497477295661,4,1,0,70,0,1
247357,-77.4193548387097,4,1,0,70,0,1
247432,-77.3413897280967,4,1,0,70,0,1
247507,-77.2635814889336,4,1,0,70,0,1
247582,-77.1859296482412,4,1,0,70,0,1
247657,-77.1084337349398,4,1,0,70,0,1
247732,-77.0310932798395,4,1,0,70,0,1
247807,-76.9539078156313,4,1,0,70,0,1
247882,-76.8768768768769,4,1,0,70,0,1
247957,-76.8,4,1,0,70,0,1
248032,-76.7232767232767,4,1,0,70,0,1
248107,-76.6467065868263,4,1,0,70,0,1
248182,-76.5702891326022,4,1,0,70,0,1
248257,-76.4940239043825,4,1,0,70,0,1
248332,-76.4179104477612,4,1,0,70,0,1
248407,-76.3419483101392,4,1,0,70,0,1
248482,-76.266137040715,4,1,0,70,0,1
248557,-76.1904761904762,4,1,0,70,0,1
248632,-76.1149653121903,4,1,0,70,0,1
248707,-76.039603960396,4,1,0,70,0,1
248782,-75.9643916913947,4,1,0,70,0,1
248857,-75.8893280632411,4,1,0,70,0,1
248932,-75.8144126357354,4,1,0,70,0,1
249007,-75.7396449704142,4,1,0,70,0,1
249082,-75.6650246305419,4,1,0,70,0,1
249157,-75.5905511811024,4,1,0,70,0,1
249232,-75.5162241887906,4,1,0,70,0,1
249307,-75.4420432220039,4,1,0,70,0,1
249382,-75.3680078508341,4,1,0,70,0,1
249457,-75.2941176470588,4,1,0,70,0,1
249532,-75.2203721841332,4,1,0,70,0,1
249607,-75.146771037182,4,1,0,70,0,1
249682,-75.0733137829912,4,1,0,70,0,1
249757,-75,4,1,0,70,0,1
249832,-74.9268292682927,4,1,0,70,0,1
249907,-74.8538011695906,4,1,0,70,0,1
249982,-74.7809152872444,4,1,0,70,0,1
250057,-74.7081712062257,4,1,0,70,0,1
250132,-74.6355685131195,4,1,0,70,0,1
250207,-74.5631067961165,4,1,0,70,0,1
250282,-74.4907856450048,4,1,0,70,0,1
250357,-74.4186046511628,4,1,0,70,0,1
250432,-74.3465634075508,4,1,0,70,0,1
250507,-74.2746615087041,4,1,0,70,0,1
250582,-74.2028985507246,4,1,0,70,0,1
250657,-74.1312741312741,4,1,0,70,0,1
250732,-74.059787849566,4,1,0,70,0,1
250807,-73.9884393063584,4,1,0,70,0,1
250882,-73.9172281039461,4,1,0,70,0,1
250957,-73.8461538461538,4,1,0,70,0,1
251032,-73.7752161383285,4,1,0,70,0,1
251107,-73.7044145873321,4,1,0,70,0,1
251182,-73.633748801534,4,1,0,70,0,1
251257,-73.5632183908046,4,1,0,70,0,1
251332,-73.4928229665072,4,1,0,70,0,1
251407,-73.4225621414914,4,1,0,70,0,1
251482,-73.352435530086,4,1,0,70,0,1
251557,-73.2824427480916,4,1,0,70,0,1
251632,-73.2125834127741,4,1,0,70,0,1
251707,-73.1428571428571,4,1,0,70,0,1
251782,-73.0732635585157,4,1,0,70,0,1
251857,-73.0038022813688,4,1,0,70,0,1
251932,-72.9344729344729,4,1,0,70,0,1
252007,-72.865275142315,4,1,0,70,0,1
252082,-72.7962085308057,4,1,0,70,0,1
252157,-72.7272727272727,4,1,0,70,0,1
252232,-72.6584673604541,4,1,0,70,0,1
252307,-72.5897920604915,4,1,0,70,0,1
252382,-72.5212464589235,4,1,0,70,0,1
252457,-72.4528301886792,4,1,0,70,0,1
252532,-72.3845428840716,4,1,0,70,0,1
252607,-72.316384180791,4,1,0,70,0,1
252682,-72.2483537158984,4,1,0,70,0,1
252757,-72.1804511278196,4,1,0,70,0,1
252832,-72.112676056338,4,1,0,70,0,1
252907,-72.0450281425891,4,1,0,70,0,1
252982,-71.9775070290534,4,1,0,70,0,1
253057,-71.9101123595506,4,1,0,70,0,1
253132,-71.8428437792329,4,1,0,70,0,1
253207,-71.7757009345794,4,1,0,70,0,1
253282,-71.7086834733894,4,1,0,70,0,1
253357,-71.6417910447761,4,1,0,70,0,1
253432,-71.5750232991612,4,1,0,70,0,1
253507,-71.5083798882682,4,1,0,70,0,1
253582,-71.4418604651163,4,1,0,70,0,1
253657,-71.3754646840149,4,1,0,70,0,1
253732,-71.3091922005571,4,1,0,70,0,1
253807,-71.2430426716141,4,1,0,70,0,1
253882,-71.177015755329,4,1,0,70,0,1
253957,-71.1111111111111,4,1,0,70,0,1
254032,-71.04532839963,4,1,0,70,0,1
254107,-70.9796672828096,4,1,0,70,0,1
254182,-70.9141274238227,4,1,0,70,0,1
254257,-70.8487084870849,4,1,0,70,0,1
254332,-70.7834101382488,4,1,0,70,0,1
254407,-70.7182320441989,4,1,0,70,0,1
254482,-70.6531738730451,4,1,0,70,0,1
254557,-70.5882352941176,4,1,0,70,0,1
254632,-70.5234159779614,4,1,0,70,0,1
254707,-70.4587155963303,4,1,0,70,0,1
254782,-70.3941338221815,4,1,0,70,0,1
254857,-70.3296703296703,4,1,0,70,0,1
254932,-70.2653247941446,4,1,0,70,0,1
255007,-70.2010968921389,4,1,0,70,0,1
255082,-70.1369863013699,4,1,0,70,0,1
255157,-70.0729927007299,4,1,0,70,0,1
255232,-70.0091157702826,4,1,0,70,0,1
255307,-69.9453551912568,4,1,0,70,0,1
255382,-69.8817106460419,4,1,0,70,0,1
255457,-69.8181818181818,4,1,0,70,0,1
255532,-69.7547683923706,4,1,0,70,0,1
255607,-69.6914700544465,4,1,0,70,0,1
255682,-69.6282864913871,4,1,0,70,0,1
255757,-69.5652173913043,4,1,0,70,0,1
255832,-69.5022624434389,4,1,0,70,0,1
255907,-69.4394213381555,4,1,0,70,0,1
255982,-69.3766937669377,4,1,0,70,0,1
256057,-69.3140794223827,4,1,0,70,0,1
256132,-69.2515779981966,4,1,0,70,0,1
256207,-69.1891891891892,4,1,0,70,0,1
256282,-69.1269126912691,4,1,0,70,0,1
256357,-69.0647482014388,4,1,0,70,0,1
256432,-69.0026954177898,4,1,0,70,0,1
256507,-68.9407540394973,4,1,0,70,0,1
256582,-68.8789237668161,4,1,0,70,0,1
256657,-68.8172043010753,4,1,0,70,0,1
256732,-68.7555953446732,4,1,0,70,0,1
256807,-68.6940966010733,4,1,0,70,0,1
256882,-68.6327077747989,4,1,0,70,0,1
256957,-68.5714285714286,4,1,0,70,0,1
257032,-68.5102586975914,4,1,0,70,0,1
257107,-68.4491978609626,4,1,0,70,0,1
257182,-68.3882457702582,4,1,0,70,0,1
257257,-68.3274021352313,4,1,0,70,0,1
257332,-68.2666666666667,4,1,0,70,0,1
257407,-68.2060390763766,4,1,0,70,0,1
257482,-68.1455190771961,4,1,0,70,0,1
257557,-68.0851063829787,4,1,0,70,0,1
257632,-68.0248007085917,4,1,0,70,0,1
257707,-67.9646017699115,4,1,0,70,0,1
257782,-67.9045092838196,4,1,0,70,0,1
257857,-67.8445229681979,4,1,0,70,0,1
257932,-67.7846425419241,4,1,0,70,0,1
258007,-67.7248677248677,4,1,0,70,0,1
258082,-67.6651982378855,4,1,0,70,0,1
258157,-67.6056338028169,4,1,0,70,0,1
258232,-67.5461741424802,4,1,0,70,0,1
258307,-67.4868189806678,4,1,0,70,0,1
258382,-67.4275680421422,4,1,0,70,0,1
258457,-67.3684210526316,4,1,0,70,0,1
258532,-67.3093777388256,4,1,0,70,0,1
258607,-67.2504378283713,4,1,0,70,0,1
258682,-67.1916010498688,4,1,0,70,0,1
258757,-67.1328671328671,4,1,0,70,0,1
258832,-67.0742358078603,4,1,0,70,0,1
258907,-67.0157068062827,4,1,0,70,0,1
258982,-66.9572798605057,4,1,0,70,0,1
259057,-66.8989547038327,4,1,0,70,0,1
259132,-66.8407310704961,4,1,0,70,0,1
259207,-66.7826086956522,4,1,0,70,0,1
259282,-66.7245873153779,4,1,0,70,0,1
259357,-66.6666666666667,4,1,0,90,0,1
259507,-66.7738447712406,4,1,0,90,0,1
259582,-66.9080595720179,4,1,0,90,0,1
259657,-67.0964129200694,4,1,0,90,0,1
259732,-67.3393587306132,4,1,0,90,0,1
259807,-67.6374824284289,4,1,0,90,0,1
259882,-67.9915022750326,4,1,0,90,0,1
259957,-68.4022709472652,4,1,0,90,0,1
260032,-68.8707773384681,4,1,0,90,0,1
260107,-69.3981485456102,4,1,0,90,0,1
260257,-70.6346976605412,4,1,0,90,0,1
260332,-71.3468402727788,4,1,0,90,0,1
260407,-72.12378148718,4,1,0,90,0,1
260482,-72.9673718549431,4,1,0,90,0,1
260557,-73.8796125036259,4,1,0,90,0,1
260632,-74.8626563666654,4,1,0,90,0,1
260707,-75.918808783137,4,1,0,90,0,1
260782,-77.0505272524655,4,1,0,90,0,1
260857,-78.2604200878035,4,1,0,90,0,1
260932,-79.5512436641408,4,1,0,90,0,1
261007,-80.9258979021146,4,1,0,90,0,1
261082,-82.3874195651675,4,1,0,90,0,1
261157,-83.9389728754175,4,1,0,90,0,1
261232,-85.5838368717639,4,1,0,90,0,1
261307,-87.3253888419474,4,1,0,90,0,1
261457,-91.1124239372098,4,1,0,90,0,1
261532,-93.1649326172356,4,1,0,90,0,1
261607,-95.3281058364393,4,1,0,90,0,1
261682,-97.6053658479814,4,1,0,90,0,1
261757,-100,4,1,0,100,0,1
261907,-96.969696969697,4,1,0,100,0,1
261982,-95.5223880597015,4,1,0,100,0,1
262057,-94.1176470588235,4,1,0,100,0,1
262132,-92.7536231884058,4,1,0,100,0,1
262207,-91.4285714285714,4,1,0,100,0,1
262282,-90.1408450704225,4,1,0,100,0,1
262357,-88.8888888888889,4,1,0,100,0,1
262432,-87.6712328767123,4,1,0,100,0,1
262507,-86.4864864864865,4,1,0,100,0,1
262582,-85.3333333333333,4,1,0,100,0,1
262657,-84.2105263157895,4,1,0,100,0,1
262732,-83.1168831168831,4,1,0,100,0,1
262807,-82.0512820512821,4,1,0,100,0,1
262882,-81.0126582278481,4,1,0,100,0,1
262957,-80,4,1,0,100,0,1
263032,-79.0123456790123,4,1,0,100,0,1
263107,-78.0487804878049,4,1,0,100,0,1
263182,-77.1084337349398,4,1,0,100,0,1
263257,-76.1904761904762,4,1,0,100,0,1
263332,-75.2941176470588,4,1,0,100,0,1
263407,-74.4186046511628,4,1,0,100,0,1
263482,-73.5632183908046,4,1,0,100,0,1
263557,-72.7272727272727,4,1,0,100,0,1
263632,-71.9101123595506,4,1,0,100,0,1
263707,-71.1111111111111,4,1,0,100,0,1
263782,-70.3296703296703,4,1,0,100,0,1
263857,-69.5652173913043,4,1,0,100,0,1
263932,-68.8172043010753,4,1,0,100,0,1
264007,-68.0851063829787,4,1,0,100,0,1
264082,-67.3684210526316,4,1,0,100,0,1
264158,-66.6666666666667,4,1,0,100,0,0
264159,-33.3333333333333,4,1,0,100,0,0
264176,-10,4,1,0,10,0,0
264383,-50.0451549160415,4,1,0,10,0,0
265339,-16.6666666666667,4,1,0,10,0,0
266557,-14.2857142857143,4,1,0,10,0,0
267757,-12.5,4,1,0,10,0,0
268957,-10,4,1,0,10,0,0
270157,-54.9459074240226,4,1,0,10,0,0
271357,-57.6739396594419,4,1,0,10,0,0
272557,-61.2003159422928,4,1,0,10,0,0
273757,-65.6972994620847,4,1,0,10,0,0
273795,-10,4,1,0,10,0,0
273870,-65.6972994620847,4,1,0,10,0,0
274957,-50,4,1,0,10,0,0
276157,-33.3333333333333,4,1,0,10,0,0
277357,-87.9580149151874,4,1,0,10,0,0
277358,-10,4,1,0,10,0,0
277395,-87.9580149151874,4,1,0,10,0,0
278539,-87.9580149151874,4,1,0,50,0,0
278558,300,4,1,0,50,1,8
278558,-100,4,1,0,50,0,0
278559,-66.6666666666667,4,1,0,50,0,0
278600,300,4,1,0,50,1,0
278717,-100.392156862745,4,1,0,50,0,0
278867,-100.787401574803,4,1,0,50,0,0
279167,-101.587301587302,4,1,0,50,0,0
279317,-101.99203187251,4,1,0,50,0,0
279467,-102.4,4,1,0,50,0,0
279767,-103.225806451613,4,1,0,50,0,0
279917,-103.643724696356,4,1,0,50,0,0
280067,-104.065040650407,4,1,0,50,0,0
280367,-104.918032786885,4,1,0,50,0,0
280517,-105.349794238683,4,1,0,50,0,0
280667,-105.785123966942,4,1,0,50,0,0
280967,-106.666666666667,4,1,0,50,0,0
281117,-107.112970711297,4,1,0,50,0,0
281267,-107.563025210084,4,1,0,50,0,0
281567,-108.474576271186,4,1,0,50,0,0
281717,-108.936170212766,4,1,0,50,0,0
281867,-109.401709401709,4,1,0,50,0,0
282167,-110.344827586207,4,1,0,50,0,0
282317,-110.822510822511,4,1,0,50,0,0
282467,-111.304347826087,4,1,0,50,0,0
282767,-112.280701754386,4,1,0,50,0,0
282917,-112.775330396476,4,1,0,50,0,0
283067,-113.274336283186,4,1,0,50,0,0
283367,-114.285714285714,4,1,0,50,0,0
283517,-114.798206278027,4,1,0,50,0,0
283667,-115.315315315315,4,1,0,50,0,0
283967,-116.363636363636,4,1,0,50,0,0
284117,-116.89497716895,4,1,0,50,0,0
284267,-117.43119266055,4,1,0,50,0,0
284567,-118.518518518519,4,1,0,50,0,0
284717,-119.069767441861,4,1,0,50,0,0
284867,-119.626168224299,4,1,0,50,0,0
285167,-120.754716981132,4,1,0,50,0,0
285317,-121.327014218009,4,1,0,50,0,0
285467,-121.904761904762,4,1,0,50,0,0
285767,-123.076923076923,4,1,0,50,0,0
285917,-123.671497584541,4,1,0,50,0,0
286067,-124.271844660194,4,1,0,50,0,0
286367,-125.490196078431,4,1,0,50,0,0
286517,-126.108374384236,4,1,0,50,0,0
286667,-126.732673267327,4,1,0,50,0,0
286967,-128,4,1,0,50,0,0
287117,-128.643216080402,4,1,0,50,0,0
287267,-129.292929292929,4,1,0,50,0,0
287567,-130.612244897959,4,1,0,50,0,0
287717,-131.282051282051,4,1,0,50,0,0
287867,-131.958762886598,4,1,0,50,0,0
288167,-133.333333333333,4,1,0,50,0,0
288317,-134.031413612565,4,1,0,50,0,0
288467,-134.736842105263,4,1,0,50,0,0
288767,-136.170212765957,4,1,0,50,0,0
288917,-136.898395721925,4,1,0,50,0,0
289067,-137.634408602151,4,1,0,50,0,0
289367,-139.130434782609,4,1,0,50,0,0
289517,-139.890710382514,4,1,0,50,0,0
289667,-140.659340659341,4,1,0,50,0,0
289967,-142.222222222222,4,1,0,50,0,0
290117,-143.016759776536,4,1,0,50,0,0
290267,-143.820224719101,4,1,0,50,0,0
290567,-145.454545454545,4,1,0,50,0,0
290717,-146.285714285714,4,1,0,50,0,0
290867,-147.126436781609,4,1,0,50,0,0
291167,-148.837209302326,4,1,0,50,0,0
291317,-149.707602339181,4,1,0,50,0,0
291467,-150.588235294118,4,1,0,50,0,0
291767,-152.380952380952,4,1,0,50,0,0
291917,-153.293413173653,4,1,0,50,0,0
292067,-154.21686746988,4,1,0,50,0,0
292367,-156.09756097561,4,1,0,50,0,0
292517,-157.055214723926,4,1,0,50,0,0
292667,-158.024691358025,4,1,0,50,0,0
292967,-160,4,1,0,50,0,0
293117,-161.006289308176,4,1,0,50,0,0
293267,-162.025316455696,4,1,0,50,0,0
293567,-164.102564102564,4,1,0,50,0,0
293717,-165.161290322581,4,1,0,50,0,0
293867,-166.233766233766,4,1,0,50,0,0
294167,-168.421052631579,4,1,0,50,0,0
294317,-169.53642384106,4,1,0,50,0,0
294467,-170.666666666667,4,1,0,50,0,0
294767,-172.972972972973,4,1,0,50,0,0
294917,-174.149659863946,4,1,0,50,0,0
295067,-175.342465753425,4,1,0,50,0,0
295367,-177.777777777778,4,1,0,50,0,0
295517,-179.020979020979,4,1,0,50,0,0
295667,-180.281690140845,4,1,0,50,0,0
295967,-182.857142857143,4,1,0,50,0,0
296117,-184.172661870504,4,1,0,50,0,0
296267,-185.507246376812,4,1,0,50,0,0
296567,-188.235294117647,4,1,0,50,0,0
296717,-189.62962962963,4,1,0,50,0,0
296867,-191.044776119403,4,1,0,50,0,0
297167,-193.939393939394,4,1,0,50,0,0
297317,-195.419847328244,4,1,0,50,0,0
297467,-196.923076923077,4,1,0,50,0,0
297551,-10,4,1,0,5,0,0
297767,-200,4,1,0,5,0,0
298967,-222.222222222222,4,1,0,5,0,0
300167,-250,4,1,0,5,0,0
301367,-285.714285714286,4,1,0,5,0,0
302567,-333.333333333333,4,1,0,5,0,0
303767,-400,4,1,0,5,0,0
304967,-500,4,1,0,5,0,0

[HitObjects]
230,88,158,5,0,0:0:0:0:
192,192,308,5,8,0:0:0:0:
192,192,383,1,0,0:0:0:0:
192,64,458,1,8,0:0:0:0:
192,96,683,1,0,0:0:0:0:
160,64,720,1,8,0:0:0:0:
192,96,758,1,0,0:0:0:0:
192,64,1058,1,8,0:0:0:0:
160,64,1358,1,8,0:0:0:0:
192,64,1508,1,0,0:0:0:0:
192,64,1583,1,0,0:0:0:0:
192,64,1658,1,8,0:0:0:0:
192,96,1883,1,8,0:0:0:0:
192,128,1920,1,8,0:0:0:0:
192,128,1958,1,0,0:0:0:0:
192,128,2558,1,8,0:0:0:0:
192,192,2708,1,0,0:0:0:0:
192,192,2783,1,8,0:0:0:0:
192,64,2858,1,8,0:0:0:0:
192,96,3083,1,8,0:0:0:0:
160,64,3120,1,0,0:0:0:0:
192,96,3158,1,0,0:0:0:0:
192,64,3458,1,0,0:0:0:0:
160,64,3758,1,8,0:0:0:0:
192,64,3908,1,0,0:0:0:0:
192,64,3983,1,8,0:0:0:0:
192,64,4058,1,0,0:0:0:0:
192,96,4283,1,8,0:0:0:0:
192,128,4320,1,0,0:0:0:0:
192,128,4358,1,8,0:0:0:0:
192,128,4958,1,0,0:0:0:0:
192,192,5108,1,8,0:0:0:0:
192,192,5183,1,0,0:0:0:0:
192,64,5258,1,8,0:0:0:0:
192,96,5483,1,0,0:0:0:0:
160,64,5520,1,8,0:0:0:0:
192,96,5558,1,0,0:0:0:0:
192,64,5858,1,0,0:0:0:0:
160,64,6158,1,0,0:0:0:0:
192,64,6308,1,8,0:0:0:0:
192,64,6383,1,8,0:0:0:0:
192,64,6458,1,8,0:0:0:0:
192,96,6683,1,0,0:0:0:0:
192,128,6720,1,0,0:0:0:0:
192,128,6758,1,0,0:0:0:0:
256,192,7359,12,0,9158,0:0:0:0:
224,128,9759,5,4,0:0:0:0:
192,160,10058,1,8,0:0:0:0:
192,160,10358,1,8,0:0:0:0:
192,160,10658,1,0,0:0:0:0:
192,160,10959,1,8,0:0:0:0:
192,160,11108,1,0,0:0:0:0:
160,160,11258,1,8,0:0:0:0:
160,96,11558,1,0,0:0:0:0:
160,96,11858,1,8,0:0:0:0:
160,96,12008,1,8,0:0:0:0:
160,96,12159,1,4,0:0:0:0:
160,128,12458,1,8,0:0:0:0:
160,128,12758,1,8,0:0:0:0:
160,128,13058,1,0,0:0:0:0:
160,128,13359,1,8,0:0:0:0:
160,128,13508,1,0,0:0:0:0:
160,128,13658,1,8,0:0:0:0:
160,64,13958,1,8,0:0:0:0:
160,96,14258,1,0,0:0:0:0:
192,96,14559,1,4,0:0:0:0:
160,128,14858,1,8,0:0:0:0:
160,128,15158,1,8,0:0:0:0:
160,128,15458,1,0,0:0:0:0:
160,128,15759,1,8,0:0:0:0:
160,128,15908,1,0,0:0:0:0:
160,128,16058,1,8,0:0:0:0:
224,96,16358,1,0,0:0:0:0:
192,128,16658,1,8,0:0:0:0:
160,128,16808,1,8,0:0:0:0:
192,128,16959,1,4,0:0:0:0:
192,128,17258,1,8,0:0:0:0:
192,128,17558,1,8,0:0:0:0:
160,128,17858,1,0,0:0:0:0:
160,128,18159,1,8,0:0:0:0:
160,128,18308,1,0,0:0:0:0:
160,128,18458,1,8,0:0:0:0:
192,128,18758,1,0,0:0:0:0:
256,128,19133,1,8,0:0:0:0:
192,128,19208,1,8,0:0:0:0:
192,128,19283,1,8,0:0:0:0:
192,128,19358,1,4,0:0:0:0:
192,128,19508,1,0,0:0:0:0:
192,128,19583,1,8,0:0:0:0:
192,128,19658,1,0,0:0:0:0:
192,128,19808,1,8,0:0:0:0:
192,128,19958,1,0,0:0:0:0:
192,96,20258,1,0,0:0:0:0:
160,64,20333,1,8,0:0:0:0:
160,128,20408,1,8,0:0:0:0:
192,96,20483,1,8,0:0:0:0:
128,160,20558,1,0,0:0:0:0:
192,96,20708,1,0,0:0:0:0:
192,96,20783,1,8,0:0:0:0:
192,64,20858,1,8,0:0:0:0:
192,96,21008,1,0,0:0:0:0:
192,96,21158,1,0,0:0:0:0:
192,96,21458,1,8,0:0:0:0:
224,128,21533,1,8,0:0:0:0:
448,64,21608,1,8,0:0:0:0:
224,128,21758,1,0,0:0:0:0:
160,128,21908,1,0,0:0:0:0:
160,128,21983,1,8,0:0:0:0:
160,128,22058,1,0,0:0:0:0:
192,128,22208,1,8,0:0:0:0:
192,32,22358,1,0,0:0:0:0:
192,128,22658,1,0,0:0:0:0:
192,96,22733,1,8,0:0:0:0:
160,96,22808,1,8,0:0:0:0:
160,96,22883,1,8,0:0:0:0:
192,96,22958,1,0,0:0:0:0:
192,64,23108,1,0,0:0:0:0:
160,64,23183,1,8,0:0:0:0:
192,64,23258,1,8,0:0:0:0:
160,96,23408,1,0,0:0:0:0:
160,96,23558,1,0,0:0:0:0:
160,96,23858,1,0,0:0:0:0:
160,96,24008,1,8,0:0:0:0:
160,96,24158,1,0,0:0:0:0:
192,192,24308,1,8,0:0:0:0:
160,160,24383,1,8,0:0:0:0:
192,192,24458,1,0,0:0:0:0:
192,160,24608,1,8,0:0:0:0:
192,160,24758,1,0,0:0:0:0:
192,64,24833,1,0,0:0:0:0:
224,128,24908,1,8,0:0:0:0:
224,96,24983,1,8,0:0:0:0:
224,128,25058,1,0,0:0:0:0:
192,64,25133,1,8,0:0:0:0:
192,64,25208,1,8,0:0:0:0:
192,64,25283,1,8,0:0:0:0:
192,64,25358,1,0,0:0:0:0:
192,128,25508,1,0,0:0:0:0:
160,96,25583,1,8,0:0:0:0:
192,128,25658,1,0,0:0:0:0:
192,128,25808,1,8,0:0:0:0:
192,128,25958,1,0,0:0:0:0:
192,160,26033,1,0,0:0:0:0:
192,160,26108,1,8,0:0:0:0:
192,160,26258,1,0,0:0:0:0:
192,160,26333,1,8,0:0:0:0:
192,160,26408,1,8,0:0:0:0:
192,64,26483,1,8,0:0:0:0:
192,160,26558,1,0,0:0:0:0:
192,128,26708,1,8,0:0:0:0:
160,96,26783,1,8,0:0:0:0:
192,128,26858,1,0,0:0:0:0:
192,128,27008,1,8,0:0:0:0:
192,128,27158,1,0,0:0:0:0:
192,96,27233,1,0,0:0:0:0:
192,128,27308,1,8,0:0:0:0:
192,96,27383,1,8,0:0:0:0:
192,128,27458,1,0,0:0:0:0:
160,96,27533,1,8,0:0:0:0:
192,128,27608,1,8,0:0:0:0:
192,128,27683,1,8,0:0:0:0:
192,96,27758,1,0,0:0:0:0:
128,128,27908,1,8,0:0:0:0:
128,128,27983,1,0,0:0:0:0:
128,128,28058,1,8,0:0:0:0:
192,96,28133,1,8,0:0:0:0:
160,96,28283,1,8,0:0:0:0:
160,96,28358,1,0,0:0:0:0:
160,64,28508,1,8,0:0:0:0:
192,64,28583,1,8,0:0:0:0:
160,64,28658,1,0,0:0:0:0:
192,64,28733,1,8,0:0:0:0:
192,64,28958,1,8,0:0:0:0:
192,96,29108,1,0,0:0:0:0:
192,96,29183,1,0,0:0:0:0:
192,96,29258,1,8,0:0:0:0:
192,96,29408,1,8,0:0:0:0:
64,64,29458,1,0,0:0:0:0:
64,64,29508,1,0,0:0:0:0:
192,96,29558,1,0,0:0:0:0:
192,96,29708,1,0,0:0:0:0:
192,96,29783,1,0,0:0:0:0:
192,96,29858,1,8,0:0:0:0:
192,96,29933,1,0,0:0:0:0:
192,96,30083,1,0,0:0:0:0:
192,96,30158,1,8,0:0:0:0:
192,64,30233,1,0,0:0:0:0:
192,64,30383,1,0,0:0:0:0:
160,64,30458,1,8,0:0:0:0:
192,96,30608,1,8,0:0:0:0:
192,96,30758,1,8,0:0:0:0:
192,96,30908,1,0,0:0:0:0:
192,96,30983,1,0,0:0:0:0:
192,96,31058,1,8,0:0:0:0:
64,64,31133,1,0,0:0:0:0:
192,128,31208,1,0,0:0:0:0:
256,96,31258,1,0,0:0:0:0:
256,96,31308,1,0,0:0:0:0:
256,96,31358,1,8,0:0:0:0:
224,128,31508,1,0,0:0:0:0:
192,128,31583,1,0,0:0:0:0:
192,128,31658,1,8,0:0:0:0:
192,160,31808,1,8,0:0:0:0:
448,64,31883,1,8,0:0:0:0:
64,64,31958,1,0,0:0:0:0:
224,96,32108,1,0,0:0:0:0:
192,96,32258,1,8,0:0:0:0:
192,128,32408,1,0,0:0:0:0:
160,96,32483,1,0,0:0:0:0:
192,128,32558,1,8,0:0:0:0:
160,96,32633,1,0,0:0:0:0:
160,96,32783,1,0,0:0:0:0:
192,64,32858,1,8,0:0:0:0:
192,96,33008,1,0,0:0:0:0:
160,96,33158,1,8,0:0:0:0:
192,128,33258,1,0,0:0:0:0:
192,128,33358,1,0,0:0:0:0:
192,128,33458,1,8,0:0:0:0:
192,128,33558,1,8,0:0:0:0:
192,128,33658,1,0,0:0:0:0:
160,64,33758,1,8,0:0:0:0:
192,160,33908,1,0,0:0:0:0:
192,160,33983,1,0,0:0:0:0:
160,32,34058,1,8,0:0:0:0:
192,160,34208,1,8,0:0:0:0:
160,96,34283,1,8,0:0:0:0:
192,128,34358,1,0,0:0:0:0:
160,128,34433,1,8,0:0:0:0:
160,128,34583,1,0,0:0:0:0:
160,96,34658,1,8,0:0:0:0:
192,96,34808,1,0,0:0:0:0:
192,96,34883,1,0,0:0:0:0:
192,96,34958,1,8,0:0:0:0:
192,96,35033,1,0,0:0:0:0:
192,96,35183,1,0,0:0:0:0:
192,96,35258,1,8,0:0:0:0:
192,96,35408,1,8,0:0:0:0:
192,96,35558,1,8,0:0:0:0:
192,160,35708,1,8,0:0:0:0:
192,160,35783,1,0,0:0:0:0:
192,160,35858,1,8,0:0:0:0:
256,96,35933,1,8,0:0:0:0:
192,128,36008,1,0,0:0:0:0:
256,96,36058,1,0,0:0:0:0:
192,128,36108,1,0,0:0:0:0:
160,96,36158,1,8,0:0:0:0:
192,128,36308,1,0,0:0:0:0:
192,128,36383,1,0,0:0:0:0:
160,128,36458,1,0,0:0:0:0:
192,160,36608,1,8,0:0:0:0:
64,64,36658,1,0,0:0:0:0:
64,64,36708,1,0,0:0:0:0:
192,160,36758,1,0,0:0:0:0:
160,96,36908,1,0,0:0:0:0:
160,96,36983,1,0,0:0:0:0:
160,96,37058,1,8,0:0:0:0:
160,128,37133,1,0,0:0:0:0:
160,128,37283,1,8,0:0:0:0:
160,96,37358,1,0,0:0:0:0:
192,128,37508,1,8,0:0:0:0:
160,160,37658,1,8,0:0:0:0:
192,128,37808,1,0,0:0:0:0:
192,128,37958,1,8,0:0:0:0:
192,128,38108,1,0,0:0:0:0:
192,128,38258,1,8,0:0:0:0:
192,128,38408,1,8,0:0:0:0:
192,128,38559,1,4,0:0:0:0:
192,128,38858,1,8,0:0:0:0:
192,128,39158,1,8,0:0:0:0:
192,128,39308,1,8,0:0:0:0:
160,160,39758,1,0,0:0:0:0:
160,160,39908,1,0,0:0:0:0:
160,160,40208,1,0,0:0:0:0:
160,160,40358,1,0,0:0:0:0:
160,160,40958,1,8,0:0:0:0:
160,160,41108,1,8,0:0:0:0:
160,160,41408,1,8,0:0:0:0:
160,160,41708,1,8,0:0:0:0:
192,96,42008,1,8,0:0:0:0:
192,128,42308,1,8,0:0:0:0:
192,128,42608,1,8,0:0:0:0:
192,128,42758,1,8,0:0:0:0:
224,128,43358,1,0,0:0:0:0:
192,128,43658,1,8,0:0:0:0:
192,128,43808,1,8,0:0:0:0:
192,96,43958,1,0,0:0:0:0:
192,96,44108,1,8,0:0:0:0:
160,128,44408,1,8,0:0:0:0:
192,128,44558,1,0,0:0:0:0:
224,96,44708,1,8,0:0:0:0:
224,128,45008,1,0,0:0:0:0:
224,128,45158,1,8,0:0:0:0:
224,128,45233,1,0,0:0:0:0:
224,128,45308,1,8,0:0:0:0:
224,128,45383,1,0,0:0:0:0:
224,128,45458,1,8,0:0:0:0:
192,128,45533,1,0,0:0:0:0:
192,128,45608,1,8,0:0:0:0:
192,128,45683,1,0,0:0:0:0:
192,128,45758,1,8,0:0:0:0:
160,96,46208,1,8,0:0:0:0:
160,96,46658,1,8,0:0:0:0:
160,96,46958,1,8,0:0:0:0:
160,96,47558,1,8,0:0:0:0:
192,192,47708,1,0,0:0:0:0:
192,192,47858,1,8,0:0:0:0:
192,192,48008,1,8,0:0:0:0:
160,128,48159,1,4,0:0:0:0:
160,128,48458,1,8,0:0:0:0:
172,130,48495,1,8,0:0:0:0:
256,160,48608,1,0,0:0:0:0:
160,256,48758,1,8,0:0:0:0:
160,192,48908,1,8,0:0:0:0:
160,192,49208,1,0,0:0:0:0:
160,192,49358,1,8,0:0:0:0:
160,192,49508,1,0,0:0:0:0:
160,192,49808,1,0,0:0:0:0:
160,192,50108,1,0,0:0:0:0:
192,192,50258,1,8,0:0:0:0:
192,192,50408,1,8,0:0:0:0:
192,192,50559,1,4,0:0:0:0:
192,192,50708,1,8,0:0:0:0:
192,192,50858,1,8,0:0:0:0:
192,160,51008,1,0,0:0:0:0:
192,160,51158,1,8,0:0:0:0:
192,160,51308,1,0,0:0:0:0:
192,160,51458,1,0,0:0:0:0:
192,160,51608,1,8,0:0:0:0:
192,160,51758,1,8,0:0:0:0:
192,160,51908,1,0,0:0:0:0:
224,160,52058,1,8,0:0:0:0:
224,160,52208,1,8,0:0:0:0:
224,160,52358,1,8,0:0:0:0:
224,160,52508,1,0,0:0:0:0:
224,160,52658,1,8,0:0:0:0:
224,160,52808,1,8,0:0:0:0:
160,96,52959,1,4,0:0:0:0:
160,96,53108,1,8,0:0:0:0:
160,96,53258,1,0,0:0:0:0:
192,96,53558,1,0,0:0:0:0:
192,96,53708,1,8,0:0:0:0:
224,96,53858,1,8,0:0:0:0:
192,128,54008,1,0,0:0:0:0:
192,96,54158,1,8,0:0:0:0:
192,128,54308,1,0,0:0:0:0:
192,128,54458,1,8,0:0:0:0:
160,96,54533,1,8,0:0:0:0:
192,96,54608,1,0,0:0:0:0:
192,64,54683,1,8,0:0:0:0:
192,160,54758,1,8,0:0:0:0:
160,128,54908,1,8,0:0:0:0:
160,128,55058,1,0,0:0:0:0:
160,160,55359,1,4,0:0:0:0:
192,160,55508,1,8,0:0:0:0:
192,160,55658,1,8,0:0:0:0:
192,160,55808,1,0,0:0:0:0:
224,160,55958,1,8,0:0:0:0:
160,96,56058,1,0,0:0:0:0:
224,160,56158,1,0,0:0:0:0:
224,160,56258,1,8,0:0:0:0:
160,128,56458,1,0,0:0:0:0:
160,128,56558,1,8,0:0:0:0:
160,192,56708,1,0,0:0:0:0:
160,192,56858,1,8,0:0:0:0:
224,192,56958,1,0,0:0:0:0:
224,192,57058,1,0,0:0:0:0:
224,192,57158,1,8,0:0:0:0:
224,192,57258,1,8,0:0:0:0:
224,192,57358,1,0,0:0:0:0:
224,192,57458,1,8,0:0:0:0:
192,96,57608,1,0,0:0:0:0:
192,128,57683,1,8,0:0:0:0:
192,96,57759,1,4,0:0:0:0:
224,192,57983,1,0,0:0:0:0:
224,192,58058,1,8,0:0:0:0:
192,128,58208,1,8,0:0:0:0:
192,128,58358,1,0,0:0:0:0:
192,160,58508,1,8,0:0:0:0:
192,160,58658,1,0,0:0:0:0:
192,160,58808,1,8,0:0:0:0:
192,160,58958,1,8,0:0:0:0:
192,192,59108,1,0,0:0:0:0:
160,160,59183,1,8,0:0:0:0:
192,192,59258,1,0,0:0:0:0:
160,128,59408,1,8,0:0:0:0:
212,98,59558,1,0,0:0:0:0:
160,128,59708,1,8,0:0:0:0:
192,128,59858,1,0,0:0:0:0:
192,128,60008,1,8,0:0:0:0:
192,128,60158,1,8,0:0:0:0:
192,128,60308,1,8,0:0:0:0:
192,128,60383,1,0,0:0:0:0:
160,128,60458,1,0,0:0:0:0:
192,128,60608,1,0,0:0:0:0:
192,128,60758,1,8,0:0:0:0:
192,128,60908,1,0,0:0:0:0:
217,151,60983,1,0,0:0:0:0:
224,160,61058,1,8,0:0:0:0:
224,160,61358,1,0,0:0:0:0:
224,160,61508,1,8,0:0:0:0:
224,128,61583,1,0,0:0:0:0:
224,160,61658,1,8,0:0:0:0:
224,96,61808,1,8,0:0:0:0:
192,96,61958,1,8,0:0:0:0:
192,96,62108,1,0,0:0:0:0:
192,96,62258,1,0,0:0:0:0:
192,64,62408,1,8,0:0:0:0:
192,96,62558,1,0,0:0:0:0:
192,96,62708,1,8,0:0:0:0:
192,96,62783,1,8,0:0:0:0:
192,96,62858,1,0,0:0:0:0:
224,128,63008,1,8,0:0:0:0:
224,128,63158,1,0,0:0:0:0:
186,97,63308,1,8,0:0:0:0:
205,107,63383,1,0,0:0:0:0:
192,128,63458,1,8,0:0:0:0:
192,128,63608,1,0,0:0:0:0:
160,128,63758,1,8,0:0:0:0:
160,192,63908,1,0,0:0:0:0:
192,160,63983,1,8,0:0:0:0:
192,192,64058,1,8,0:0:0:0:
192,128,64208,1,8,0:0:0:0:
192,128,64358,1,0,0:0:0:0:
192,128,64508,1,0,0:0:0:0:
204,114,64583,1,8,0:0:0:0:
192,128,64658,1,0,0:0:0:0:
192,160,64808,1,8,0:0:0:0:
192,160,64958,1,8,0:0:0:0:
224,96,65108,1,0,0:0:0:0:
224,96,65183,1,8,0:0:0:0:
224,96,65258,1,0,0:0:0:0:
224,128,65408,1,8,0:0:0:0:
192,128,65558,1,0,0:0:0:0:
224,128,65708,1,8,0:0:0:0:
200,125,65783,1,0,0:0:0:0:
224,128,65858,1,8,0:0:0:0:
192,160,66008,1,0,0:0:0:0:
192,160,66158,1,8,0:0:0:0:
192,128,66308,1,0,0:0:0:0:
192,128,66383,1,0,0:0:0:0:
192,128,66458,1,8,0:0:0:0:
160,160,66608,1,0,0:0:0:0:
160,160,66758,1,8,0:0:0:0:
192,128,66908,1,8,0:0:0:0:
192,128,67058,1,0,0:0:0:0:
448,64,67208,1,8,0:0:0:0:
192,128,67358,1,8,0:0:0:0:
160,160,67508,1,0,0:0:0:0:
160,160,67583,1,8,0:0:0:0:
192,128,67658,1,0,0:0:0:0:
192,192,67808,1,8,0:0:0:0:
192,192,67958,1,0,0:0:0:0:
192,128,68108,1,8,0:0:0:0:
192,128,68258,1,8,0:0:0:0:
224,160,68408,1,0,0:0:0:0:
224,160,68558,1,8,0:0:0:0:
224,160,68708,1,8,0:0:0:0:
224,160,68858,1,0,0:0:0:0:
204,149,68933,1,8,0:0:0:0:
192,224,69008,1,8,0:0:0:0:
178,206,69083,1,0,0:0:0:0:
192,224,69158,1,8,0:0:0:0:
192,160,69308,1,0,0:0:0:0:
192,160,69458,1,8,0:0:0:0:
192,160,69608,1,8,0:0:0:0:
192,192,69758,1,8,0:0:0:0:
160,224,69908,1,0,0:0:0:0:
224,192,69983,1,0,0:0:0:0:
160,224,70058,1,8,0:0:0:0:
128,160,70208,1,8,0:0:0:0:
128,160,70358,1,0,0:0:0:0:
128,160,70508,1,0,0:0:0:0:
128,160,70658,1,8,0:0:0:0:
192,160,70808,1,8,0:0:0:0:
192,160,70958,1,0,0:0:0:0:
160,160,71108,1,8,0:0:0:0:
160,128,71258,1,0,0:0:0:0:
160,160,71408,1,8,0:0:0:0:
160,160,71558,1,8,0:0:0:0:
160,160,71708,1,0,0:0:0:0:
160,160,71858,1,8,0:0:0:0:
160,160,72008,1,8,0:0:0:0:
160,160,72158,1,8,0:0:0:0:
192,160,72308,1,0,0:0:0:0:
192,160,72383,1,8,0:0:0:0:
192,160,72458,1,0,0:0:0:0:
192,160,72608,1,8,0:0:0:0:
202,99,72908,1,0,0:0:0:0:
202,130,72983,1,0,0:0:0:0:
160,160,73058,1,8,0:0:0:0:
160,160,73208,1,8,0:0:0:0:
160,160,73358,1,0,0:0:0:0:
160,160,73808,1,8,0:0:0:0:
128,160,73958,1,8,0:0:0:0:
160,128,74108,1,0,0:0:0:0:
160,128,74258,1,8,0:0:0:0:
160,160,74558,1,0,0:0:0:0:
160,160,74708,1,8,0:0:0:0:
160,160,74783,1,0,0:0:0:0:
160,160,74858,1,8,0:0:0:0:
192,128,75008,1,0,0:0:0:0:
192,128,75158,1,8,0:0:0:0:
192,160,75458,1,8,0:0:0:0:
192,160,75758,1,8,0:0:0:0:
192,128,75908,1,0,0:0:0:0:
192,96,75983,1,8,0:0:0:0:
192,128,76058,1,0,0:0:0:0:
160,128,76208,1,8,0:0:0:0:
192,128,76358,1,8,0:0:0:0:
224,96,76458,1,0,0:0:0:0:
204,84,76558,1,0,0:0:0:0:
192,96,76658,1,8,0:0:0:0:
160,64,76858,1,8,0:0:0:0:
192,128,76959,1,4,0:0:0:0:
234,189,77158,1,8,0:0:0:0:
222,156,77258,1,0,0:0:0:0:
222,156,77358,1,8,0:0:0:0:
222,156,77458,1,0,0:0:0:0:
222,156,77558,1,8,0:0:0:0:
222,156,77658,1,8,0:0:0:0:
227,194,77758,1,0,0:0:0:0:
222,156,77858,1,8,0:0:0:0:
222,156,77958,1,0,0:0:0:0:
222,156,78058,1,8,0:0:0:0:
222,156,78158,1,8,0:0:0:0:
222,156,78258,1,8,0:0:0:0:
222,156,78358,1,0,0:0:0:0:
222,156,78458,1,8,0:0:0:0:
211,178,78558,1,8,0:0:0:0:
222,156,78658,1,0,0:0:0:0:
222,156,78758,1,8,0:0:0:0:
222,156,78858,1,0,0:0:0:0:
211,178,78958,1,8,0:0:0:0:
211,178,79058,1,8,0:0:0:0:
211,178,79158,1,8,0:0:0:0:
211,178,79258,1,0,0:0:0:0:
222,156,79358,1,8,0:0:0:0:
198,141,79458,1,0,0:0:0:0:
150,104,79558,1,8,0:0:0:0:
213,114,79758,1,0,0:0:0:0:
76,133,80108,1,8,0:0:0:0:
143,124,80258,1,8,0:0:0:0:
143,124,80408,1,8,0:0:0:0:
143,124,80558,1,0,0:0:0:0:
143,124,80708,1,0,0:0:0:0:
143,124,80858,1,8,0:0:0:0:
180,75,81008,1,0,0:0:0:0:
169,189,81308,1,8,0:0:0:0:
169,189,81458,1,8,0:0:0:0:
169,189,81608,1,0,0:0:0:0:
169,189,81758,1,8,0:0:0:0:
169,189,81908,1,0,0:0:0:0:
169,189,82058,1,8,0:0:0:0:
169,189,82208,1,8,0:0:0:0:
275,139,82508,1,0,0:0:0:0:
235,157,82658,1,8,0:0:0:0:
197,175,82808,1,0,0:0:0:0:
197,175,82958,1,8,0:0:0:0:
197,175,83108,1,8,0:0:0:0:
197,175,83258,1,0,0:0:0:0:
197,175,83408,1,8,0:0:0:0:
197,175,83558,1,8,0:0:0:0:
197,175,83708,1,0,0:0:0:0:
124,138,83858,1,8,0:0:0:0:
161,140,84008,1,0,0:0:0:0:
161,140,84158,1,8,0:0:0:0:
161,140,84308,1,8,0:0:0:0:
161,140,84608,1,0,0:0:0:0:
141,77,84758,1,8,0:0:0:0:
157,125,84908,1,8,0:0:0:0:
188,232,85208,1,8,0:0:0:0:
131,199,85358,1,0,0:0:0:0:
149,196,85433,1,0,0:0:0:0:
176,225,85508,1,0,0:0:0:0:
169,209,85583,1,0,0:0:0:0:
151,168,85658,1,8,0:0:0:0:
149,196,85733,1,8,0:0:0:0:
149,196,85808,1,8,0:0:0:0:
183,242,85883,1,8,0:0:0:0:
149,196,85958,1,0,0:0:0:0:
160,190,86033,1,0,0:0:0:0:
149,196,86108,1,0,0:0:0:0:
149,196,86183,1,0,0:0:0:0:
149,196,86258,1,12,0:0:0:0:
266,238,86558,1,8,0:0:0:0:
166,210,86633,1,8,0:0:0:0:
216,220,86708,1,0,0:0:0:0:
166,210,86858,1,8,0:0:0:0:
169,194,86933,1,8,0:0:0:0:
176,155,87008,1,0,0:0:0:0:
181,138,87083,1,8,0:0:0:0:
202,107,87158,1,0,0:0:0:0:
194,79,87308,1,8,0:0:0:0:
194,79,87383,1,8,0:0:0:0:
194,79,87458,1,0,0:0:0:0:
194,79,87533,1,8,0:0:0:0:
194,79,87608,1,0,0:0:0:0:
194,79,87683,1,0,0:0:0:0:
170,121,87758,1,8,0:0:0:0:
170,121,87833,1,0,0:0:0:0:
170,121,87908,1,0,0:0:0:0:
175,70,88058,1,8,0:0:0:0:
167,102,88133,1,0,0:0:0:0:
170,121,88208,1,0,0:0:0:0:
170,121,88283,1,8,0:0:0:0:
170,121,88358,1,8,0:0:0:0:
194,79,88508,1,0,0:0:0:0:
201,114,88583,1,8,0:0:0:0:
194,79,88658,1,8,0:0:0:0:
198,104,88733,1,0,0:0:0:0:
202,152,88808,1,8,0:0:0:0:
213,91,88958,1,8,0:0:0:0:
198,104,89033,1,0,0:0:0:0:
198,104,89108,1,0,0:0:0:0:
143,147,89258,1,8,0:0:0:0:
143,147,89333,1,0,0:0:0:0:
143,147,89408,1,8,0:0:0:0:
143,147,89483,1,0,0:0:0:0:
143,147,89558,1,0,0:0:0:0:
151,209,89708,1,8,0:0:0:0:
152,178,89783,1,0,0:0:0:0:
146,152,89858,1,8,0:0:0:0:
152,178,89933,1,8,0:0:0:0:
145,155,90008,1,0,0:0:0:0:
175,133,90083,1,0,0:0:0:0:
175,133,90158,1,8,0:0:0:0:
155,139,90233,1,8,0:0:0:0:
155,139,90308,1,0,0:0:0:0:
175,133,90458,1,8,0:0:0:0:
175,133,90608,1,8,0:0:0:0:
155,139,90683,1,8,0:0:0:0:
166,116,90758,1,0,0:0:0:0:
175,133,90908,1,8,0:0:0:0:
162,162,90983,1,0,0:0:0:0:
175,133,91058,1,8,0:0:0:0:
175,133,91133,1,8,0:0:0:0:
175,133,91208,1,0,0:0:0:0:
266,238,91358,1,8,0:0:0:0:
166,210,91433,1,8,0:0:0:0:
216,220,91508,1,0,0:0:0:0:
166,210,91658,1,8,0:0:0:0:
169,194,91733,1,8,0:0:0:0:
176,155,91808,1,0,0:0:0:0:
181,138,91883,1,8,0:0:0:0:
202,107,91958,1,0,0:0:0:0:
194,79,92108,1,8,0:0:0:0:
194,79,92183,1,8,0:0:0:0:
194,79,92258,1,0,0:0:0:0:
194,79,92333,1,8,0:0:0:0:
194,79,92408,1,0,0:0:0:0:
194,79,92483,1,0,0:0:0:0:
170,121,92558,1,8,0:0:0:0:
170,121,92633,1,0,0:0:0:0:
170,121,92708,1,0,0:0:0:0:
175,70,92858,1,8,0:0:0:0:
167,102,92933,1,0,0:0:0:0:
170,121,93008,1,0,0:0:0:0:
170,121,93083,1,8,0:0:0:0:
170,121,93158,1,8,0:0:0:0:
194,79,93308,1,0,0:0:0:0:
201,114,93383,1,8,0:0:0:0:
194,79,93458,1,8,0:0:0:0:
198,104,93533,1,0,0:0:0:0:
202,152,93608,1,8,0:0:0:0:
256,192,93758,12,0,95558,0:0:0:0:
0,384,95858,6,4,L|512:384,1,314.999994635582
64,64,96158,1,0,0:0:0:0:
64,64,96233,1,0,0:0:0:0:
64,64,96308,1,0,0:0:0:0:
448,64,96458,1,8,0:0:0:0:
64,64,96608,1,0,0:0:0:0:
64,64,96683,1,0,0:0:0:0:
64,64,96758,1,0,0:0:0:0:
448,64,96908,1,8,0:0:0:0:
448,64,97058,1,8,0:0:0:0:
448,64,97133,1,8,0:0:0:0:
64,64,97208,1,0,0:0:0:0:
448,64,97283,1,8,0:0:0:0:
64,64,97358,1,0,0:0:0:0:
64,64,97433,1,0,0:0:0:0:
448,64,97508,1,8,0:0:0:0:
448,64,97658,1,8,0:0:0:0:
64,64,97808,1,0,0:0:0:0:
64,64,97883,1,0,0:0:0:0:
448,64,97958,1,8,0:0:0:0:
448,64,98108,1,8,0:0:0:0:
448,64,98258,1,8,0:0:0:0:
64,64,98333,1,0,0:0:0:0:
448,64,98408,1,8,0:0:0:0:
448,64,98483,1,8,0:0:0:0:
64,64,98558,1,0,0:0:0:0:
448,64,98633,1,8,0:0:0:0:
64,64,98708,1,0,0:0:0:0:
448,64,98858,1,8,0:0:0:0:
64,64,99008,1,0,0:0:0:0:
448,64,99083,1,8,0:0:0:0:
64,64,99158,1,0,0:0:0:0:
448,64,99308,1,8,0:0:0:0:
64,64,99458,1,0,0:0:0:0:
448,64,99533,1,8,0:0:0:0:
448,64,99683,1,8,0:0:0:0:
64,64,99758,1,0,0:0:0:0:
448,64,99833,1,8,0:0:0:0:
448,64,99908,1,8,0:0:0:0:
448,64,100058,1,8,0:0:0:0:
64,64,100208,1,0,0:0:0:0:
448,64,100283,1,8,0:0:0:0:
448,64,100358,1,8,0:0:0:0:
64,64,100508,1,0,0:0:0:0:
448,64,100658,1,8,0:0:0:0:
64,64,100808,1,0,0:0:0:0:
64,64,100958,1,0,0:0:0:0:
64,64,101033,1,0,0:0:0:0:
64,64,101108,1,0,0:0:0:0:
448,64,101258,1,8,0:0:0:0:
64,64,101408,1,0,0:0:0:0:
64,64,101483,1,0,0:0:0:0:
64,64,101558,1,0,0:0:0:0:
448,64,101708,1,8,0:0:0:0:
64,64,101858,1,0,0:0:0:0:
448,64,101933,1,8,0:0:0:0:
64,64,102008,1,0,0:0:0:0:
448,64,102083,1,8,0:0:0:0:
64,64,102158,1,0,0:0:0:0:
64,64,102233,1,0,0:0:0:0:
448,64,102308,1,8,0:0:0:0:
448,64,102458,1,8,0:0:0:0:
64,64,102608,1,0,0:0:0:0:
64,64,102683,1,0,0:0:0:0:
448,64,102758,1,8,0:0:0:0:
64,64,102833,1,0,0:0:0:0:
64,64,102983,1,0,0:0:0:0:
448,64,103058,1,8,0:0:0:0:
64,64,103133,1,0,0:0:0:0:
64,64,103208,1,0,0:0:0:0:
448,64,103283,1,8,0:0:0:0:
64,64,103358,1,0,0:0:0:0:
448,64,103433,1,8,0:0:0:0:
64,64,103508,1,0,0:0:0:0:
448,64,103658,1,8,0:0:0:0:
64,64,103808,1,0,0:0:0:0:
448,64,103883,1,8,0:0:0:0:
64,64,103958,1,0,0:0:0:0:
448,64,104108,1,8,0:0:0:0:
64,64,104258,1,0,0:0:0:0:
448,64,104333,1,8,0:0:0:0:
448,64,104483,1,8,0:0:0:0:
64,64,104558,1,0,0:0:0:0:
448,64,104633,1,8,0:0:0:0:
448,64,104708,1,8,0:0:0:0:
448,64,104858,1,8,0:0:0:0:
64,64,105008,1,0,0:0:0:0:
448,64,105083,1,8,0:0:0:0:
448,64,105158,1,8,0:0:0:0:
64,64,105308,1,0,0:0:0:0:
448,320,105458,1,12,0:0:0:0:
448,64,105758,1,8,0:0:0:0:
64,64,105833,1,0,0:0:0:0:
64,64,105908,1,0,0:0:0:0:
64,64,105983,1,0,0:0:0:0:
448,64,106058,1,8,0:0:0:0:
64,64,106208,1,0,0:0:0:0:
448,64,106283,1,8,0:0:0:0:
64,64,106358,1,0,0:0:0:0:
448,64,106508,1,8,0:0:0:0:
64,64,106658,1,0,0:0:0:0:
448,64,106733,1,8,0:0:0:0:
64,64,106808,1,0,0:0:0:0:
448,64,106883,1,8,0:0:0:0:
448,64,106958,1,8,0:0:0:0:
64,64,107033,1,0,0:0:0:0:
64,64,107108,1,0,0:0:0:0:
64,64,107183,1,0,0:0:0:0:
448,64,107258,1,8,0:0:0:0:
64,64,107408,1,0,0:0:0:0:
448,64,107483,1,8,0:0:0:0:
64,64,107558,1,0,0:0:0:0:
448,64,107708,1,8,0:0:0:0:
64,64,107858,1,0,0:0:0:0:
448,64,107933,1,8,0:0:0:0:
64,64,108008,1,0,0:0:0:0:
448,64,108083,1,8,0:0:0:0:
64,64,108158,1,0,0:0:0:0:
64,64,108233,1,0,0:0:0:0:
448,64,108308,1,8,0:0:0:0:
448,64,108458,1,8,0:0:0:0:
64,64,108608,1,0,0:0:0:0:
64,64,108683,1,0,0:0:0:0:
448,64,108758,1,8,0:0:0:0:
448,64,108908,1,8,0:0:0:0:
64,64,109058,1,0,0:0:0:0:
64,64,109133,1,0,0:0:0:0:
448,64,109208,1,8,0:0:0:0:
64,64,109283,1,0,0:0:0:0:
448,64,109358,1,8,0:0:0:0:
448,64,109433,1,8,0:0:0:0:
64,64,109508,1,0,0:0:0:0:
448,64,109658,1,8,0:0:0:0:
64,64,109808,1,0,0:0:0:0:
64,64,109883,1,0,0:0:0:0:
448,64,109958,1,8,0:0:0:0:
448,64,110033,1,8,0:0:0:0:
64,64,110108,1,0,0:0:0:0:
448,64,110258,1,8,0:0:0:0:
64,64,110408,1,0,0:0:0:0:
448,64,110558,1,8,0:0:0:0:
64,64,110633,1,0,0:0:0:0:
64,64,110708,1,0,0:0:0:0:
64,64,110783,1,0,0:0:0:0:
448,64,110858,1,8,0:0:0:0:
64,64,111008,1,0,0:0:0:0:
64,64,111083,1,0,0:0:0:0:
64,64,111158,1,0,0:0:0:0:
448,64,111308,1,8,0:0:0:0:
64,64,111458,1,0,0:0:0:0:
448,64,111533,1,8,0:0:0:0:
64,64,111608,1,0,0:0:0:0:
64,64,111683,1,0,0:0:0:0:
448,64,111758,1,8,0:0:0:0:
448,64,111833,1,8,0:0:0:0:
64,64,111908,1,0,0:0:0:0:
64,64,111983,1,0,0:0:0:0:
448,64,112058,1,8,0:0:0:0:
64,64,112208,1,0,0:0:0:0:
64,64,112283,1,0,0:0:0:0:
64,64,112358,1,0,0:0:0:0:
448,64,112508,1,8,0:0:0:0:
448,64,112658,1,8,0:0:0:0:
64,64,112808,1,0,0:0:0:0:
448,64,112883,1,8,0:0:0:0:
64,64,112958,1,0,0:0:0:0:
448,64,113033,1,8,0:0:0:0:
64,64,113108,1,0,0:0:0:0:
64,64,113183,1,0,0:0:0:0:
448,64,113258,1,8,0:0:0:0:
64,64,113408,1,0,0:0:0:0:
448,64,113483,1,8,0:0:0:0:
448,64,113558,1,8,0:0:0:0:
64,64,113633,1,0,0:0:0:0:
448,64,113708,1,8,0:0:0:0:
64,64,113858,1,0,0:0:0:0:
448,64,113933,1,8,0:0:0:0:
64,64,114008,1,0,0:0:0:0:
448,64,114083,1,8,0:0:0:0:
64,64,114158,1,0,0:0:0:0:
64,64,114308,1,0,0:0:0:0:
448,64,114458,1,8,0:0:0:0:
64,64,114608,1,0,0:0:0:0:
64,64,114683,1,0,0:0:0:0:
448,64,114758,1,8,0:0:0:0:
448,64,114833,1,8,0:0:0:0:
64,64,114908,1,0,0:0:0:0:
448,64,115058,1,8,0:0:0:0:
64,64,115208,1,0,0:0:0:0:
448,64,115283,1,8,0:0:0:0:
64,64,115358,1,0,0:0:0:0:
448,64,115508,1,8,0:0:0:0:
64,64,115583,1,0,0:0:0:0:
448,64,115658,1,8,0:0:0:0:
64,64,115808,1,0,0:0:0:0:
448,64,115883,1,8,0:0:0:0:
64,64,115958,1,0,0:0:0:0:
64,64,116033,1,0,0:0:0:0:
448,64,116108,1,8,0:0:0:0:
448,64,116258,1,8,0:0:0:0:
64,64,116333,1,0,0:0:0:0:
64,64,116408,1,0,0:0:0:0:
448,64,116483,1,8,0:0:0:0:
64,64,116558,1,0,0:0:0:0:
448,64,116708,1,8,0:0:0:0:
448,64,116783,1,8,0:0:0:0:
64,64,116858,1,0,0:0:0:0:
64,64,116933,1,0,0:0:0:0:
448,64,117008,1,8,0:0:0:0:
64,64,117083,1,0,0:0:0:0:
448,64,117158,1,8,0:0:0:0:
448,64,117308,1,8,0:0:0:0:
448,64,117383,1,8,0:0:0:0:
448,64,117458,1,8,0:0:0:0:
448,64,117608,1,8,0:0:0:0:
64,64,117758,1,0,0:0:0:0:
448,64,117833,1,8,0:0:0:0:
64,64,117908,1,0,0:0:0:0:
64,64,117983,1,0,0:0:0:0:
448,64,118058,1,8,0:0:0:0:
64,64,118208,1,0,0:0:0:0:
64,64,118283,1,0,0:0:0:0:
448,64,118358,1,8,0:0:0:0:
448,64,118508,1,8,0:0:0:0:
64,64,118658,1,0,0:0:0:0:
448,64,118808,1,8,0:0:0:0:
448,64,118958,1,8,0:0:0:0:
448,64,119033,1,8,0:0:0:0:
64,64,119108,1,0,0:0:0:0:
64,64,119183,1,0,0:0:0:0:
448,64,119258,1,8,0:0:0:0:
64,64,119408,1,0,0:0:0:0:
448,64,119483,1,8,0:0:0:0:
64,64,119558,1,0,0:0:0:0:
64,64,119633,1,0,0:0:0:0:
448,64,119708,1,8,0:0:0:0:
64,64,119783,1,0,0:0:0:0:
448,64,119858,1,8,0:0:0:0:
448,64,120008,1,8,0:0:0:0:
64,64,120158,1,0,0:0:0:0:
448,64,120308,1,8,0:0:0:0:
64,64,120383,1,0,0:0:0:0:
448,64,120458,1,8,0:0:0:0:
64,64,120608,1,0,0:0:0:0:
448,64,120683,1,8,0:0:0:0:
64,64,120758,1,0,0:0:0:0:
448,64,120833,1,8,0:0:0:0:
448,64,120908,1,8,0:0:0:0:
448,64,121058,1,8,0:0:0:0:
448,64,121208,1,8,0:0:0:0:
64,64,121283,1,0,0:0:0:0:
448,64,121358,1,8,0:0:0:0:
64,64,121508,1,0,0:0:0:0:
64,64,121583,1,0,0:0:0:0:
448,64,121658,1,8,0:0:0:0:
64,64,121808,1,0,0:0:0:0:
64,64,121883,1,0,0:0:0:0:
448,64,121958,1,8,0:0:0:0:
64,64,122033,1,0,0:0:0:0:
448,64,122108,1,8,0:0:0:0:
448,64,122258,1,8,0:0:0:0:
64,64,122408,1,0,0:0:0:0:
448,64,122483,1,8,0:0:0:0:
64,64,122558,1,0,0:0:0:0:
448,64,122708,1,8,0:0:0:0:
64,64,122783,1,0,0:0:0:0:
448,64,122858,1,8,0:0:0:0:
64,64,123008,1,0,0:0:0:0:
448,64,123083,1,8,0:0:0:0:
448,64,123158,1,8,0:0:0:0:
64,64,123233,1,0,0:0:0:0:
448,64,123308,1,8,0:0:0:0:
64,64,123458,1,0,0:0:0:0:
64,64,123533,1,0,0:0:0:0:
448,64,123608,1,8,0:0:0:0:
448,64,123758,1,8,0:0:0:0:
64,64,123908,1,0,0:0:0:0:
448,64,123983,1,8,0:0:0:0:
448,64,124058,1,8,0:0:0:0:
64,64,124208,1,0,0:0:0:0:
448,64,124283,1,8,0:0:0:0:
64,64,124358,1,0,0:0:0:0:
64,64,124433,1,0,0:0:0:0:
448,64,124508,1,8,0:0:0:0:
448,320,124658,1,12,0:0:0:0:
64,64,124958,1,0,0:0:0:0:
448,64,125033,1,8,0:0:0:0:
64,64,125108,1,0,0:0:0:0:
448,64,125258,1,8,0:0:0:0:
64,64,125408,1,0,0:0:0:0:
448,64,125483,1,8,0:0:0:0:
64,64,125708,1,0,0:0:0:0:
64,64,125783,1,0,0:0:0:0:
448,64,125858,1,8,0:0:0:0:
448,64,126158,1,8,0:0:0:0:
64,64,126308,1,0,0:0:0:0:
448,64,126383,1,8,0:0:0:0:
64,64,126608,1,0,0:0:0:0:
64,64,126683,1,0,0:0:0:0:
448,64,126758,1,8,0:0:0:0:
448,64,127058,1,8,0:0:0:0:
448,64,127208,1,8,0:0:0:0:
64,64,127358,1,0,0:0:0:0:
64,64,127508,1,0,0:0:0:0:
448,64,127583,1,8,0:0:0:0:
448,64,127733,1,8,0:0:0:0:
64,64,127808,1,0,0:0:0:0:
448,64,127958,1,8,0:0:0:0:
64,64,128108,1,0,0:0:0:0:
448,64,128258,1,8,0:0:0:0:
64,64,128333,1,0,0:0:0:0:
448,64,128483,1,8,0:0:0:0:
64,64,128558,1,0,0:0:0:0:
64,64,128633,1,0,0:0:0:0:
448,64,128708,1,8,0:0:0:0:
64,64,128858,1,0,0:0:0:0:
448,64,129008,1,8,0:0:0:0:
64,64,129083,1,0,0:0:0:0:
448,64,129158,1,8,0:0:0:0:
64,64,129383,1,0,0:0:0:0:
448,64,129458,1,8,0:0:0:0:
448,64,129608,1,8,0:0:0:0:
64,320,129758,1,4,0:0:0:0:
64,64,129908,1,0,0:0:0:0:
448,64,129983,1,8,0:0:0:0:
64,64,130058,1,0,0:0:0:0:
448,64,130208,1,8,0:0:0:0:
64,64,130358,1,0,0:0:0:0:
64,64,130508,1,0,0:0:0:0:
448,64,130583,1,8,0:0:0:0:
448,64,130658,1,8,0:0:0:0:
64,64,130733,1,0,0:0:0:0:
448,64,130808,1,8,0:0:0:0:
448,64,130958,1,8,0:0:0:0:
64,64,131033,1,0,0:0:0:0:
448,64,131108,1,8,0:0:0:0:
448,64,131183,1,8,0:0:0:0:
64,64,131333,1,0,0:0:0:0:
64,64,131408,1,0,0:0:0:0:
448,64,131483,1,8,0:0:0:0:
64,64,131558,1,0,0:0:0:0:
64,64,131708,1,0,0:0:0:0:
448,64,131783,1,8,0:0:0:0:
64,64,131858,1,0,0:0:0:0:
448,64,132008,1,8,0:0:0:0:
64,64,132158,1,0,0:0:0:0:
64,64,132308,1,0,0:0:0:0:
448,64,132458,1,8,0:0:0:0:
64,64,132608,1,0,0:0:0:0:
448,64,132758,1,8,0:0:0:0:
448,64,132908,1,8,0:0:0:0:
64,64,133058,1,0,0:0:0:0:
448,64,133208,1,8,0:0:0:0:
64,64,133358,1,0,0:0:0:0:
64,64,133433,1,0,0:0:0:0:
448,64,133508,1,8,0:0:0:0:
64,64,133583,1,0,0:0:0:0:
448,64,133733,1,8,0:0:0:0:
64,64,133808,1,0,0:0:0:0:
448,64,133883,1,8,0:0:0:0:
448,64,133958,1,8,0:0:0:0:
64,64,134108,1,0,0:0:0:0:
64,64,134183,1,0,0:0:0:0:
448,64,134258,1,8,0:0:0:0:
448,64,134408,1,8,0:0:0:0:
64,320,134558,1,4,0:0:0:0:
448,64,135308,1,8,0:0:0:0:
64,64,135383,1,0,0:0:0:0:
448,64,135458,1,8,0:0:0:0:
448,64,135758,1,8,0:0:0:0:
64,64,135908,1,0,0:0:0:0:
448,64,135983,1,8,0:0:0:0:
448,64,136133,1,8,0:0:0:0:
64,64,136208,1,0,0:0:0:0:
448,64,136358,1,8,0:0:0:0:
448,64,136658,1,8,0:0:0:0:
448,64,136808,1,8,0:0:0:0:
64,64,136958,1,0,0:0:0:0:
448,64,137108,1,8,0:0:0:0:
64,64,137258,1,0,0:0:0:0:
64,64,137408,1,0,0:0:0:0:
448,64,137558,1,8,0:0:0:0:
64,64,137708,1,0,0:0:0:0:
64,64,137858,1,0,0:0:0:0:
448,64,138008,1,8,0:0:0:0:
448,64,138083,1,8,0:0:0:0:
64,64,138158,1,0,0:0:0:0:
64,64,138233,1,0,0:0:0:0:
448,64,138308,1,8,0:0:0:0:
64,64,138608,1,0,0:0:0:0:
64,64,138683,1,0,0:0:0:0:
448,64,138758,1,8,0:0:0:0:
64,64,138983,1,0,0:0:0:0:
448,64,139058,1,8,0:0:0:0:
448,64,139208,1,8,0:0:0:0:
64,64,139358,1,0,0:0:0:0:
448,64,139508,1,8,0:0:0:0:
64,64,139583,1,0,0:0:0:0:
448,64,139658,1,8,0:0:0:0:
448,64,139733,1,8,0:0:0:0:
64,64,139808,1,0,0:0:0:0:
448,64,139883,1,8,0:0:0:0:
64,64,140033,1,0,0:0:0:0:
448,64,140108,1,8,0:0:0:0:
64,64,140183,1,0,0:0:0:0:
448,64,140258,1,8,0:0:0:0:
448,64,140333,1,8,0:0:0:0:
64,64,140408,1,0,0:0:0:0:
448,64,140558,1,8,0:0:0:0:
448,64,140633,1,8,0:0:0:0:
64,64,140708,1,0,0:0:0:0:
448,64,140783,1,8,0:0:0:0:
64,64,140858,1,0,0:0:0:0:
64,64,140933,1,0,0:0:0:0:
448,64,141008,1,8,0:0:0:0:
64,64,141083,1,0,0:0:0:0:
448,64,141158,1,8,0:0:0:0:
448,64,141233,1,8,0:0:0:0:
448,64,141383,1,8,0:0:0:0:
64,64,141458,1,0,0:0:0:0:
64,64,141533,1,0,0:0:0:0:
448,64,141608,1,8,0:0:0:0:
448,64,141683,1,8,0:0:0:0:
64,64,141758,1,0,0:0:0:0:
64,64,141833,1,0,0:0:0:0:
448,64,141908,1,8,0:0:0:0:
448,64,142058,1,8,0:0:0:0:
64,64,142208,1,0,0:0:0:0:
64,64,142283,1,0,0:0:0:0:
448,64,142358,1,8,0:0:0:0:
64,64,142433,1,0,0:0:0:0:
448,64,142508,1,8,0:0:0:0:
64,64,142583,1,0,0:0:0:0:
64,64,142658,1,0,0:0:0:0:
448,64,142808,1,8,0:0:0:0:
448,64,142883,1,8,0:0:0:0:
64,64,142958,1,0,0:0:0:0:
448,64,143033,1,8,0:0:0:0:
448,64,143108,1,8,0:0:0:0:
64,64,143258,1,0,0:0:0:0:
448,64,143408,1,8,0:0:0:0:
64,64,143483,1,0,0:0:0:0:
448,64,143558,1,8,0:0:0:0:
64,64,143708,1,0,0:0:0:0:
448,64,143858,1,8,0:0:0:0:
448,64,144008,1,8,0:0:0:0:
64,320,144159,1,4,0:0:0:0:
64,64,144458,1,0,0:0:0:0:
448,64,144683,1,8,0:0:0:0:
64,64,144908,1,0,0:0:0:0:
448,64,145058,1,8,0:0:0:0:
448,64,145358,1,8,0:0:0:0:
448,64,145408,1,8,0:0:0:0:
64,64,145658,1,0,0:0:0:0:
64,64,145708,1,0,0:0:0:0:
64,64,145958,1,0,0:0:0:0:
64,64,146008,1,0,0:0:0:0:
448,64,146108,1,8,0:0:0:0:
448,64,146158,1,8,0:0:0:0:
448,64,146258,1,8,0:0:0:0:
448,64,146308,1,8,0:0:0:0:
448,64,146408,1,8,0:0:0:0:
448,64,146458,1,8,0:0:0:0:
64,320,146558,1,4,0:0:0:0:
448,64,146708,1,8,0:0:0:0:
448,64,146783,1,8,0:0:0:0:
64,64,146858,1,0,0:0:0:0:
448,64,146933,1,8,0:0:0:0:
448,64,147083,1,8,0:0:0:0:
64,64,147158,1,0,0:0:0:0:
448,64,147308,1,8,0:0:0:0:
448,64,147383,1,8,0:0:0:0:
64,64,147458,1,0,0:0:0:0:
64,64,147533,1,0,0:0:0:0:
64,64,147683,1,0,0:0:0:0:
448,64,147758,1,8,0:0:0:0:
64,64,147858,1,0,0:0:0:0:
448,64,147958,1,8,0:0:0:0:
64,64,148058,1,0,0:0:0:0:
448,64,148158,1,8,0:0:0:0:
448,64,148258,1,8,0:0:0:0:
64,64,148358,1,0,0:0:0:0:
64,64,148408,1,0,0:0:0:0:
64,64,148458,1,0,0:0:0:0:
448,64,148508,1,8,0:0:0:0:
64,64,148658,1,0,0:0:0:0:
64,64,148883,1,0,0:0:0:0:
448,64,148958,1,8,0:0:0:0:
448,64,149008,1,8,0:0:0:0:
448,64,149058,1,8,0:0:0:0:
448,64,149108,1,8,0:0:0:0:
64,64,149183,1,0,0:0:0:0:
64,64,149258,1,0,0:0:0:0:
64,64,149408,1,0,0:0:0:0:
448,64,149483,1,8,0:0:0:0:
64,64,149558,1,0,0:0:0:0:
64,64,149708,1,0,0:0:0:0:
448,64,149858,1,8,0:0:0:0:
448,64,149933,1,8,0:0:0:0:
64,64,150083,1,0,0:0:0:0:
448,64,150158,1,8,0:0:0:0:
448,64,150208,1,8,0:0:0:0:
64,64,150308,1,0,0:0:0:0:
64,64,150383,1,0,0:0:0:0:
448,64,150458,1,8,0:0:0:0:
448,64,150508,1,8,0:0:0:0:
64,64,150608,1,0,0:0:0:0:
64,64,150683,1,0,0:0:0:0:
448,64,150758,1,8,0:0:0:0:
64,64,150808,1,0,0:0:0:0:
64,64,150908,1,0,0:0:0:0:
64,64,150983,1,0,0:0:0:0:
448,64,151058,1,8,0:0:0:0:
64,64,151108,1,0,0:0:0:0:
64,64,151283,1,0,0:0:0:0:
448,64,151358,1,8,0:0:0:0:
448,64,151408,1,8,0:0:0:0:
448,64,151458,1,8,0:0:0:0:
64,64,151508,1,0,0:0:0:0:
448,64,151583,1,8,0:0:0:0:
64,64,151658,1,0,0:0:0:0:
64,64,151733,1,0,0:0:0:0:
448,64,151883,1,8,0:0:0:0:
64,64,151958,1,0,0:0:0:0:
64,64,152108,1,0,0:0:0:0:
448,64,152258,1,8,0:0:0:0:
448,64,152333,1,8,0:0:0:0:
64,64,152483,1,0,0:0:0:0:
448,64,152558,1,8,0:0:0:0:
448,64,152608,1,8,0:0:0:0:
448,64,152658,1,8,0:0:0:0:
448,64,152708,1,8,0:0:0:0:
64,64,152783,1,0,0:0:0:0:
64,64,152858,1,0,0:0:0:0:
448,64,152933,1,8,0:0:0:0:
448,64,153158,1,8,0:0:0:0:
64,64,153233,1,0,0:0:0:0:
448,64,153383,1,8,0:0:0:0:
448,64,153458,1,8,0:0:0:0:
64,64,153533,1,0,0:0:0:0:
448,64,153608,1,8,0:0:0:0:
64,64,153758,1,0,0:0:0:0:
64,64,153908,1,0,0:0:0:0:
64,64,153983,1,0,0:0:0:0:
448,64,154058,1,8,0:0:0:0:
64,64,154133,1,0,0:0:0:0:
448,64,154283,1,8,0:0:0:0:
64,64,154358,1,0,0:0:0:0:
448,64,154508,1,8,0:0:0:0:
64,64,154658,1,0,0:0:0:0:
64,64,154733,1,0,0:0:0:0:
64,64,154883,1,0,0:0:0:0:
448,64,154958,1,8,0:0:0:0:
448,64,155008,1,8,0:0:0:0:
64,64,155108,1,0,0:0:0:0:
448,64,155258,1,8,0:0:0:0:
448,64,155308,1,8,0:0:0:0:
64,64,155408,1,0,0:0:0:0:
448,64,155558,1,8,0:0:0:0:
64,64,155608,1,0,0:0:0:0:
64,64,155708,1,0,0:0:0:0:
448,64,155858,1,8,0:0:0:0:
64,64,155908,1,0,0:0:0:0:
64,64,156158,1,0,0:0:0:0:
64,64,156308,1,0,0:0:0:0:
64,64,156383,1,0,0:0:0:0:
448,64,156458,1,8,0:0:0:0:
64,64,156533,1,0,0:0:0:0:
64,64,156683,1,0,0:0:0:0:
448,64,156758,1,8,0:0:0:0:
448,64,156908,1,8,0:0:0:0:
64,64,157058,1,0,0:0:0:0:
448,64,157133,1,8,0:0:0:0:
448,64,157358,1,8,0:0:0:0:
448,64,157583,1,8,0:0:0:0:
448,64,157808,1,8,0:0:0:0:
448,64,157858,1,8,0:0:0:0:
448,64,157908,1,8,0:0:0:0:
448,64,157958,1,8,0:0:0:0:
448,64,158108,1,8,0:0:0:0:
64,64,158258,1,0,0:0:0:0:
448,64,158333,1,8,0:0:0:0:
64,64,158408,1,0,0:0:0:0:
64,64,158483,1,0,0:0:0:0:
448,320,158558,1,12,0:0:0:0:
64,64,158858,1,0,0:0:0:0:
448,64,159083,1,8,0:0:0:0:
64,64,159158,1,0,0:0:0:0:
448,64,159308,1,8,0:0:0:0:
64,64,159383,1,0,0:0:0:0:
64,64,159458,1,0,0:0:0:0:
448,64,159608,1,8,0:0:0:0:
64,64,159758,1,0,0:0:0:0:
448,64,159808,1,8,0:0:0:0:
64,64,160058,1,0,0:0:0:0:
64,64,160108,1,0,0:0:0:0:
448,64,160358,1,8,0:0:0:0:
448,64,160408,1,8,0:0:0:0:
448,64,160658,1,8,0:0:0:0:
64,64,160708,1,0,0:0:0:0:
448,320,160958,1,12,0:0:0:0:
64,64,161258,1,0,0:0:0:0:
64,64,161333,1,0,0:0:0:0:
448,64,161483,1,8,0:0:0:0:
64,64,161558,1,0,0:0:0:0:
64,64,161708,1,0,0:0:0:0:
448,64,161783,1,8,0:0:0:0:
64,64,161858,1,0,0:0:0:0:
64,64,162008,1,0,0:0:0:0:
64,64,162158,1,0,0:0:0:0:
448,64,162208,1,8,0:0:0:0:
448,64,162458,1,8,0:0:0:0:
448,64,162508,1,8,0:0:0:0:
64,64,162758,1,0,0:0:0:0:
64,64,162808,1,0,0:0:0:0:
448,64,163058,1,8,0:0:0:0:
64,64,163108,1,0,0:0:0:0:
448,320,163358,1,12,0:0:0:0:
64,64,163658,1,0,0:0:0:0:
64,64,163808,1,0,0:0:0:0:
448,64,163883,1,8,0:0:0:0:
64,64,163958,1,0,0:0:0:0:
64,64,164108,1,0,0:0:0:0:
64,64,164183,1,0,0:0:0:0:
448,64,164258,1,8,0:0:0:0:
64,64,164408,1,0,0:0:0:0:
448,64,164558,1,8,0:0:0:0:
448,64,164608,1,8,0:0:0:0:
64,64,164858,1,0,0:0:0:0:
448,64,164908,1,8,0:0:0:0:
448,64,165158,1,8,0:0:0:0:
64,64,165208,1,0,0:0:0:0:
64,64,165458,1,0,0:0:0:0:
64,64,165508,1,0,0:0:0:0:
448,320,165758,1,12,0:0:0:0:
64,64,166058,1,0,0:0:0:0:
448,64,166208,1,8,0:0:0:0:
448,64,166283,1,8,0:0:0:0:
64,64,166358,1,0,0:0:0:0:
64,64,166508,1,0,0:0:0:0:
448,64,166583,1,8,0:0:0:0:
64,64,166658,1,0,0:0:0:0:
64,64,166808,1,0,0:0:0:0:
448,64,166958,1,8,0:0:0:0:
64,64,167108,1,0,0:0:0:0:
64,64,167183,1,0,0:0:0:0:
448,64,167258,1,8,0:0:0:0:
64,64,167408,1,0,0:0:0:0:
448,64,167558,1,8,0:0:0:0:
448,64,167633,1,8,0:0:0:0:
64,64,167708,1,0,0:0:0:0:
448,64,168083,1,8,0:0:0:0:
64,64,168158,1,0,0:0:0:0:
448,64,168458,1,8,0:0:0:0:
64,64,168608,1,0,0:0:0:0:
448,64,168683,1,8,0:0:0:0:
64,64,168758,1,0,0:0:0:0:
64,64,168908,1,0,0:0:0:0:
64,64,168983,1,0,0:0:0:0:
448,64,169058,1,8,0:0:0:0:
64,64,169208,1,0,0:0:0:0:
448,64,169358,1,8,0:0:0:0:
448,64,169408,1,8,0:0:0:0:
448,64,169658,1,8,0:0:0:0:
448,64,169708,1,8,0:0:0:0:
64,64,169958,1,0,0:0:0:0:
64,64,170008,1,0,0:0:0:0:
448,64,170258,1,8,0:0:0:0:
448,64,170308,1,8,0:0:0:0:
448,64,170558,1,8,0:0:0:0:
64,64,170708,1,0,0:0:0:0:
64,64,170783,1,0,0:0:0:0:
448,64,170858,1,8,0:0:0:0:
448,64,171008,1,8,0:0:0:0:
64,64,171158,1,0,0:0:0:0:
64,64,171233,1,0,0:0:0:0:
448,64,171383,1,8,0:0:0:0:
64,64,171458,1,0,0:0:0:0:
448,64,171608,1,8,0:0:0:0:
64,64,171758,1,0,0:0:0:0:
64,64,171808,1,0,0:0:0:0:
64,64,172058,1,0,0:0:0:0:
64,64,172108,1,0,0:0:0:0:
448,64,172358,1,8,0:0:0:0:
448,64,172408,1,8,0:0:0:0:
64,64,172658,1,0,0:0:0:0:
64,64,172708,1,0,0:0:0:0:
64,64,172958,1,0,0:0:0:0:
64,64,173108,1,0,0:0:0:0:
64,64,173183,1,0,0:0:0:0:
448,64,173258,1,8,0:0:0:0:
64,64,173333,1,0,0:0:0:0:
64,64,173483,1,0,0:0:0:0:
448,64,173558,1,8,0:0:0:0:
64,64,173708,1,0,0:0:0:0:
448,64,173783,1,8,0:0:0:0:
64,64,173858,1,0,0:0:0:0:
64,64,174008,1,0,0:0:0:0:
448,64,174158,1,8,0:0:0:0:
448,64,174208,1,8,0:0:0:0:
448,64,174458,1,8,0:0:0:0:
448,64,174508,1,8,0:0:0:0:
64,64,174758,1,0,0:0:0:0:
64,64,174808,1,0,0:0:0:0:
448,64,175058,1,8,0:0:0:0:
448,64,175108,1,8,0:0:0:0:
64,64,175358,1,0,0:0:0:0:
64,64,175508,1,0,0:0:0:0:
64,64,175583,1,0,0:0:0:0:
448,64,175658,1,8,0:0:0:0:
448,64,175808,1,8,0:0:0:0:
448,64,175883,1,8,0:0:0:0:
64,64,175958,1,0,0:0:0:0:
64,64,176108,1,0,0:0:0:0:
448,64,176183,1,8,0:0:0:0:
64,64,176258,1,0,0:0:0:0:
64,64,176408,1,0,0:0:0:0:
448,64,176558,1,8,0:0:0:0:
64,64,176708,1,0,0:0:0:0:
64,64,176783,1,0,0:0:0:0:
448,64,176858,1,8,0:0:0:0:
64,64,177008,1,0,0:0:0:0:
64,64,177083,1,0,0:0:0:0:
448,64,177158,1,8,0:0:0:0:
448,64,177233,1,8,0:0:0:0:
64,64,177308,1,0,0:0:0:0:
123,81,177608,1,8,0:0:0:0:
448,64,177683,1,8,0:0:0:0:
64,64,177758,1,0,0:0:0:0:
448,64,177908,1,8,0:0:0:0:
64,64,178058,1,0,0:0:0:0:
448,64,178208,1,8,0:0:0:0:
64,64,178283,1,0,0:0:0:0:
64,64,178358,1,0,0:0:0:0:
448,64,178433,1,8,0:0:0:0:
448,64,178583,1,8,0:0:0:0:
64,64,178658,1,0,0:0:0:0:
64,64,178808,1,0,0:0:0:0:
448,64,178958,1,8,0:0:0:0:
448,64,179008,1,8,0:0:0:0:
448,64,179258,1,8,0:0:0:0:
448,64,179308,1,8,0:0:0:0:
64,64,179558,1,0,0:0:0:0:
64,64,179608,1,0,0:0:0:0:
448,64,179858,1,8,0:0:0:0:
448,64,179908,1,8,0:0:0:0:
64,64,180158,1,0,0:0:0:0:
448,64,180308,1,8,0:0:0:0:
448,64,180383,1,8,0:0:0:0:
64,64,180458,1,0,0:0:0:0:
64,64,180608,1,0,0:0:0:0:
448,64,180758,1,8,0:0:0:0:
64,64,180908,1,0,0:0:0:0:
448,64,180983,1,8,0:0:0:0:
64,64,181058,1,0,0:0:0:0:
448,64,181208,1,8,0:0:0:0:
64,64,181358,1,0,0:0:0:0:
64,64,181408,1,0,0:0:0:0:
64,64,181658,1,0,0:0:0:0:
64,64,181708,1,0,0:0:0:0:
448,64,181958,1,8,0:0:0:0:
448,64,182008,1,8,0:0:0:0:
64,64,182258,1,0,0:0:0:0:
64,64,182308,1,0,0:0:0:0:
64,64,182558,1,0,0:0:0:0:
64,64,182858,1,0,0:0:0:0:
448,64,183008,1,8,0:0:0:0:
64,64,183083,1,0,0:0:0:0:
64,64,183158,1,0,0:0:0:0:
448,64,183233,1,8,0:0:0:0:
448,64,183383,1,8,0:0:0:0:
64,64,183458,1,0,0:0:0:0:
64,64,183608,1,0,0:0:0:0:
448,64,183758,1,8,0:0:0:0:
448,64,183808,1,8,0:0:0:0:
448,64,184058,1,8,0:0:0:0:
448,64,184108,1,8,0:0:0:0:
64,64,184358,1,0,0:0:0:0:
64,64,184408,1,0,0:0:0:0:
448,64,184658,1,8,0:0:0:0:
448,64,184708,1,8,0:0:0:0:
64,64,184958,1,0,0:0:0:0:
448,64,185108,1,8,0:0:0:0:
64,64,185258,1,0,0:0:0:0:
64,64,185408,1,0,0:0:0:0:
448,64,185558,1,8,0:0:0:0:
64,64,185708,1,0,0:0:0:0:
448,64,185783,1,8,0:0:0:0:
64,64,185858,1,0,0:0:0:0:
64,64,186008,1,0,0:0:0:0:
448,64,186158,1,8,0:0:0:0:
64,64,186308,1,0,0:0:0:0:
64,64,186383,1,0,0:0:0:0:
448,64,186458,1,8,0:0:0:0:
448,64,186608,1,8,0:0:0:0:
64,64,186758,1,0,0:0:0:0:
64,64,186833,1,0,0:0:0:0:
448,64,186908,1,8,0:0:0:0:
448,64,187058,1,8,0:0:0:0:
64,64,187358,1,0,0:0:0:0:
448,64,187508,1,8,0:0:0:0:
448,64,187583,1,8,0:0:0:0:
64,64,187658,1,0,0:0:0:0:
448,64,187808,1,8,0:0:0:0:
448,64,187883,1,8,0:0:0:0:
64,64,187958,1,0,0:0:0:0:
64,64,188033,1,0,0:0:0:0:
448,64,188183,1,8,0:0:0:0:
64,64,188258,1,0,0:0:0:0:
448,64,188408,1,8,0:0:0:0:
64,64,188558,1,0,0:0:0:0:
64,64,188708,1,0,0:0:0:0:
448,64,188858,1,8,0:0:0:0:
448,64,189008,1,8,0:0:0:0:
64,64,189158,1,0,0:0:0:0:
448,64,189458,1,8,0:0:0:0:
64,64,189758,1,0,0:0:0:0:
448,64,189908,1,8,0:0:0:0:
448,64,189983,1,8,0:0:0:0:
64,64,190058,1,0,0:0:0:0:
448,64,190208,1,8,0:0:0:0:
64,64,190358,1,0,0:0:0:0:
64,64,190433,1,0,0:0:0:0:
448,64,190508,1,8,0:0:0:0:
448,64,190583,1,8,0:0:0:0:
64,64,190658,1,0,0:0:0:0:
448,64,190808,1,8,0:0:0:0:
64,64,190958,1,0,0:0:0:0:
64,64,191108,1,0,0:0:0:0:
448,64,191258,1,8,0:0:0:0:
448,64,191408,1,8,0:0:0:0:
64,64,191558,1,0,0:0:0:0:
448,64,191858,1,8,0:0:0:0:
64,64,192158,1,0,0:0:0:0:
448,64,192308,1,8,0:0:0:0:
448,64,192383,1,8,0:0:0:0:
64,64,192458,1,0,0:0:0:0:
448,64,192608,1,8,0:0:0:0:
448,64,192683,1,8,0:0:0:0:
64,64,192758,1,0,0:0:0:0:
448,64,192833,1,8,0:0:0:0:
448,64,192983,1,8,0:0:0:0:
64,64,193058,1,0,0:0:0:0:
448,64,193208,1,8,0:0:0:0:
448,64,193283,1,8,0:0:0:0:
64,64,193358,1,0,0:0:0:0:
64,64,193508,1,0,0:0:0:0:
448,64,193658,1,8,0:0:0:0:
448,64,193808,1,8,0:0:0:0:
64,64,193958,1,0,0:0:0:0:
448,64,194258,1,8,0:0:0:0:
64,64,194558,1,0,0:0:0:0:
448,64,194708,1,8,0:0:0:0:
448,64,194783,1,8,0:0:0:0:
64,64,194858,1,0,0:0:0:0:
448,64,195008,1,8,0:0:0:0:
64,64,195158,1,0,0:0:0:0:
448,64,195233,1,8,0:0:0:0:
64,64,195308,1,0,0:0:0:0:
448,64,195383,1,8,0:0:0:0:
64,64,195458,1,0,0:0:0:0:
64,64,195608,1,0,0:0:0:0:
448,64,195758,1,8,0:0:0:0:
64,64,195908,1,0,0:0:0:0:
448,64,195983,1,8,0:0:0:0:
448,64,196058,1,8,0:0:0:0:
64,64,196208,1,0,0:0:0:0:
448,64,196358,1,8,0:0:0:0:
448,64,196433,1,8,0:0:0:0:
64,64,196508,1,0,0:0:0:0:
448,64,196808,1,8,0:0:0:0:
64,320,196958,1,4,0:0:0:0:
448,64,197408,1,8,0:0:0:0:
448,64,197558,1,8,0:0:0:0:
205,178,198158,1,0,0:0:0:0:
205,178,198308,1,0,0:0:0:0:
205,178,198458,1,8,0:0:0:0:
205,178,198608,1,0,0:0:0:0:
205,178,198758,1,0,0:0:0:0:
183,191,199058,1,0,0:0:0:0:
183,191,199358,1,8,0:0:0:0:
183,191,199508,1,8,0:0:0:0:
183,191,199658,1,0,0:0:0:0:
183,191,199808,1,8,0:0:0:0:
183,191,199958,1,8,0:0:0:0:
183,191,200258,1,8,0:0:0:0:
183,191,200558,1,0,0:0:0:0:
183,191,200708,1,0,0:0:0:0:
183,191,200858,1,8,0:0:0:0:
183,191,201008,1,0,0:0:0:0:
190,181,201158,1,0,0:0:0:0:
189,182,201458,1,0,0:0:0:0:
256,192,201758,12,0,204008,0:0:0:0:
256,192,204158,12,0,206408,0:0:0:0:
448,64,206558,5,8,0:0:0:0:
64,64,206633,1,0,0:0:0:0:
64,64,206708,1,0,0:0:0:0:
448,64,206783,1,8,0:0:0:0:
448,64,206858,1,8,0:0:0:0:
64,64,206933,1,0,0:0:0:0:
64,64,207008,1,0,0:0:0:0:
448,64,207083,1,8,0:0:0:0:
64,64,207158,1,0,0:0:0:0:
64,64,207233,1,0,0:0:0:0:
448,64,207308,1,8,0:0:0:0:
448,64,207383,1,8,0:0:0:0:
64,64,207458,1,0,0:0:0:0:
64,64,207533,1,0,0:0:0:0:
448,64,207608,1,8,0:0:0:0:
448,64,207683,1,8,0:0:0:0:
64,64,207758,1,0,0:0:0:0:
64,64,207833,1,0,0:0:0:0:
448,64,207908,1,8,0:0:0:0:
448,64,207983,1,8,0:0:0:0:
448,64,208058,1,8,0:0:0:0:
64,64,208133,1,0,0:0:0:0:
448,64,208208,1,8,0:0:0:0:
448,64,208283,1,8,0:0:0:0:
64,64,208358,1,0,0:0:0:0:
64,64,208433,1,0,0:0:0:0:
448,64,208508,1,8,0:0:0:0:
448,64,208583,1,8,0:0:0:0:
448,64,208658,1,8,0:0:0:0:
64,64,208733,1,0,0:0:0:0:
448,64,208808,1,8,0:0:0:0:
448,64,208883,1,8,0:0:0:0:
448,64,208958,1,8,0:0:0:0:
64,64,209033,1,0,0:0:0:0:
64,64,209108,1,0,0:0:0:0:
448,64,209183,1,8,0:0:0:0:
448,64,209258,1,8,0:0:0:0:
64,64,209333,1,0,0:0:0:0:
64,64,209408,1,0,0:0:0:0:
448,64,209483,1,8,0:0:0:0:
64,64,209558,1,0,0:0:0:0:
64,64,209633,1,0,0:0:0:0:
448,64,209708,1,8,0:0:0:0:
448,64,209783,1,8,0:0:0:0:
64,64,209858,1,0,0:0:0:0:
64,64,209933,1,0,0:0:0:0:
448,64,210008,1,8,0:0:0:0:
448,64,210083,1,8,0:0:0:0:
64,64,210158,1,0,0:0:0:0:
64,64,210233,1,0,0:0:0:0:
448,64,210308,1,8,0:0:0:0:
448,64,210383,1,8,0:0:0:0:
448,64,210458,1,8,0:0:0:0:
64,64,210533,1,0,0:0:0:0:
448,64,210608,1,8,0:0:0:0:
448,64,210683,1,8,0:0:0:0:
64,64,210758,1,0,0:0:0:0:
64,64,210833,1,0,0:0:0:0:
448,64,210908,1,8,0:0:0:0:
448,64,210983,1,8,0:0:0:0:
448,64,211058,1,8,0:0:0:0:
64,64,211133,1,0,0:0:0:0:
448,64,211208,1,8,0:0:0:0:
448,64,211283,1,8,0:0:0:0:
448,64,211358,1,8,0:0:0:0:
64,64,211433,1,0,0:0:0:0:
64,64,211508,1,0,0:0:0:0:
448,64,211583,1,8,0:0:0:0:
448,64,211658,1,8,0:0:0:0:
64,64,211733,1,0,0:0:0:0:
64,64,211808,1,0,0:0:0:0:
448,64,211883,1,8,0:0:0:0:
64,64,211958,1,0,0:0:0:0:
64,64,212033,1,0,0:0:0:0:
448,64,212108,1,8,0:0:0:0:
448,64,212183,1,8,0:0:0:0:
64,64,212258,1,0,0:0:0:0:
64,64,212333,1,0,0:0:0:0:
448,64,212408,1,8,0:0:0:0:
448,64,212483,1,8,0:0:0:0:
64,64,212558,1,0,0:0:0:0:
64,64,212633,1,0,0:0:0:0:
448,64,212708,1,8,0:0:0:0:
448,64,212783,1,8,0:0:0:0:
448,64,212858,1,8,0:0:0:0:
64,64,212933,1,0,0:0:0:0:
448,64,213008,1,8,0:0:0:0:
448,64,213083,1,8,0:0:0:0:
64,64,213158,1,0,0:0:0:0:
64,64,213233,1,0,0:0:0:0:
448,64,213308,1,8,0:0:0:0:
448,64,213383,1,8,0:0:0:0:
448,64,213458,1,8,0:0:0:0:
64,64,213533,1,0,0:0:0:0:
448,64,213608,1,8,0:0:0:0:
448,64,213683,1,8,0:0:0:0:
448,64,213758,1,8,0:0:0:0:
64,64,213833,1,0,0:0:0:0:
64,64,213908,1,0,0:0:0:0:
448,64,213983,1,8,0:0:0:0:
448,64,214058,1,8,0:0:0:0:
64,64,214133,1,0,0:0:0:0:
64,64,214208,1,0,0:0:0:0:
448,64,214283,1,8,0:0:0:0:
64,64,214358,1,0,0:0:0:0:
64,64,214433,1,0,0:0:0:0:
448,64,214508,1,8,0:0:0:0:
448,64,214583,1,8,0:0:0:0:
64,64,214658,1,0,0:0:0:0:
64,64,214733,1,0,0:0:0:0:
448,64,214808,1,8,0:0:0:0:
448,64,214883,1,8,0:0:0:0:
64,64,214958,1,0,0:0:0:0:
64,64,215033,1,0,0:0:0:0:
448,64,215108,1,8,0:0:0:0:
448,64,215183,1,8,0:0:0:0:
448,64,215258,1,8,0:0:0:0:
64,64,215333,1,0,0:0:0:0:
448,64,215408,1,8,0:0:0:0:
448,64,215483,1,8,0:0:0:0:
64,64,215558,1,0,0:0:0:0:
64,64,215633,1,0,0:0:0:0:
448,64,215708,1,8,0:0:0:0:
448,64,215783,1,8,0:0:0:0:
448,64,215858,1,8,0:0:0:0:
64,64,215933,1,0,0:0:0:0:
448,64,216008,1,8,0:0:0:0:
448,64,216083,1,8,0:0:0:0:
448,64,216158,1,8,0:0:0:0:
448,320,218559,5,12,0:0:0:0:
448,320,220959,5,12,0:0:0:0:
448,320,223359,5,12,0:0:0:0:
448,320,225759,5,12,0:0:0:0:
64,64,226358,1,0,0:0:0:0:
64,64,226658,1,0,0:0:0:0:
448,64,227558,1,8,0:0:0:0:
64,64,227858,1,0,0:0:0:0:
448,320,228159,1,12,0:0:0:0:
64,64,228758,1,0,0:0:0:0:
64,64,229058,1,0,0:0:0:0:
448,64,229958,1,8,0:0:0:0:
64,64,230258,1,0,0:0:0:0:
448,320,230559,1,12,0:0:0:0:
64,64,231158,1,0,0:0:0:0:
64,64,231458,1,0,0:0:0:0:
448,64,232358,1,8,0:0:0:0:
64,64,232658,1,0,0:0:0:0:
448,320,232959,1,12,0:0:0:0:
64,64,233558,1,0,0:0:0:0:
64,64,233858,1,0,0:0:0:0:
448,64,234758,1,8,0:0:0:0:
64,64,235058,1,0,0:0:0:0:
448,64,235358,1,8,0:0:0:0:
448,64,235433,1,8,0:0:0:0:
64,64,235508,1,0,0:0:0:0:
64,64,235583,1,0,0:0:0:0:
448,64,235658,1,8,0:0:0:0:
64,64,235733,1,0,0:0:0:0:
64,64,235808,1,0,0:0:0:0:
64,64,235883,1,0,0:0:0:0:
448,64,235958,1,8,0:0:0:0:
448,64,236033,1,8,0:0:0:0:
64,64,236108,1,0,0:0:0:0:
448,64,236183,1,8,0:0:0:0:
64,64,236258,1,0,0:0:0:0:
64,64,236333,1,0,0:0:0:0:
448,64,236408,1,8,0:0:0:0:
448,64,236483,1,8,0:0:0:0:
64,64,236558,1,0,0:0:0:0:
64,64,236633,1,0,0:0:0:0:
448,64,236708,1,8,0:0:0:0:
448,64,236783,1,8,0:0:0:0:
64,64,236858,1,0,0:0:0:0:
64,64,236933,1,0,0:0:0:0:
448,64,237008,1,8,0:0:0:0:
64,64,237083,1,0,0:0:0:0:
64,64,237158,1,0,0:0:0:0:
64,64,237233,1,0,0:0:0:0:
448,64,237308,1,8,0:0:0:0:
448,64,237383,1,8,0:0:0:0:
64,64,237458,1,0,0:0:0:0:
64,64,237533,1,0,0:0:0:0:
448,64,237608,1,8,0:0:0:0:
64,64,237683,1,0,0:0:0:0:
448,64,237758,1,8,0:0:0:0:
448,64,237833,1,8,0:0:0:0:
64,64,237908,1,0,0:0:0:0:
64,64,237983,1,0,0:0:0:0:
448,64,238058,1,8,0:0:0:0:
64,64,238133,1,0,0:0:0:0:
64,64,238208,1,0,0:0:0:0:
64,64,238283,1,0,0:0:0:0:
448,64,238358,1,8,0:0:0:0:
448,64,238433,1,8,0:0:0:0:
64,64,238508,1,0,0:0:0:0:
448,64,238583,1,8,0:0:0:0:
64,64,238658,1,0,0:0:0:0:
64,64,238733,1,0,0:0:0:0:
448,64,238808,1,8,0:0:0:0:
448,64,238883,1,8,0:0:0:0:
64,64,238958,1,0,0:0:0:0:
64,64,239033,1,0,0:0:0:0:
448,64,239108,1,8,0:0:0:0:
448,64,239183,1,8,0:0:0:0:
64,64,239258,1,0,0:0:0:0:
64,64,239333,1,0,0:0:0:0:
448,64,239408,1,8,0:0:0:0:
64,64,239483,1,0,0:0:0:0:
64,64,239558,1,0,0:0:0:0:
64,64,239633,1,0,0:0:0:0:
448,64,239708,1,8,0:0:0:0:
448,64,239783,1,8,0:0:0:0:
64,64,239858,1,0,0:0:0:0:
64,64,239933,1,0,0:0:0:0:
448,64,240008,1,8,0:0:0:0:
64,64,240083,1,0,0:0:0:0:
448,64,240158,1,8,0:0:0:0:
448,64,240233,1,8,0:0:0:0:
64,64,240308,1,0,0:0:0:0:
64,64,240383,1,0,0:0:0:0:
448,64,240458,1,8,0:0:0:0:
64,64,240533,1,0,0:0:0:0:
64,64,240608,1,0,0:0:0:0:
64,64,240683,1,0,0:0:0:0:
448,64,240758,1,8,0:0:0:0:
448,64,240833,1,8,0:0:0:0:
64,64,240908,1,0,0:0:0:0:
448,64,240983,1,8,0:0:0:0:
64,64,241058,1,0,0:0:0:0:
64,64,241133,1,0,0:0:0:0:
448,64,241208,1,8,0:0:0:0:
448,64,241283,1,8,0:0:0:0:
64,64,241358,1,0,0:0:0:0:
64,64,241433,1,0,0:0:0:0:
448,64,241508,1,8,0:0:0:0:
448,64,241583,1,8,0:0:0:0:
64,64,241658,1,0,0:0:0:0:
64,64,241733,1,0,0:0:0:0:
448,64,241808,1,8,0:0:0:0:
64,64,241883,1,0,0:0:0:0:
64,64,241958,1,0,0:0:0:0:
64,64,242033,1,0,0:0:0:0:
448,64,242108,1,8,0:0:0:0:
448,64,242183,1,8,0:0:0:0:
64,64,242258,1,0,0:0:0:0:
64,64,242333,1,0,0:0:0:0:
448,64,242408,1,8,0:0:0:0:
64,64,242483,1,0,0:0:0:0:
448,64,242558,1,8,0:0:0:0:
448,64,242633,1,8,0:0:0:0:
64,64,242708,1,0,0:0:0:0:
64,64,242783,1,0,0:0:0:0:
448,64,242858,1,8,0:0:0:0:
64,64,242933,1,0,0:0:0:0:
64,64,243008,1,0,0:0:0:0:
64,64,243083,1,0,0:0:0:0:
448,64,243158,1,8,0:0:0:0:
448,64,243233,1,8,0:0:0:0:
64,64,243308,1,0,0:0:0:0:
448,64,243383,1,8,0:0:0:0:
64,64,243458,1,0,0:0:0:0:
64,64,243533,1,0,0:0:0:0:
448,64,243608,1,8,0:0:0:0:
448,64,243683,1,8,0:0:0:0:
64,64,243758,1,0,0:0:0:0:
64,64,243833,1,0,0:0:0:0:
448,64,243908,1,8,0:0:0:0:
448,64,243983,1,8,0:0:0:0:
64,64,244058,1,0,0:0:0:0:
64,64,244133,1,0,0:0:0:0:
448,64,244208,1,8,0:0:0:0:
64,64,244283,1,0,0:0:0:0:
64,64,244358,1,0,0:0:0:0:
64,64,244433,1,0,0:0:0:0:
448,64,244508,1,8,0:0:0:0:
64,64,244583,1,0,0:0:0:0:
448,64,244658,1,8,0:0:0:0:
448,64,244733,1,8,0:0:0:0:
64,64,244808,1,0,0:0:0:0:
64,64,244883,1,0,0:0:0:0:
448,64,244958,1,8,0:0:0:0:
64,64,245033,1,0,0:0:0:0:
448,64,245108,1,8,0:0:0:0:
64,64,245183,1,0,0:0:0:0:
448,64,245258,1,8,0:0:0:0:
448,64,245333,1,8,0:0:0:0:
64,64,245408,1,0,0:0:0:0:
64,64,245483,1,0,0:0:0:0:
448,64,245558,1,8,0:0:0:0:
448,64,245633,1,8,0:0:0:0:
448,64,245708,1,8,0:0:0:0:
64,64,245783,1,0,0:0:0:0:
448,64,245858,1,8,0:0:0:0:
448,64,245933,1,8,0:0:0:0:
64,64,246008,1,0,0:0:0:0:
64,64,246083,1,0,0:0:0:0:
448,64,246158,1,8,0:0:0:0:
64,64,246233,1,0,0:0:0:0:
448,64,246308,1,8,0:0:0:0:
64,64,246383,1,0,0:0:0:0:
448,64,246458,1,8,0:0:0:0:
448,64,246533,1,8,0:0:0:0:
64,64,246608,1,0,0:0:0:0:
64,64,246683,1,0,0:0:0:0:
448,64,246758,1,8,0:0:0:0:
448,64,246833,1,8,0:0:0:0:
64,64,246908,1,0,0:0:0:0:
448,64,246983,1,8,0:0:0:0:
448,64,247058,1,8,0:0:0:0:
448,64,247133,1,8,0:0:0:0:
64,64,247208,1,0,0:0:0:0:
64,64,247283,1,0,0:0:0:0:
448,64,247358,1,8,0:0:0:0:
64,64,247433,1,0,0:0:0:0:
448,64,247508,1,8,0:0:0:0:
64,64,247583,1,0,0:0:0:0:
448,64,247658,1,8,0:0:0:0:
448,64,247733,1,8,0:0:0:0:
64,64,247808,1,0,0:0:0:0:
64,64,247883,1,0,0:0:0:0:
448,64,247958,1,8,0:0:0:0:
448,64,248033,1,8,0:0:0:0:
448,64,248108,1,8,0:0:0:0:
64,64,248183,1,0,0:0:0:0:
448,64,248258,1,8,0:0:0:0:
448,64,248333,1,8,0:0:0:0:
64,64,248408,1,0,0:0:0:0:
64,64,248483,1,0,0:0:0:0:
448,64,248558,1,8,0:0:0:0:
64,64,248633,1,0,0:0:0:0:
448,64,248708,1,8,0:0:0:0:
64,64,248783,1,0,0:0:0:0:
448,64,248858,1,8,0:0:0:0:
448,64,248933,1,8,0:0:0:0:
64,64,249008,1,0,0:0:0:0:
64,64,249083,1,0,0:0:0:0:
448,64,249158,1,8,0:0:0:0:
448,64,249233,1,8,0:0:0:0:
64,64,249308,1,0,0:0:0:0:
448,64,249383,1,8,0:0:0:0:
448,64,249458,1,8,0:0:0:0:
448,64,249533,1,8,0:0:0:0:
64,64,249608,1,0,0:0:0:0:
64,64,249683,1,0,0:0:0:0:
448,64,249758,1,8,0:0:0:0:
64,64,249833,1,0,0:0:0:0:
448,64,249908,1,8,0:0:0:0:
64,64,249983,1,0,0:0:0:0:
448,64,250058,1,8,0:0:0:0:
448,64,250133,1,8,0:0:0:0:
64,64,250208,1,0,0:0:0:0:
64,64,250283,1,0,0:0:0:0:
448,64,250358,1,8,0:0:0:0:
448,64,250433,1,8,0:0:0:0:
448,64,250508,1,8,0:0:0:0:
64,64,250583,1,0,0:0:0:0:
448,64,250658,1,8,0:0:0:0:
448,64,250733,1,8,0:0:0:0:
64,64,250808,1,0,0:0:0:0:
64,64,250883,1,0,0:0:0:0:
448,64,250958,1,8,0:0:0:0:
64,64,251033,1,0,0:0:0:0:
448,64,251108,1,8,0:0:0:0:
64,64,251183,1,0,0:0:0:0:
448,64,251258,1,8,0:0:0:0:
448,64,251333,1,8,0:0:0:0:
64,64,251408,1,0,0:0:0:0:
64,64,251483,1,0,0:0:0:0:
448,64,251558,1,8,0:0:0:0:
448,64,251633,1,8,0:0:0:0:
64,64,251708,1,0,0:0:0:0:
448,64,251783,1,8,0:0:0:0:
448,64,251858,1,8,0:0:0:0:
448,64,251933,1,8,0:0:0:0:
64,64,252008,1,0,0:0:0:0:
64,64,252083,1,0,0:0:0:0:
448,64,252158,1,8,0:0:0:0:
64,64,252233,1,0,0:0:0:0:
448,64,252308,1,8,0:0:0:0:
64,64,252383,1,0,0:0:0:0:
448,64,252458,1,8,0:0:0:0:
448,64,252533,1,8,0:0:0:0:
64,64,252608,1,0,0:0:0:0:
64,64,252683,1,0,0:0:0:0:
448,64,252758,1,8,0:0:0:0:
448,64,252833,1,8,0:0:0:0:
448,64,252908,1,8,0:0:0:0:
64,64,252983,1,0,0:0:0:0:
448,64,253058,1,8,0:0:0:0:
448,64,253133,1,8,0:0:0:0:
64,64,253208,1,0,0:0:0:0:
64,64,253283,1,0,0:0:0:0:
448,64,253358,1,8,0:0:0:0:
64,64,253433,1,0,0:0:0:0:
448,64,253508,1,8,0:0:0:0:
64,64,253583,1,0,0:0:0:0:
448,64,253658,1,8,0:0:0:0:
448,64,253733,1,8,0:0:0:0:
64,64,253808,1,0,0:0:0:0:
64,64,253883,1,0,0:0:0:0:
448,64,253958,1,8,0:0:0:0:
448,64,254033,1,8,0:0:0:0:
64,64,254108,1,0,0:0:0:0:
448,64,254183,1,8,0:0:0:0:
448,64,254258,1,8,0:0:0:0:
448,64,254333,1,8,0:0:0:0:
64,64,254408,1,0,0:0:0:0:
64,64,254483,1,0,0:0:0:0:
448,64,254558,1,8,0:0:0:0:
64,64,254633,1,0,0:0:0:0:
448,64,254708,1,8,0:0:0:0:
64,64,254783,1,0,0:0:0:0:
448,64,254858,1,8,0:0:0:0:
448,64,254933,1,8,0:0:0:0:
64,64,255008,1,0,0:0:0:0:
64,64,255083,1,0,0:0:0:0:
448,64,255158,1,8,0:0:0:0:
448,64,255233,1,8,0:0:0:0:
448,64,255308,1,8,0:0:0:0:
64,64,255383,1,0,0:0:0:0:
448,64,255458,1,8,0:0:0:0:
448,64,255533,1,8,0:0:0:0:
64,64,255608,1,0,0:0:0:0:
64,64,255683,1,0,0:0:0:0:
448,64,255758,1,8,0:0:0:0:
64,64,255833,1,0,0:0:0:0:
448,64,255908,1,8,0:0:0:0:
64,64,255983,1,0,0:0:0:0:
448,64,256058,1,8,0:0:0:0:
448,64,256133,1,8,0:0:0:0:
64,64,256208,1,0,0:0:0:0:
64,64,256283,1,0,0:0:0:0:
448,64,256358,1,8,0:0:0:0:
448,64,256433,1,8,0:0:0:0:
64,64,256508,1,0,0:0:0:0:
448,64,256583,1,8,0:0:0:0:
448,64,256658,1,8,0:0:0:0:
448,64,256733,1,8,0:0:0:0:
64,64,256808,1,0,0:0:0:0:
64,64,256883,1,0,0:0:0:0:
448,64,256958,1,8,0:0:0:0:
64,64,257033,1,0,0:0:0:0:
448,64,257108,1,8,0:0:0:0:
64,64,257183,1,0,0:0:0:0:
448,64,257258,1,8,0:0:0:0:
448,64,257333,1,8,0:0:0:0:
64,64,257408,1,0,0:0:0:0:
64,64,257483,1,0,0:0:0:0:
448,64,257558,1,8,0:0:0:0:
448,64,257633,1,8,0:0:0:0:
448,64,257708,1,8,0:0:0:0:
64,64,257783,1,0,0:0:0:0:
448,64,257858,1,8,0:0:0:0:
448,64,257933,1,8,0:0:0:0:
64,64,258008,1,0,0:0:0:0:
64,64,258083,1,0,0:0:0:0:
448,64,258158,1,8,0:0:0:0:
64,64,258233,1,0,0:0:0:0:
448,64,258308,1,8,0:0:0:0:
64,64,258383,1,0,0:0:0:0:
448,64,258458,1,8,0:0:0:0:
448,64,258533,1,8,0:0:0:0:
64,64,258608,1,0,0:0:0:0:
64,64,258683,1,0,0:0:0:0:
448,64,258758,1,8,0:0:0:0:
448,64,258833,1,8,0:0:0:0:
64,64,258908,1,0,0:0:0:0:
448,64,258983,1,8,0:0:0:0:
448,64,259058,1,8,0:0:0:0:
448,64,259133,1,8,0:0:0:0:
64,64,259208,1,0,0:0:0:0:
64,64,259283,1,0,0:0:0:0:
448,64,259358,1,8,0:0:0:0:
64,64,259508,1,0,0:0:0:0:
448,64,259583,1,8,0:0:0:0:
64,64,259658,1,0,0:0:0:0:
64,64,259733,1,0,0:0:0:0:
448,64,259808,1,8,0:0:0:0:
448,64,259883,1,8,0:0:0:0:
64,64,259958,1,0,0:0:0:0:
448,64,260033,1,8,0:0:0:0:
448,64,260108,1,8,0:0:0:0:
448,64,260258,1,8,0:0:0:0:
448,64,260333,1,8,0:0:0:0:
64,64,260408,1,0,0:0:0:0:
448,64,260483,1,8,0:0:0:0:
64,64,260558,1,0,0:0:0:0:
64,64,260633,1,0,0:0:0:0:
448,64,260708,1,8,0:0:0:0:
64,64,260783,1,0,0:0:0:0:
448,64,260858,1,8,0:0:0:0:
64,64,260933,1,0,0:0:0:0:
64,64,261008,1,0,0:0:0:0:
448,64,261083,1,8,0:0:0:0:
64,64,261158,1,0,0:0:0:0:
448,64,261233,1,8,0:0:0:0:
448,64,261308,1,8,0:0:0:0:
448,64,261458,1,8,0:0:0:0:
448,64,261533,1,8,0:0:0:0:
64,64,261608,1,0,0:0:0:0:
448,64,261683,1,8,0:0:0:0:
64,64,261758,1,0,0:0:0:0:
64,64,261908,1,0,0:0:0:0:
64,64,261983,1,0,0:0:0:0:
448,64,262058,1,8,0:0:0:0:
64,64,262133,1,0,0:0:0:0:
448,64,262208,1,8,0:0:0:0:
448,64,262283,1,8,0:0:0:0:
64,64,262358,1,0,0:0:0:0:
448,64,262433,1,8,0:0:0:0:
64,64,262508,1,0,0:0:0:0:
64,64,262583,1,0,0:0:0:0:
448,64,262658,1,8,0:0:0:0:
448,64,262733,1,8,0:0:0:0:
64,64,262808,1,0,0:0:0:0:
64,64,262883,1,0,0:0:0:0:
448,64,262958,1,8,0:0:0:0:
64,64,263033,1,0,0:0:0:0:
448,64,263108,1,8,0:0:0:0:
64,64,263183,1,0,0:0:0:0:
448,64,263258,1,8,0:0:0:0:
448,64,263333,1,8,0:0:0:0:
64,64,263408,1,0,0:0:0:0:
64,64,263483,1,0,0:0:0:0:
448,64,263558,1,8,0:0:0:0:
64,64,263633,1,0,0:0:0:0:
448,64,263708,1,8,0:0:0:0:
448,64,263783,1,8,0:0:0:0:
64,64,263858,1,0,0:0:0:0:
448,64,263933,1,8,0:0:0:0:
64,64,264008,1,0,0:0:0:0:
64,64,264083,1,0,0:0:0:0:
448,320,264159,1,12,0:0:0:0:
256,192,264176,12,0,273683,0:0:0:0:
256,192,273833,12,0,277208,0:0:0:0:
256,192,277359,12,0,278483,0:0:0:0:
200,66,278600,5,12,0:0:0:0:
448,64,278750,1,0,0:0:0:0:
64,64,278900,1,0,0:0:0:0:
448,64,279200,1,8,0:0:0:0:
448,64,279350,1,0,0:0:0:0:
64,64,279500,1,0,0:0:0:0:
448,64,279800,1,8,0:0:0:0:
448,64,279950,1,0,0:0:0:0:
64,64,280100,1,0,0:0:0:0:
448,64,280400,1,8,0:0:0:0:
64,64,280550,1,8,0:0:0:0:
64,64,280700,1,0,0:0:0:0:
448,64,281000,1,8,0:0:0:0:
448,64,281150,1,0,0:0:0:0:
64,64,281300,1,0,0:0:0:0:
448,64,281600,1,8,0:0:0:0:
448,64,281750,1,0,0:0:0:0:
64,64,281900,1,0,0:0:0:0:
448,64,282200,1,8,0:0:0:0:
448,64,282350,1,0,0:0:0:0:
64,64,282500,1,0,0:0:0:0:
448,64,282800,1,8,0:0:0:0:
448,64,282950,1,8,0:0:0:0:
64,64,283100,1,0,0:0:0:0:
448,64,283400,1,8,0:0:0:0:
64,64,283550,1,0,0:0:0:0:
64,64,283700,1,0,0:0:0:0:
448,64,284000,1,8,0:0:0:0:
64,64,284150,1,0,0:0:0:0:
64,64,284300,1,0,0:0:0:0:
448,64,284600,1,8,0:0:0:0:
64,64,284750,1,0,0:0:0:0:
64,64,284900,1,0,0:0:0:0:
448,64,285200,1,8,0:0:0:0:
448,64,285350,1,8,0:0:0:0:
64,64,285500,1,0,0:0:0:0:
448,64,285800,1,8,0:0:0:0:
64,64,285950,1,0,0:0:0:0:
64,64,286100,1,0,0:0:0:0:
448,64,286400,1,8,0:0:0:0:
64,64,286550,1,0,0:0:0:0:
64,64,286700,1,0,0:0:0:0:
448,64,287000,1,8,0:0:0:0:
64,64,287150,1,0,0:0:0:0:
64,64,287300,1,0,0:0:0:0:
448,64,287600,1,8,0:0:0:0:
64,64,287750,1,8,0:0:0:0:
64,64,287900,1,0,0:0:0:0:
448,64,288200,1,8,0:0:0:0:
448,64,288350,1,0,0:0:0:0:
64,64,288500,1,0,0:0:0:0:
448,64,288800,1,8,0:0:0:0:
448,64,288950,1,8,0:0:0:0:
64,64,289100,1,0,0:0:0:0:
448,64,289400,1,8,0:0:0:0:
448,64,289550,1,0,0:0:0:0:
64,64,289700,1,0,0:0:0:0:
448,64,290000,1,8,0:0:0:0:
64,64,290150,1,8,0:0:0:0:
64,64,290300,1,0,0:0:0:0:
448,64,290600,1,8,0:0:0:0:
448,64,290750,1,0,0:0:0:0:
64,64,290900,1,0,0:0:0:0:
448,64,291200,1,8,0:0:0:0:
448,64,291350,1,8,0:0:0:0:
64,64,291500,1,0,0:0:0:0:
448,64,291800,1,8,0:0:0:0:
448,64,291950,1,0,0:0:0:0:
64,64,292100,1,0,0:0:0:0:
448,64,292400,1,8,0:0:0:0:
448,64,292550,1,8,0:0:0:0:
64,64,292700,1,0,0:0:0:0:
448,64,293000,1,8,0:0:0:0:
64,64,293150,1,0,0:0:0:0:
64,64,293300,1,0,0:0:0:0:
448,64,293600,1,8,0:0:0:0:
64,64,293750,1,8,0:0:0:0:
64,64,293900,1,0,0:0:0:0:
448,64,294200,1,8,0:0:0:0:
64,64,294350,1,0,0:0:0:0:
64,64,294500,1,0,0:0:0:0:
448,64,294800,1,8,0:0:0:0:
448,64,294950,1,8,0:0:0:0:
64,64,295100,1,0,0:0:0:0:
448,64,295400,1,8,0:0:0:0:
64,64,295550,1,0,0:0:0:0:
64,64,295700,1,0,0:0:0:0:
448,64,296000,1,8,0:0:0:0:
64,64,296150,1,8,0:0:0:0:
64,64,296300,1,0,0:0:0:0:
448,64,296600,1,8,0:0:0:0:
64,64,296750,1,0,0:0:0:0:
64,64,296900,1,0,0:0:0:0:
448,64,297200,1,8,0:0:0:0:
64,64,297350,1,8,0:0:0:0:
64,64,297500,1,0,0:0:0:0:
256,192,297649,12,0,305599,0:0:0:0:
