osu file format v14

[General]
AudioFilename: audio.mp3
AudioLeadIn: 0
PreviewTime: 6200
Countdown: 0
SampleSet: Soft
StackLeniency: 0.7
Mode: 0
LetterboxInBreaks: 0
WidescreenStoryboard: 0

[Editor]
Bookmarks: 44600
DistanceSpacing: 1.1
BeatDivisor: 2
GridSize: 4
TimelineZoom: 1.3

[Metadata]
Title:KENDRICK LAMAR "HUMBLE" MINECRAFT PARODY
TitleUnicode:KENDRICK LAMAR "HUMBLE" MINECRAFT PARODY
Artist:Galaxy Goats
ArtistUnicode:Galaxy Goats
Creator:vanucik
Version:Stone
Source:
Tags:Instrumental Remake By Prince the Producer Youtube Galaxy Goat Chalwa Marvollo M_a_r_v_o_l_l_o Shmiklak armin a_r_m_i_n
BeatmapID:1361132
BeatmapSetID:641970

[Difficulty]
HPDrainRate:4
CircleSize:3
OverallDifficulty:4
ApproachRate:5.5
SliderMultiplier:0.999999999999999
SliderTickRate:1

[Events]
//Background and Video events
0,0,"123213123123123123123123123.jpg",0,0
Video,54,"123123.mp4"
//Break Periods
//Storyboard Layer 0 (Background)
//Storyboard Layer 1 (Fail)
//Storyboard Layer 2 (Pass)
//Storyboard Layer 3 (Foreground)
//Storyboard Sound Samples

[TimingPoints]
6200.05882352941,400,4,2,1,40,1,0
44600,-100,4,2,1,25,0,0
47800,-100,4,2,1,40,0,0

[HitObjects]
87,290,6200,6,0,P|144:275|201:272,1,99.9999999999999,2|4,0:0|0:0,0:0:0:0:
282,322,7000,1,8,0:0:0:0:
354,239,7400,2,0,P|358:211|352:180,1,50,0|2,0:0|0:0,0:0:0:0:
332,140,7800,5,0,0:0:0:0:
223,157,8200,2,0,P|186:161|158:160,1,50,0|2,0:0|0:0,0:0:0:0:
119,149,8600,1,8,0:0:0:0:
148,43,9000,1,2,0:0:0:0:
257,56,9400,6,0,P|304:58|375:39,1,99.9999999999999,2|4,0:0|0:0,0:0:0:0:
451,101,10200,1,8,0:0:0:0:
364,169,10600,2,0,P|319:175|298:175,1,50,0|2,0:0|0:0,0:0:0:0:
259,168,11000,5,0,0:0:0:0:
197,259,11400,2,0,P|146:274|129:275,1,50,0|2,0:0|0:0,0:0:0:0:
94,277,11800,1,10,0:0:0:0:
34,184,12200,1,2,0:0:0:0:
131,133,12600,6,0,P|186:125|269:139,1,99.9999999999999,2|4,0:0|0:0,0:0:0:0:
322,188,13400,1,8,0:0:0:0:
420,139,13800,2,0,P|425:95|424:80,1,50,0|2,0:0|0:0,0:0:0:0:
408,36,14200,5,0,0:0:0:0:
311,89,14600,2,0,P|247:95|234:94,1,50,0|2,0:0|0:0,0:0:0:0:
206,90,15000,1,8,0:0:0:0:
103,50,15400,1,2,0:0:0:0:
73,155,15800,6,0,P|74:198|78:222,2,50,2|2|4,0:0|0:0|0:0,0:0:0:0:
174,197,16600,1,8,0:0:0:0:
273,150,17000,2,0,P|310:143|338:142,1,50,0|2,0:0|0:0,0:0:0:0:
376,147,17400,5,0,0:0:0:0:
370,256,17800,2,0,P|331:267|304:269,1,50,0|2,0:0|0:0,0:0:0:0:
266,264,18200,1,8,0:0:0:0:
180,333,18600,1,2,0:0:0:0:
83,279,19000,6,0,P|66:221|62:174,1,99.9999999999999,2|4,0:0|0:0,0:0:0:0:
106,80,19800,1,8,0:0:0:0:
183,158,20200,2,0,P|194:195|197:222,1,50,0|2,0:0|0:0,0:0:0:0:
192,261,20600,5,0,0:0:0:0:
301,262,21000,2,0,P|319:291|328:320,1,50,0|2,0:0|0:0,0:0:0:0:
330,360,21400,1,8,0:0:0:0:
435,328,21800,2,0,P|448:286|449:262,1,50,2|0,0:0|0:0,0:0:0:0:
445,225,22200,6,0,P|436:190|438:142,2,50,2|2|4,0:0|0:0|0:0,0:0:0:0:
335,227,23000,1,8,0:0:0:0:
270,316,23400,2,0,P|221:328|202:328,1,50,0|2,0:0|0:0,0:0:0:0:
166,322,23800,5,0,0:0:0:0:
130,217,24200,2,0,P|89:198|71:185,1,50,0|2,0:0|0:0,0:0:0:0:
51,151,24600,1,8,0:0:0:0:
117,63,25000,1,2,0:0:0:0:
204,130,25400,6,0,P|252:142|306:141,1,99.9999999999999,2|4,0:0|0:0,0:0:0:0:
410,121,26200,1,8,0:0:0:0:
418,230,26600,2,0,P|400:261|386:278,1,50,0|2,0:0|0:0,0:0:0:0:
350,308,27000,5,0,0:0:0:0:
240,296,27400,2,0,P|213:252|208:236,1,50,0|2,0:0|0:0,0:0:0:0:
188,204,27800,1,8,0:0:0:0:
286,154,28200,1,2,0:0:0:0:
205,78,28600,6,0,P|168:61|131:59,1,50,2|2,0:0|0:0,0:0:0:0:
104,63,29000,1,4,0:0:0:0:
84,171,29400,1,8,0:0:0:0:
169,240,29800,2,0,P|209:247|248:248,1,50,0|2,0:0|0:0,0:0:0:0:
273,246,30200,5,0,0:0:0:0:
351,169,30600,2,0,P|383:160|414:154,1,50,0|2,0:0|0:0,0:0:0:0:
454,152,31000,1,8,0:0:0:0:
447,42,31400,1,2,0:0:0:0:
340,69,31800,6,0,P|278:73|223:53,1,99.9999999999999,2|4,0:0|0:0,0:0:0:0:
142,15,32600,1,8,0:0:0:0:
97,115,33000,2,0,P|95:149|95:172,1,50,0|2,0:0|0:0,0:0:0:0:
97,219,33400,5,0,0:0:0:0:
206,228,33800,2,0,P|221:265|234:281,1,50,0|2,0:0|0:0,0:0:0:0:
261,315,34200,1,8,0:0:0:0:
361,360,34600,1,2,0:0:0:0:
441,284,35000,6,0,P|451:254|449:205,2,50,2|2|4,0:0|0:0|0:0,0:0:0:0:
340,238,35800,1,8,0:0:0:0:
391,140,36200,2,0,P|439:116|450:114,1,50,0|2,0:0|0:0,0:0:0:0:
487,100,36600,5,0,0:0:0:0:
405,25,37000,2,0,P|361:13|337:11,1,50,0|2,0:0|0:0,0:0:0:0:
301,9,37400,1,8,0:0:0:0:
225,89,37800,2,0,P|219:126|221:156,1,50,2|0,0:0|0:0,0:0:0:0:
236,190,38200,6,0,P|254:243|228:324,1,99.9999999999999,2|4,0:0|0:0,0:0:0:0:
168,361,39000,1,8,0:0:0:0:
92,280,39400,2,0,P|83:237|81:213,1,50,0|2,0:0|0:0,0:0:0:0:
92,176,39800,5,0,0:0:0:0:
195,139,40200,2,0,P|208:102|211:78,1,50,0|2,0:0|0:0,0:0:0:0:
218,37,40600,1,8,0:0:0:0:
109,21,41000,1,2,0:0:0:0:
19,85,41400,6,0,P|15:121|15:174,2,50,2|2|4,0:0|0:0|0:0,0:0:0:0:
104,154,42200,1,8,0:0:0:0:
207,117,42600,2,0,P|250:111|268:111,1,50,0|2,0:0|0:0,0:0:0:0:
311,115,43000,5,0,0:0:0:0:
321,224,43400,2,0,P|266:233|249:233,1,50,0|2,0:0|0:0,0:0:0:0:
217,222,43800,1,8,0:0:0:0:
127,286,44200,1,2,0:0:0:0:
70,191,44600,5,2,0:0:0:0:
70,191,47800,6,0,P|117:181|139:180,1,50,2|2,0:0|0:0,0:0:0:0:
172,190,48200,1,4,0:0:0:0:
253,115,48600,1,8,0:0:0:0:
324,198,49000,2,0,P|331:221|335:247,1,50,0|2,0:0|0:0,0:0:0:0:
334,301,49400,5,0,0:0:0:0:
234,347,49800,2,0,P|197:337|176:335,1,50,0|2,0:0|0:0,0:0:0:0:
130,342,50200,1,8,0:0:0:0:
48,267,50600,1,2,0:0:0:0:
139,205,51000,5,2,0:0:0:0:
66,122,51400,2,0,P|62:75|65:57,1,50,4|0,0:0|0:0,0:0:0:0:
97,29,51800,1,8,0:0:0:0:
200,65,52200,2,0,P|219:96|225:121,1,50,0|2,0:0|0:0,0:0:0:0:
243,159,52600,6,0,P|287:166|355:165,1,99.9999999999999,0|0,0:0|0:0,0:0:0:0:
446,129,53400,1,8,0:0:0:0:
478,234,53800,1,2,0:0:0:0:
374,272,54200,6,0,P|346:265|288:264,1,50,2|2,0:0|0:0,0:0:0:0:
270,263,54600,1,4,0:0:0:0:
171,311,55000,1,8,0:0:0:0:
101,225,55400,2,0,P|88:176|88:163,1,50,0|2,0:0|0:0,0:0:0:0:
93,122,55800,5,0,0:0:0:0:
202,108,56200,1,0,0:0:0:0:
311,94,56600,1,8,0:0:0:0:
420,81,57000,2,0,P|436:112|443:138,1,50,2|0,0:0|0:0,0:0:0:0:
434,181,57400,5,2,0:0:0:0:
376,274,57800,2,0,P|326:274|308:276,1,50,4|0,0:0|0:0,0:0:0:0:
272,287,58200,1,8,0:0:0:0:
169,246,58600,6,0,L|104:244,1,50,0|2,0:0|0:0,0:0:0:0:
127,134,59200,2,0,L|51:132,1,50,2|0,0:0|0:0,0:0:0:0:
87,23,59800,1,8,0:0:0:0:
195,43,60200,2,0,P|252:49|265:48,1,50,2|0,0:0|0:0,0:0:0:0:
297,34,60600,6,0,P|338:30|363:31,2,50,2|2|4,0:0|0:0|0:0,0:0:0:0:
322,140,61400,1,8,0:0:0:0:
346,247,61800,6,0,P|322:280|293:308,1,50,0|2,0:0|0:0,0:0:0:0:
208,260,62400,2,0,P|170:273|156:277,1,50,2|0,0:0|0:0,0:0:0:0:
56,239,63000,1,8,0:0:0:0:
58,129,63400,1,2,0:0:0:0:
150,69,63800,6,0,P|204:61|267:64,1,99.9999999999999,0|0,0:0|0:0,0:0:0:0:
438,174,65000,1,0,0:0:0:0:
353,244,65400,5,0,0:0:0:0:
258,188,65800,2,0,P|227:180|205:176,1,50,0|0,0:0|0:0,0:0:0:0:
149,269,66400,2,0,P|103:267|76:272,1,50,0|0,0:0|0:0,0:0:0:0:
78,159,67000,6,0,P|69:131|68:105,1,50,2|2,0:0|0:0,0:0:0:0:
88,59,67400,1,4,0:0:0:0:
193,26,67800,1,8,0:0:0:0:
273,101,68200,6,0,P|299:108|331:110,1,50,0|2,0:0|0:0,0:0:0:0:
412,173,68800,2,0,P|423:202|428:231,1,50,2|0,0:0|0:0,0:0:0:0:
364,311,69400,2,0,P|319:287|235:290,1,99.9999999999999,8|2,0:0|0:0,0:0:0:0:
164,312,70200,6,0,L|155:199,1,99.9999999999999,2|4,0:0|0:0,0:0:0:0:
148,102,71000,1,8,0:0:0:0:
248,146,71400,6,0,P|268:174|277:194,1,50,0|2,0:0|0:0,0:0:0:0:
374,141,72000,2,0,P|413:162|426:174,1,50,2|0,0:0|0:0,0:0:0:0:
421,275,72600,2,0,P|370:292|317:291,1,99.9999999999999,8|2,0:0|0:0,0:0:0:0:
220,254,73400,6,0,P|171:246|158:245,1,50,2|2,0:0|0:0,0:0:0:0:
115,246,73800,1,4,0:0:0:0:
64,148,74200,1,8,0:0:0:0:
159,93,74600,6,0,P|191:84|221:80,1,50,0|2,0:0|0:0,0:0:0:0:
280,163,75200,2,0,P|317:158|335:158,1,50,2|0,0:0|0:0,0:0:0:0:
414,228,75800,1,8,0:0:0:0:
350,318,76200,1,0,0:0:0:0:
248,275,76600,6,0,P|182:265|147:261,1,99.9999999999999,0|0,0:0|0:0,0:0:0:0:
326,130,77800,1,0,0:0:0:0:
246,53,78200,6,0,P|192:43|116:44,1,99.9999999999999,0|0,0:0|0:0,0:0:0:0:
