osu file format v14

[General]
AudioFilename: audio.mp3
AudioLeadIn: 0
PreviewTime: 6200
Countdown: 0
SampleSet: Soft
StackLeniency: 0.7
Mode: 0
LetterboxInBreaks: 0
WidescreenStoryboard: 0

[Editor]
Bookmarks: 44600
DistanceSpacing: 1.1
BeatDivisor: 1
GridSize: 4
TimelineZoom: 1.3

[Metadata]
Title:KENDRICK LAMAR "HUMBLE" MINECRAFT PARODY
TitleUnicode:KENDRICK LAMAR "HUMBLE" MINECRAFT PARODY
Artist:Galaxy Goats
ArtistUnicode:Galaxy Goats
Creator:vanucik
Version:M a r M i N's Wood
Source:
Tags:Instrumental Remake By Prince the Producer Youtube Galaxy Goat Chalwa Marvollo M_a_r_v_o_l_l_o Shmiklak armin a_r_m_i_n
BeatmapID:1361131
BeatmapSetID:641970

[Difficulty]
HPDrainRate:1.5
CircleSize:2.6
OverallDifficulty:2
ApproachRate:3
SliderMultiplier:0.999999999999999
SliderTickRate:1

[Events]
//Background and Video events
0,0,"123213123123123123123123123.jpg",0,0
Video,54,"123123.mp4"
//Break Periods
//Storyboard Layer 0 (Background)
//Storyboard Layer 1 (Fail)
//Storyboard Layer 2 (Pass)
//Storyboard Layer 3 (Foreground)
//Storyboard Sound Samples

[TimingPoints]
6200.05882352941,400,4,2,1,40,1,0
44600,-100,4,2,1,25,0,0
47800,-100,4,2,1,40,0,0

[HitObjects]
388,112,6200,6,0,P|442:108|492:104,1,99.9999999999999,2|4,0:0|0:0,0:0:0:0:
476,212,7000,2,0,P|374:202|261:192,1,200,8|0,0:0|0:0,0:0:0:0:
198,271,8200,1,0,0:0:0:0:
144,176,8600,2,0,P|137:124|152:72,1,99.9999999999999,8|2,0:0|0:0,0:0:0:0:
48,120,9400,6,0,P|55:172|40:224,1,99.9999999999999,2|4,0:0|0:0,0:0:0:0:
8,324,10200,2,0,P|57:320|124:316,1,99.9999999999999,8|0,0:0|0:0,0:0:0:0:
209,360,11000,2,0,P|317:361|412:328,1,200,0|10,0:0|0:0,0:0:0:0:
456,236,12200,2,0,P|452:181|456:120,1,99.9999999999999,2|2,0:0|0:0,0:0:0:0:
376,58,13000,5,4,0:0:0:0:
296,132,13400,2,0,B|246:141|246:141|182:121,1,99.9999999999999,8|0,0:0|0:0,0:0:0:0:
104,72,14200,2,0,P|118:177|118:277,1,200,0|8,0:0|0:0,0:0:0:0:
76,372,15400,1,2,0:0:0:0:
180,340,15800,6,0,P|226:330|292:324,1,99.9999999999999,2|4,0:0|0:0,0:0:0:0:
384,360,16600,2,0,P|376:252|372:160,1,200,8|0,0:0|0:0,0:0:0:0:
416,60,17800,1,0,0:0:0:0:
468,156,18200,2,0,P|472:216|468:260,2,99.9999999999999,8|2|2,0:0|0:0|0:0,0:0:0:0:
416,60,19400,5,4,0:0:0:0:
338,137,19800,2,0,P|338:191|348:240,1,99.9999999999999,8|0,0:0|0:0,0:0:0:0:
368,344,20600,2,0,P|270:331|156:320,1,200,0|8,0:0|0:0,0:0:0:0:
60,332,21800,1,2,0:0:0:0:
108,232,22200,6,0,P|113:180|116:116,1,99.9999999999999,2|4,0:0|0:0,0:0:0:0:
204,64,23000,2,0,P|209:115|212:180,1,99.9999999999999,8|0,0:0|0:0,0:0:0:0:
272,256,23800,2,0,P|369:243|475:227,1,200,0|8,0:0|0:0,0:0:0:0:
434,332,25000,2,0,P|386:331|328:332,1,99.9999999999999,2|2,0:0|0:0,0:0:0:0:
224,348,25800,5,4,0:0:0:0:
136,284,26200,2,0,P|130:231|134:184,1,99.9999999999999,8|0,0:0|0:0,0:0:0:0:
212,104,27000,2,0,P|264:136|396:88,1,200,0|8,0:0|0:0,0:0:0:0:
456,12,28200,1,2,0:0:0:0:
492,116,28600,6,0,P|495:173|496:228,1,99.9999999999999,2|4,0:0|0:0,0:0:0:0:
418,293,29400,2,0,P|319:286|216:280,1,200,8|0,0:0|0:0,0:0:0:0:
112,308,30600,1,0,0:0:0:0:
68,208,31000,2,0,P|60:160|60:88,2,99.9999999999999,8|2|2,0:0|0:0|0:0,0:0:0:0:
112,308,32200,5,4,0:0:0:0:
218,280,32600,2,0,P|318:286|418:293,1,200,8|0,0:0|0:0,0:0:0:0:
512,352,33800,1,0,0:0:0:0:
492,244,34200,2,0,P|487:188|488:136,1,99.9999999999999,8|2,0:0|0:0,0:0:0:0:
409,66,35000,6,0,P|357:67|300:70,1,99.9999999999999,2|4,0:0|0:0,0:0:0:0:
260,168,35800,2,0,P|205:197|81:133,1,200,8|0,0:0|0:0,0:0:0:0:
32,52,37000,1,0,0:0:0:0:
140,32,37400,2,0,P|187:33|248:40,2,99.9999999999999,8|2|2,0:0|0:0|0:0,0:0:0:0:
32,52,38600,5,4,0:0:0:0:
87,145,39000,2,0,P|168:198|260:168,1,200,8|0,0:0|0:0,0:0:0:0:
344,96,40200,1,0,0:0:0:0:
396,192,40600,2,0,P|400:232|392:292,1,99.9999999999999,8|2,0:0|0:0,0:0:0:0:
492,244,41400,6,0,P|484:194|488:144,1,99.9999999999999,2|4,0:0|0:0,0:0:0:0:
424,56,42200,2,0,P|326:53|208:48,1,200,8|0,0:0|0:0,0:0:0:0:
116,72,43400,1,0,0:0:0:0:
84,176,43800,2,0,P|80:248|80:292,1,99.9999999999999,8|2,0:0|0:0,0:0:0:0:
152,357,44600,5,2,0:0:0:0:
397,88,47800,6,0,P|299:85|181:80,1,200,2|8,0:0|0:0,0:0:0:0:
106,17,49000,1,0,0:0:0:0:
40,105,49400,2,0,P|36:145|44:205,1,99.9999999999999,0|0,0:0|0:0,0:0:0:0:
122,280,50200,2,0,P|174:279|231:276,1,99.9999999999999,8|2,0:0|0:0,0:0:0:0:
310,341,51000,6,0,P|406:352|456:264,1,200,2|8,0:0|0:0,0:0:0:0:
402,178,52200,2,0,P|399:128|398:78,1,99.9999999999999,0|0,0:0|0:0,0:0:0:0:
306,17,53000,1,0,0:0:0:0:
238,104,53400,2,0,P|191:127|146:118,1,99.9999999999999,8|2,0:0|0:0,0:0:0:0:
52,60,54200,6,0,P|55:159|59:259,1,200,2|8,0:0|0:0,0:0:0:0:
137,337,55400,1,0,0:0:0:0:
215,259,55800,2,0,P|263:250|307:272,1,99.9999999999999,0|0,0:0|0:0,0:0:0:0:
387,348,56600,2,0,P|435:356|479:334,1,99.9999999999999,8|2,0:0|0:0,0:0:0:0:
506,227,57400,6,0,P|501:127|498:27,1,200,2|8,0:0|0:0,0:0:0:0:
406,86,58600,1,0,0:0:0:0:
312,27,59000,2,0,P|261:23|216:45,2,99.9999999999999,0|0|8,0:0|0:0|0:0,0:0:0:0:
406,86,60200,1,2,0:0:0:0:
361,186,60600,6,0,P|261:189|161:193,1,200,2|8,0:0|0:0,0:0:0:0:
81,116,61800,1,0,0:0:0:0:
21,208,62200,2,0,P|17:259|39:304,2,99.9999999999999,0|0|8,0:0|0:0|0:0,0:0:0:0:
81,116,63400,1,2,0:0:0:0:
161,193,63800,6,0,P|210:190|260:189,1,99.9999999999999,0|0,0:0|0:0,0:0:0:0:
397,16,65000,1,0,0:0:0:0:
486,80,65400,2,0,P|496:174|416:224,1,200,0|0,0:0|0:0,0:0:0:0:
332,153,66600,1,0,0:0:0:0:
269,243,67000,6,0,P|169:238|69:235,1,200,2|8,0:0|0:0,0:0:0:0:
8,143,68200,1,0,0:0:0:0:
69,51,68600,2,0,P|118:48|168:47,2,99.9999999999999,0|0|8,0:0|0:0|0:0,0:0:0:0:
8,143,69800,1,2,0:0:0:0:
69,235,70200,6,0,P|163:245|213:165,1,200,2|8,0:0|0:0,0:0:0:0:
160,69,71400,1,0,0:0:0:0:
258,19,71800,2,0,P|307:20|357:22,2,99.9999999999999,0|0|8,0:0|0:0|0:0,0:0:0:0:
160,69,73000,1,2,0:0:0:0:
213,165,73400,6,0,P|312:160|412:157,1,200,2|8,0:0|0:0,0:0:0:0:
501,222,74600,1,0,0:0:0:0:
410,284,75000,2,0,P|389:328|393:378,2,99.9999999999999,0|0|8,0:0|0:0|0:0,0:0:0:0:
501,222,76200,1,0,0:0:0:0:
256,192,76600,12,0,78600,0:0:0:0:
