osu file format v14

[General]
AudioFilename: audio.mp3
AudioLeadIn: 0
PreviewTime: 6200
Countdown: 0
SampleSet: Soft
StackLeniency: 0.7
Mode: 0
LetterboxInBreaks: 0
WidescreenStoryboard: 0

[Editor]
DistanceSpacing: 1.3
BeatDivisor: 4
GridSize: 4
TimelineZoom: 1.3

[Metadata]
Title:KENDRICK LAMAR "HUMBLE" MINECRAFT PARODY
TitleUnicode:KENDRICK LAMAR "HUMBLE" MINECRAFT PARODY
Artist:Galaxy Goats
ArtistUnicode:Galaxy Goats
Creator:vanucik
Version:Iron
Source:
Tags:Instrumental Remake By Prince the Producer Youtube Galaxy Goat Chalwa Marvollo M_a_r_v_o_l_l_o Shmiklak armin a_r_m_i_n
BeatmapID:1361130
BeatmapSetID:641970

[Difficulty]
HPDrainRate:6
CircleSize:4
OverallDifficulty:8
ApproachRate:9
SliderMultiplier:2
SliderTickRate:1

[Events]
//Background and Video events
0,0,"123213123123123123123123123.jpg",0,0
Video,54,"123123.mp4"
//Break Periods
//Storyboard Layer 0 (Background)
//Storyboard Layer 1 (Fail)
//Storyboard Layer 2 (Pass)
//Storyboard Layer 3 (Foreground)
//Storyboard Sound Samples

[TimingPoints]
6200.05882352941,400,4,2,1,40,1,0
44600,-125,4,2,1,25,0,0
47800,-100,4,2,1,40,0,0
57400,-111.111111111111,4,2,1,40,0,0
63800,-125,4,2,1,40,0,0
67000,-100,4,2,1,40,0,0

[HitObjects]
124,218,6200,6,0,P|94:186|84:128,1,100,2|0,0:0|0:0,0:0:0:0:
135,333,6600,2,0,P|76:319|33:275,1,100,4|0,0:0|0:0,0:0:0:0:
330,167,7000,1,8,0:0:0:0:
305,324,7200,1,0,0:0:0:0:
171,229,7400,1,0,0:0:0:0:
348,159,7600,1,2,0:0:0:0:
309,343,7800,5,0,0:0:0:0:
224,125,8000,1,2,0:0:0:0:
366,151,8200,1,0,0:0:0:0:
152,233,8400,1,2,0:0:0:0:
285,26,8600,1,8,0:0:0:0:
383,144,8800,1,0,0:0:0:0:
153,93,9000,1,2,0:0:0:0:
293,12,9200,1,0,0:0:0:0:
232,243,9400,5,2,0:0:0:0:
49,204,9600,1,2,0:0:0:0:
123,326,9800,1,4,0:0:0:0:
239,225,10000,1,0,0:0:0:0:
386,329,10200,1,8,0:0:0:0:
363,210,10400,1,0,0:0:0:0:
265,326,10600,1,0,0:0:0:0:
499,284,10800,1,2,0:0:0:0:
460,181,11000,5,0,0:0:0:0:
262,216,11200,1,2,0:0:0:0:
374,273,11400,1,0,0:0:0:0:
347,121,11600,1,2,0:0:0:0:
135,225,11800,1,10,0:0:0:0:
219,100,12000,1,0,0:0:0:0:
259,306,12200,1,2,0:0:0:0:
116,230,12400,1,0,0:0:0:0:
315,175,12600,6,0,P|369:170|418:190,1,100,2|0,0:0|0:0,0:0:0:0:
200,258,13000,1,4,0:0:0:0:
216,148,13200,1,0,0:0:0:0:
340,294,13400,1,8,0:0:0:0:
239,343,13600,1,0,0:0:0:0:
426,368,13800,1,0,0:0:0:0:
357,201,14000,1,2,0:0:0:0:
253,231,14200,5,0,0:0:0:0:
448,265,14400,1,2,0:0:0:0:
415,139,14600,1,0,0:0:0:0:
235,244,14800,1,2,0:0:0:0:
307,66,15000,1,8,0:0:0:0:
366,197,15200,1,0,0:0:0:0:
172,124,15400,1,2,0:0:0:0:
306,53,15600,1,0,0:0:0:0:
240,266,15800,5,2,0:0:0:0:
42,203,16000,1,2,0:0:0:0:
126,289,16200,2,0,P|148:334|148:386,1,100,4|0,0:0|0:0,0:0:0:0:
156,172,16600,2,0,P|203:146|252:145,1,100,8|0,0:0|0:0,0:0:0:0:
356,173,17000,1,0,0:0:0:0:
230,56,17200,1,2,0:0:0:0:
230,232,17400,5,0,0:0:0:0:
342,61,17600,1,2,0:0:0:0:
155,146,17800,1,0,0:0:0:0:
324,254,18000,1,2,0:0:0:0:
230,56,18200,1,8,0:0:0:0:
203,253,18400,1,0,0:0:0:0:
393,160,18600,2,0,P|442:151|490:163,1,100,2|0,0:0|0:0,0:0:0:0:
321,238,19000,6,0,P|293:189|293:138,1,100,2|0,0:0|0:0,0:0:0:0:
437,260,19400,1,4,0:0:0:0:
327,31,19800,2,0,P|266:27|189:89,1,150,8|0,0:0|0:0,0:0:0:0:
185,104,20200,1,0,0:0:0:0:
291,146,20400,1,2,0:0:0:0:
181,234,20600,6,0,P|128:251|72:244,1,100,0|2,0:0|0:0,0:0:0:0:
47,235,20900,1,0,0:0:0:0:
47,235,21000,2,0,L|51:341,1,100,0|2,0:0|0:0,0:0:0:0:
278,285,21400,2,0,P|284:201|235:141,1,150,8|0,0:0|0:0,0:0:0:0:
214,133,21800,1,2,0:0:0:0:
175,232,22000,1,0,0:0:0:0:
391,172,22200,5,2,0:0:0:0:
126,151,22400,1,2,0:0:0:0:
255,222,22600,1,4,0:0:0:0:
234,34,23000,1,8,0:0:0:0:
337,114,23200,1,0,0:0:0:0:
202,145,23400,1,0,0:0:0:0:
370,13,23600,1,2,0:0:0:0:
337,114,23800,5,0,0:0:0:0:
125,62,24000,1,2,0:0:0:0:
219,32,24200,1,0,0:0:0:0:
185,241,24400,1,2,0:0:0:0:
359,214,24600,1,8,0:0:0:0:
206,138,24800,1,0,0:0:0:0:
156,348,25000,1,2,0:0:0:0:
81,272,25200,1,0,0:0:0:0:
248,314,25400,6,0,P|310:321|382:261,1,150,2|0,0:0|0:0,0:0:0:0:
384,243,25800,2,0,P|337:223|281:227,1,100,4|0,0:0|0:0,0:0:0:0:
81,272,26200,1,8,0:0:0:0:
134,185,26400,1,0,0:0:0:0:
189,271,26600,1,0,0:0:0:0:
8,155,26800,1,2,0:0:0:0:
65,78,27000,5,0,0:0:0:0:
81,272,27200,1,2,0:0:0:0:
134,185,27400,1,0,0:0:0:0:
155,361,27600,1,2,0:0:0:0:
298,260,27800,1,8,0:0:0:0:
195,265,28000,1,0,0:0:0:0:
358,360,28200,1,2,0:0:0:0:
401,254,28400,1,0,0:0:0:0:
185,155,28600,5,2,0:0:0:0:
195,265,28800,1,2,0:0:0:0:
281,198,29000,1,4,0:0:0:0:
95,218,29400,2,0,P|83:270|99:326,1,100,8|0,0:0|0:0,0:0:0:0:
185,155,29800,1,0,0:0:0:0:
0,174,30000,1,2,0:0:0:0:
88,111,30200,5,0,0:0:0:0:
178,278,30400,1,2,0:0:0:0:
282,214,30600,1,0,0:0:0:0:
93,193,30800,1,2,0:0:0:0:
292,326,31000,2,0,P|336:337|395:332,1,100,8|0,0:0|0:0,0:0:0:0:
282,214,31400,1,2,0:0:0:0:
178,278,31600,1,0,0:0:0:0:
377,258,31800,6,0,P|390:200|337:124,1,150,2|0,0:0|0:0,0:0:0:0:
318,114,32200,2,0,P|269:133|215:130,1,100,4|0,0:0|0:0,0:0:0:0:
131,17,32600,1,8,0:0:0:0:
249,21,32800,1,0,0:0:0:0:
64,146,33000,1,0,0:0:0:0:
153,215,33200,1,2,0:0:0:0:
252,158,33400,5,0,0:0:0:0:
64,146,33600,1,2,0:0:0:0:
146,314,33800,1,0,0:0:0:0:
252,158,34000,1,2,0:0:0:0:
37,258,34200,2,0,P|22:326|44:371,1,100,8|0,0:0|0:0,0:0:0:0:
252,158,34600,1,2,0:0:0:0:
162,84,34800,1,0,0:0:0:0:
147,310,35000,5,2,0:0:0:0:
255,350,35200,1,2,0:0:0:0:
331,262,35400,1,4,0:0:0:0:
74,165,35800,1,8,0:0:0:0:
53,274,36000,1,0,0:0:0:0:
153,226,36200,1,0,0:0:0:0:
95,62,36400,1,2,0:0:0:0:
74,165,36600,5,0,0:0:0:0:
291,128,36800,1,2,0:0:0:0:
228,36,37000,1,0,0:0:0:0:
227,233,37200,1,2,0:0:0:0:
413,137,37400,1,8,0:0:0:0:
291,128,37600,1,0,0:0:0:0:
379,301,37800,1,2,0:0:0:0:
413,137,38000,1,0,0:0:0:0:
227,233,38200,6,0,P|155:247|78:198,1,150,2|0,0:0|0:0,0:0:0:0:
76,189,38600,2,0,P|97:234|96:294,1,100,4|0,0:0|0:0,0:0:0:0:
62,79,39000,1,8,0:0:0:0:
179,139,39200,1,0,0:0:0:0:
76,189,39400,1,0,0:0:0:0:
167,26,39600,1,2,0:0:0:0:
280,96,39800,5,0,0:0:0:0:
205,230,40000,1,2,0:0:0:0:
76,189,40200,1,0,0:0:0:0:
167,26,40400,1,2,0:0:0:0:
205,230,40600,1,8,0:0:0:0:
120,106,40800,1,0,0:0:0:0:
138,320,41000,2,0,P|193:341|246:333,1,100,2|0,0:0|0:0,0:0:0:0:
261,326,41300,1,0,0:0:0:0:
283,306,41400,5,2,0:0:0:0:
390,242,41600,1,2,0:0:0:0:
471,338,41800,1,4,0:0:0:0:
302,135,42200,2,0,P|242:119|191:126,1,100,8|0,0:0|0:0,0:0:0:0:
113,190,42600,1,0,0:0:0:0:
289,255,42800,1,2,0:0:0:0:
289,255,42900,1,0,0:0:0:0:
289,255,43000,5,0,0:0:0:0:
235,107,43200,1,2,0:0:0:0:
170,276,43400,1,0,0:0:0:0:
242,88,43600,1,2,0:0:0:0:
58,146,43800,1,8,0:0:0:0:
124,39,44000,1,0,0:0:0:0:
178,206,44200,1,2,0:0:0:0:
58,146,44400,1,0,0:0:0:0:
242,88,44600,6,0,P|307:82|384:157,1,160,2|0,0:0|0:0,0:0:0:0:
391,230,45200,1,2,0:0:0:0:
312,284,45400,2,0,P|295:239|299:198,1,80
472,179,45800,2,0,P|489:224|485:265,1,80,2|0,0:0|0:0,0:0:0:0:
371,364,46200,6,0,B|328:371|328:371|296:357|296:357|269:369|226:365,1,120,2|0,0:0|0:0,0:0:0:0:
235,365,46600,2,0,P|222:310|235:263,1,80,2|0,0:0|0:0,0:0:0:0:
265,182,47000,2,0,P|220:175|169:191,1,80,2|0,0:0|0:0,0:0:0:0:
328,266,47400,2,0,P|370:276|419:264,1,80,2|0,0:0|0:0,0:0:0:0:
307,85,47800,5,2,0:0:0:0:
265,182,48000,1,2,0:0:0:0:
385,161,48200,2,0,P|410:118|388:23,1,150,4|0,0:0|0:0,0:0:0:0:
370,10,48600,2,0,B|323:-3|323:-3|276:15,1,100,8|0,0:0|0:0,0:0:0:0:
172,83,49000,1,0,0:0:0:0:
299,237,49200,1,2,0:0:0:0:
314,105,49400,5,0,0:0:0:0:
151,214,49600,1,2,0:0:0:0:
299,237,49800,1,0,0:0:0:0:
172,83,50000,1,2,0:0:0:0:
20,193,50200,2,0,P|8:241|27:300,1,100,8|0,0:0|0:0,0:0:0:0:
264,130,50600,2,0,P|276:82|257:23,1,100,2|0,0:0|0:0,0:0:0:0:
153,176,51000,5,2,0:0:0:0:
358,319,51400,1,4,0:0:0:0:
379,221,51600,1,0,0:0:0:0:
179,290,51800,1,8,0:0:0:0:
257,352,52000,1,0,0:0:0:0:
281,256,52200,1,0,0:0:0:0:
81,322,52400,1,2,0:0:0:0:
111,220,52600,6,0,P|159:197|213:207,1,100,0|2,0:0|0:0,0:0:0:0:
357,110,53000,2,0,P|306:82|253:84,1,100,0|2,0:0|0:0,0:0:0:0:
226,100,53300,1,0,0:0:0:0:
226,100,53400,2,0,L|154:96,2,50,8|0|0,0:0|0:0|0:0,0:0:0:0:
320,216,53800,2,0,B|374:233|422:192,1,100,2|0,0:0|0:0,0:0:0:0:
204,169,54200,5,2,0:0:0:0:
240,295,54400,1,2,0:0:0:0:
334,134,54600,1,4,0:0:0:0:
204,169,54800,1,0,0:0:0:0:
367,261,55000,2,0,P|414:277|472:267,1,100,8|0,0:0|0:0,0:0:0:0:
240,295,55400,1,0,0:0:0:0:
334,134,55600,1,2,0:0:0:0:
204,169,55800,6,0,P|152:177|105:167,1,100,0|2,0:0|0:0,0:0:0:0:
311,52,56200,2,0,P|357:45|410:54,1,100,0|2,0:0|0:0,0:0:0:0:
217,267,56600,2,0,P|153:279|107:261,1,100,8|0,0:0|0:0,0:0:0:0:
348,194,57000,1,2,0:0:0:0:
256,361,57200,1,0,0:0:0:0:
168,178,57400,5,2,0:0:0:0:
168,178,57800,2,0,L|270:171,1,89.9999972534181,4|0,0:0|0:0,0:0:0:0:
348,194,58200,1,8,0:0:0:0:
90,314,58600,1,0,0:0:0:0:
29,222,58800,6,0,P|17:167|27:119,1,89.9999972534181,2|0,0:0|0:0,0:0:0:0:
200,258,59200,2,0,P|138:239|110:213,1,89.9999972534181,2|0,0:0|0:0,0:0:0:0:
305,223,59600,1,2,0:0:0:0:
158,143,59800,1,8,0:0:0:0:
200,258,60000,1,0,0:0:0:0:
260,118,60200,1,2,0:0:0:0:
310,310,60400,1,0,0:0:0:0:
360,89,60600,6,0,L|357:0,1,89.9999972534181,2|2,0:0|0:0,0:0:0:0:
364,193,61000,1,4,0:0:0:0:
187,147,61400,2,0,P|244:138|278:143,1,89.9999972534181,8|0,0:0|0:0,0:0:0:0:
364,193,61800,1,0,0:0:0:0:
220,280,62000,6,0,P|170:292|126:288,1,89.9999972534181,2|0,0:0|0:0,0:0:0:0:
332,296,62400,2,0,P|301:345|246:366,1,89.9999972534181,2|0,0:0|0:0,0:0:0:0:
268,219,62800,1,2,0:0:0:0:
423,264,63000,2,0,L|516:261,1,89.9999972534181,8|0,0:0|0:0,0:0:0:0:
268,219,63400,1,2,0:0:0:0:
420,150,63600,1,0,0:0:0:0:
262,104,63800,5,0,0:0:0:0:
420,150,64200,1,0,0:0:0:0:
151,212,65000,1,0,0:0:0:0:
262,104,65400,5,0,0:0:0:0:
30,142,65800,1,0,0:0:0:0:
35,156,66000,1,0,0:0:0:0:
230,256,66400,1,0,0:0:0:0:
152,162,66600,1,0,0:0:0:0:
134,302,66800,1,0,0:0:0:0:
249,134,67000,5,2,0:0:0:0:
318,211,67200,1,2,0:0:0:0:
152,162,67400,2,0,P|140:117|154:58,1,100,4|0,0:0|0:0,0:0:0:0:
287,53,67800,1,8,0:0:0:0:
289,63,68200,1,0,0:0:0:0:
322,169,68400,6,0,L|310:276,1,100,2|0,0:0|0:0,0:0:0:0:
409,83,68800,2,0,L|425:198,1,100,2|0,0:0|0:0,0:0:0:0:
436,281,69200,1,2,0:0:0:0:
234,237,69400,2,0,P|216:190|227:139,1,100,8|0,0:0|0:0,0:0:0:0:
286,59,69800,1,2,0:0:0:0:
143,91,70000,1,0,0:0:0:0:
304,178,70200,5,2,0:0:0:0:
386,46,70600,1,4,0:0:0:0:
296,194,71000,2,0,P|287:132|297:96,1,100,8|0,0:0|0:0,0:0:0:0:
386,46,71400,1,0,0:0:0:0:
385,180,71600,6,0,L|373:285,1,100,2|0,0:0|0:0,0:0:0:0:
208,125,72000,2,0,L|219:230,1,100,2|0,0:0|0:0,0:0:0:0:
229,324,72400,1,2,0:0:0:0:
118,164,72600,2,0,P|110:116|135:63,1,100,8|0,0:0|0:0,0:0:0:0:
208,125,73000,1,2,0:0:0:0:
21,129,73200,1,0,0:0:0:0:
242,240,73400,5,2,0:0:0:0:
208,125,73600,1,2,0:0:0:0:
129,286,73800,1,4,0:0:0:0:
305,135,74200,2,0,P|251:120|203:126,1,100,8|0,0:0|0:0,0:0:0:0:
335,236,74600,1,0,0:0:0:0:
405,162,74800,6,0,P|423:116|410:58,1,100,2|0,0:0|0:0,0:0:0:0:
242,240,75200,2,0,P|224:286|237:344,1,100,2|0,0:0|0:0,0:0:0:0:
335,236,75600,1,2,0:0:0:0:
247,92,75800,2,0,B|197:82|197:82|145:106,1,100,8|0,0:0|0:0,0:0:0:0:
366,145,76200,1,0,0:0:0:0:
155,189,76400,1,0,0:0:0:0:
357,49,76600,5,0,0:0:0:0:
163,286,77000,1,0,0:0:0:0:
366,145,77800,1,0,0:0:0:0:
85,96,78200,5,0,0:0:0:0:
376,242,78600,1,0,0:0:0:0:
