osu file format v14

[General]
AudioFilename: audio.mp3
AudioLeadIn: 0
PreviewTime: 6200
Countdown: 0
SampleSet: Soft
StackLeniency: 0.7
Mode: 0
LetterboxInBreaks: 0
WidescreenStoryboard: 0

[Editor]
Bookmarks: 44600
DistanceSpacing: 1.2
BeatDivisor: 4
GridSize: 4
TimelineZoom: 1.3

[Metadata]
Title:KENDRICK LAMAR "HUMBLE" MINECRAFT PARODY
TitleUnicode:KENDRICK LAMAR "HUMBLE" MINECRAFT PARODY
Artist:Galaxy Goats
ArtistUnicode:Galaxy Goats
Creator:vanucik
Version:Chalwa's Stone
Source:
Tags:Instrumental Remake By Prince the Producer Youtube Galaxy Goat Chalwa Marvollo M_a_r_v_o_l_l_o Shmiklak armin a_r_m_i_n
BeatmapID:1361126
BeatmapSetID:641970

[Difficulty]
HPDrainRate:3
CircleSize:3.6
OverallDifficulty:3.5
ApproachRate:5
SliderMultiplier:1.23
SliderTickRate:1

[Events]
//Background and Video events
0,0,"123213123123123123123123123.jpg",0,0
Video,0,"123123.mp4"
//Break Periods
//Storyboard Layer 0 (Background)
//Storyboard Layer 1 (Fail)
//Storyboard Layer 2 (Pass)
//Storyboard Layer 3 (Foreground)
//Storyboard Sound Samples

[TimingPoints]
6200.05882352941,400,4,2,1,40,1,0
44600,-100,4,2,1,25,0,0
47800,-100,4,2,1,40,0,0

[HitObjects]
89,139,6200,6,0,P|150:153|215:133,1,123,2|4,0:0|0:0,0:0:0:0:
334,61,7000,2,0,P|395:47|460:67,1,123,8|0,0:0|0:0,0:0:0:0:
491,125,7600,1,2,0:0:0:0:
450,186,7800,2,0,B|446:205|446:205|450:258,1,61.5,0|2,0:0|0:0,0:0:0:0:
421,315,8200,2,0,B|402:319|402:319|360:315,1,61.5,0|2,0:0|0:0,0:0:0:0:
259,207,8800,2,0,B|217:203|217:203|198:207,1,61.5,0|2,0:0|0:0,0:0:0:0:
52,184,9400,6,0,P|51:154|61:122,1,61.5,2|2,0:0|0:0,0:0:0:0:
104,65,9800,2,0,P|161:82|221:62,1,123,4|8,0:0|0:0,0:0:0:0:
364,33,10600,1,0,0:0:0:0:
411,90,10800,2,0,P|430:147|413:205,1,123,2|2,0:0|0:0,0:0:0:0:
357,255,11400,2,0,L|357:320,2,61.5,0|2|10,0:0|0:0|0:0,0:0:0:0:
302,206,12000,2,0,L|302:141,1,61.5,0|2,0:0|0:0,0:0:0:0:
199,41,12600,6,0,P|140:25|81:42,2,123,2|4|8,0:0|0:0|0:0,0:0:0:0:
303,145,13800,1,0,0:0:0:0:
202,247,14200,2,0,P|143:263|84:246,1,123,0|0,0:0|0:0,0:0:0:0:
32,194,14800,2,0,P|16:135|33:76,1,123,2|0,0:0|0:0,0:0:0:0:
84,24,15400,1,2,0:0:0:0:
226,61,15800,6,0,L|312:61,1,61.5,2|2,0:0|0:0,0:0:0:0:
350,99,16200,2,0,B|412:99|412:99|472:142,2,123,4|8|0,0:0|0:0|0:0,0:0:0:0:
288,140,17200,2,0,P|292:172|284:204,1,61.5,2|0,0:0|0:0,0:0:0:0:
240,260,17600,2,0,P|208:264|176:256,1,61.5,2|0,0:0|0:0,0:0:0:0:
108,276,18000,2,0,P|104:308|112:340,2,61.5,2|8|0,0:0|0:0|0:0,0:0:0:0:
68,212,18600,1,2,0:0:0:0:
156,96,19000,6,0,P|212:80|276:96,1,123,2|4,0:0|0:0,0:0:0:0:
340,228,19800,2,0,P|284:244|220:228,1,123,8|0,0:0|0:0,0:0:0:0:
160,188,20400,2,0,P|124:184|88:192,1,61.5,2|0,0:0|0:0,0:0:0:0:
40,236,20800,2,0,P|24:200|60:124,1,123,2|2,0:0|0:0,0:0:0:0:
184,56,21600,1,0,0:0:0:0:
252,28,21800,2,0,L|328:28,1,61.5,2|0,0:0|0:0,0:0:0:0:
376,68,22200,5,2,0:0:0:0:
432,116,22400,2,0,P|448:172|424:252,1,123,2|0,0:0|0:0,0:0:0:0:
380,284,23000,2,0,B|344:276|344:276|256:288,1,123,8|0,0:0|0:0,0:0:0:0:
188,312,23600,2,0,B|152:320|152:320|64:308,2,123,2|2|2,0:0|0:0|0:0,0:0:0:0:
258,287,24600,2,0,P|266:255|258:211,1,61.5,8|0,0:0|0:0,0:0:0:0:
228,160,25000,1,2,0:0:0:0:
324,48,25400,6,0,P|364:36|464:68,2,123,2|4|8,0:0|0:0|0:0,0:0:0:0:
228,160,26600,1,0,0:0:0:0:
164,196,26800,2,0,B|124:204|124:204|36:184,2,123,2|2|2,0:0|0:0|0:0,0:0:0:0:
228,160,27800,2,0,B|248:156|248:156|296:164,1,61.5,8|0,0:0|0:0,0:0:0:0:
352,200,28200,2,0,B|372:204|372:204|412:197,1,61.5,2|0,0:0|0:0,0:0:0:0:
484,176,28600,6,0,L|500:312,2,123,2|4|8,0:0|0:0|0:0,0:0:0:0:
376,76,29800,1,0,0:0:0:0:
312,116,30000,2,0,P|244:132|184:108,1,123,2|2,0:0|0:0,0:0:0:0:
60,52,30800,1,2,0:0:0:0:
84,120,31000,2,0,P|93:160|79:196,1,61.5,8|0,0:0|0:0,0:0:0:0:
64,248,31400,1,2,0:0:0:0:
164,356,31800,6,0,L|300:344,1,123,2|4,0:0|0:0,0:0:0:0:
392,240,32600,1,8,0:0:0:0:
268,164,33000,1,0,0:0:0:0:
200,196,33200,2,0,L|128:204,1,61.5,2|0,0:0|0:0,0:0:0:0:
68,184,33600,1,2,0:0:0:0:
48,256,33800,2,0,P|44:292|56:328,1,61.5,0|2,0:0|0:0,0:0:0:0:
100,372,34200,1,8,0:0:0:0:
152,320,34400,2,0,L|213:313,1,61.5,0|2,0:0|0:0,0:0:0:0:
344,244,35000,6,0,P|352:184|328:124,1,123,2|4,0:0|0:0,0:0:0:0:
192,80,35800,2,0,P|184:140|208:200,1,123,8|0,0:0|0:0,0:0:0:0:
236,264,36400,1,2,0:0:0:0:
300,224,36600,6,0,P|356:202|417:210,1,123,0|0,0:0|0:0,0:0:0:0:
420,284,37200,2,0,P|363:305|302:297,1,123,2|0,0:0|0:0,0:0:0:0:
236,264,37800,2,0,P|175:256|118:277,1,123,2|2,0:0|0:0,0:0:0:0:
12,380,38600,5,4,0:0:0:0:
48,236,39000,2,0,P|52:196|48:164,1,61.5,8|0,0:0|0:0,0:0:0:0:
44,100,39400,1,0,0:0:0:0:
116,120,39600,6,0,B|152:124|152:124|244:80,1,123,2|2,0:0|0:0,0:0:0:0:
296,48,40200,2,0,L|372:44,1,61.5,0|2,0:0|0:0,0:0:0:0:
460,152,40800,1,0,0:0:0:0:
404,200,41000,2,0,L|328:204,1,61.5,2|0,0:0|0:0,0:0:0:0:
284,248,41400,6,0,L|152:256,1,123,2|4,0:0|0:0,0:0:0:0:
40,172,42200,2,0,L|104:168,1,61.5,8|0,0:0|0:0,0:0:0:0:
156,120,42600,2,0,L|220:116,1,61.5,0|2,0:0|0:0,0:0:0:0:
288,148,43000,6,0,B|356:144|356:144|404:192,1,123,0|0,0:0|0:0,0:0:0:0:
404,256,43600,2,0,B|365:294|365:294|297:290,1,123,2|0,0:0|0:0,0:0:0:0:
232,256,44200,2,0,L|160:248,1,61.5,2|0,0:0|0:0,0:0:0:0:
112,204,44600,5,2,0:0:0:0:
328,252,47800,6,0,B|356:248|356:248|420:264|420:264|456:260,2,123,2|4|8,0:0|0:0|0:0,0:0:0:0:
188,296,49000,2,0,P|156:300|120:292,1,61.5,0|2,0:0|0:0,0:0:0:0:
80,236,49400,2,0,P|108:184|92:112,1,123,0|0,0:0|0:0,0:0:0:0:
68,56,50000,2,0,P|98:50|128:54,1,61.5,2|8,0:0|0:0,0:0:0:0:
196,84,50400,2,0,P|226:89|256:85,1,61.5,0|2,0:0|0:0,0:0:0:0:
392,24,51000,5,2,0:0:0:0:
340,160,51400,1,4,0:0:0:0:
228,256,51800,2,0,L|228:332,2,61.5,8|0|0,0:0|0:0|0:0,0:0:0:0:
176,204,52400,1,2,0:0:0:0:
116,248,52600,5,0,0:0:0:0:
80,104,53000,2,0,P|112:96|148:104,1,61.5,0|2,0:0|0:0,0:0:0:0:
212,124,53400,1,8,0:0:0:0:
284,148,53600,2,0,P|314:153|344:149,1,61.5,0|2,0:0|0:0,0:0:0:0:
488,120,54200,6,0,B|496:148|496:148|492:256,2,123,2|4|8,0:0|0:0|0:0,0:0:0:0:
368,36,55400,2,0,L|280:32,1,61.5,0|2,0:0|0:0,0:0:0:0:
240,64,55800,6,0,B|232:92|232:92|236:200,1,123,0|0,0:0|0:0,0:0:0:0:
220,260,56400,2,0,P|164:284|84:252,1,123,2|0,0:0|0:0,0:0:0:0:
44,228,57000,1,2,0:0:0:0:
84,164,57200,2,0,L|92:88,1,61.5,0|2,0:0|0:0,0:0:0:0:
216,24,57800,5,4,0:0:0:0:
324,124,58200,1,8,0:0:0:0:
196,200,58600,2,0,P|188:236|196:276,1,61.5,0|2,0:0|0:0,0:0:0:0:
232,328,59000,6,0,B|260:320|260:320|324:320|324:320|360:312,1,123,0|0,0:0|0:0,0:0:0:0:
416,272,59600,2,0,P|400:216|424:152,1,123,2|0,0:0|0:0,0:0:0:0:
472,104,60200,1,2,0:0:0:0:
408,64,60400,2,0,L|340:56,1,61.5,0|2,0:0|0:0,0:0:0:0:
204,16,61000,5,4,0:0:0:0:
156,156,61400,1,8,0:0:0:0:
292,216,61800,2,0,L|353:223,1,61.5,0|2,0:0|0:0,0:0:0:0:
424,200,62200,6,0,P|456:164|440:80,1,123,0|0,0:0|0:0,0:0:0:0:
396,40,62800,2,0,P|336:49|289:13,1,123,2|0,0:0|0:0,0:0:0:0:
216,8,63400,1,2,0:0:0:0:
160,56,63600,2,0,L|156:120,1,61.5,0|0,0:0|0:0,0:0:0:0:
240,240,64200,6,0,B|272:256|272:256|304:236|304:236|344:208|392:216|432:260|420:316,1,246,0|0,0:0|0:0,0:0:0:0:
280,348,65400,2,0,L|148:284,1,123,0|0,0:0|0:0,0:0:0:0:
108,252,66000,2,0,P|88:212|108:132,1,123,0|0,0:0|0:0,0:0:0:0:
156,84,66600,1,0,0:0:0:0:
292,24,67000,5,2,0:0:0:0:
344,77,67200,2,0,P|361:134|339:191,1,123,2|0,0:0|0:0,0:0:0:0:
276,232,67800,1,8,0:0:0:0:
128,212,68200,1,0,0:0:0:0:
60,240,68400,1,2,0:0:0:0:
12,184,68600,6,0,B|4:168|4:168|32:64,1,123,0|0,0:0|0:0,0:0:0:0:
84,16,69200,2,0,P|148:36|208:16,1,123,2|0,0:0|0:0,0:0:0:0:
272,32,69800,1,2,0:0:0:0:
252,104,70000,2,0,L|256:172,1,61.5,0|2,0:0|0:0,0:0:0:0:
284,312,70600,5,4,0:0:0:0:
140,336,71000,1,8,0:0:0:0:
116,192,71400,1,0,0:0:0:0:
68,136,71600,1,2,0:0:0:0:
104,72,71800,6,0,B|104:52|104:52|152:64|212:44,1,123,0|0,0:0|0:0,0:0:0:0:
280,32,72400,2,0,P|340:32|392:68,1,123,2|0,0:0|0:0,0:0:0:0:
432,128,73000,1,2,0:0:0:0:
404,196,73200,2,0,B|400:216|400:216|404:276,1,61.5,0|2,0:0|0:0,0:0:0:0:
372,324,73600,5,2,0:0:0:0:
304,292,73800,2,0,B|288:284|288:284|184:308,1,123,4|8,0:0|0:0,0:0:0:0:
40,280,74600,2,0,P|36:248|44:212,1,61.5,0|2,0:0|0:0,0:0:0:0:
88,160,75000,6,0,P|118:165|148:161,1,61.5,0|2,0:0|0:0,0:0:0:0:
216,132,75400,2,0,B|246:126|246:126|276:130,1,61.5,0|2,0:0|0:0,0:0:0:0:
380,236,76000,1,0,0:0:0:0:
336,296,76200,2,0,L|336:364,2,61.5,0|0|0,0:0|0:0|0:0,0:0:0:0:
204,228,77000,6,0,B|204:160|204:160|252:120|240:56|200:28|160:28|112:40|88:72|92:132|136:152,1,369,0|0,0:0|0:0,0:0:0:0:
124,292,78600,1,0,0:0:0:0:
