osu file format v14

[General]
AudioFilename: audio.mp3
AudioLeadIn: 0
PreviewTime: 6200
Countdown: 0
SampleSet: Soft
StackLeniency: 0.7
Mode: 0
LetterboxInBreaks: 0
WidescreenStoryboard: 0

[Editor]
DistanceSpacing: 1.3
BeatDivisor: 4
GridSize: 4
TimelineZoom: 1.3

[Metadata]
Title:KENDRICK LAMAR "HUMBLE" MINECRAFT PARODY
TitleUnicode:KENDRICK LAMAR "HUMBLE" MINECRAFT PARODY
Artist:Galaxy Goats
ArtistUnicode:Galaxy Goats
Creator:vanucik
Version:Gold
Source:
Tags:Instrumental Remake By Prince the Producer Youtube Galaxy Goat Chalwa Marvollo M_a_r_v_o_l_l_o Shmiklak armin a_r_m_i_n
BeatmapID:1361129
BeatmapSetID:641970

[Difficulty]
HPDrainRate:5
CircleSize:4
OverallDifficulty:7
ApproachRate:8
SliderMultiplier:1.6
SliderTickRate:1

[Events]
//Background and Video events
0,0,"123213123123123123123123123.jpg",0,0
Video,54,"123123.mp4"
//Break Periods
//Storyboard Layer 0 (Background)
//Storyboard Layer 1 (Fail)
//Storyboard Layer 2 (Pass)
//Storyboard Layer 3 (Foreground)
//Storyboard Sound Samples

[TimingPoints]
6200.05882352941,400,4,2,1,40,1,0
44600,-125,4,2,1,25,0,0
47800,-100,4,2,1,40,0,0
57400,-111.111111111111,4,2,1,40,0,0
63800,-125,4,2,1,40,0,0
67000,-100,4,2,1,40,0,0

[HitObjects]
138,177,6200,6,0,P|134:125|129:90,1,80,2|0,0:0|0:0,0:0:0:0:
227,135,6600,2,0,P|231:96|241:45,1,80,4|0,0:0|0:0,0:0:0:0:
330,105,7000,1,8,0:0:0:0:
409,172,7200,1,0,0:0:0:0:
436,71,7400,1,0,0:0:0:0:
330,105,7600,1,2,0:0:0:0:
311,207,7800,6,0,P|253:219|214:213,1,80,0|2,0:0|0:0,0:0:0:0:
142,163,8200,1,0,0:0:0:0:
142,163,8400,1,2,0:0:0:0:
251,78,8600,1,8,0:0:0:0:
157,33,8800,1,0,0:0:0:0:
142,163,9000,1,2,0:0:0:0:
230,217,9200,1,0,0:0:0:0:
324,174,9400,6,0,P|338:136|333:88,1,80,2|2,0:0|0:0,0:0:0:0:
425,148,9800,1,4,0:0:0:0:
425,148,10000,1,0,0:0:0:0:
395,247,10200,2,0,P|344:268|306:267,1,80,8|0,0:0|0:0,0:0:0:0:
222,231,10600,1,0,0:0:0:0:
249,331,10800,1,2,0:0:0:0:
156,311,11000,6,0,P|107:315|70:312,1,80,0|2,0:0|0:0,0:0:0:0:
39,215,11400,2,0,P|78:212|118:216,1,80,0|2,0:0|0:0,0:0:0:0:
193,131,11800,1,10,0:0:0:0:
294,153,12000,1,0,0:0:0:0:
252,50,12200,1,2,0:0:0:0:
131,50,12400,1,0,0:0:0:0:
80,157,12600,6,0,P|73:205|74:250,1,80,2|0,0:0|0:0,0:0:0:0:
193,131,13000,2,0,P|201:184|198:218,1,80,4|0,0:0|0:0,0:0:0:0:
146,341,13400,1,8,0:0:0:0:
227,276,13600,1,0,0:0:0:0:
306,342,13800,2,0,P|357:351|402:349,1,80,0|2,0:0|0:0,0:0:0:0:
225,261,14200,6,0,P|174:252|129:254,1,80,0|2,0:0|0:0,0:0:0:0:
42,269,14600,1,0,0:0:0:0:
58,147,14800,1,2,0:0:0:0:
145,252,15000,1,8,0:0:0:0:
214,175,15200,1,0,0:0:0:0:
259,268,15400,2,0,P|293:281|344:286,1,80,2|0,0:0|0:0,0:0:0:0:
399,203,15800,5,2,0:0:0:0:
322,132,16000,1,2,0:0:0:0:
420,99,16200,1,4,0:0:0:0:
266,239,16600,2,0,P|210:247|179:243,1,80,8|0,0:0|0:0,0:0:0:0:
96,193,17000,1,0,0:0:0:0:
148,102,17200,1,2,0:0:0:0:
237,155,17400,5,0,0:0:0:0:
87,205,17600,1,2,0:0:0:0:
148,102,17800,2,0,P|157:64|148:17,1,80,0|2,0:0|0:0,0:0:0:0:
79,216,18200,2,0,P|70:254|79:301,1,80,8|0,0:0|0:0,0:0:0:0:
177,321,18600,1,2,0:0:0:0:
253,250,18800,1,0,0:0:0:0:
351,282,19000,5,2,0:0:0:0:
330,179,19200,1,0,0:0:0:0:
253,250,19400,1,4,0:0:0:0:
434,210,19800,2,0,P|427:137|381:89,1,120,8|0,0:0|0:0,0:0:0:0:
374,86,20200,2,0,L|282:94,1,80,0|2,0:0|0:0,0:0:0:0:
228,173,20600,6,0,P|189:195|145:195,1,80,0|2,0:0|0:0,0:0:0:0:
130,191,20900,1,0,0:0:0:0:
106,182,21000,2,0,L|112:276,1,80,0|2,0:0|0:0,0:0:0:0:
162,96,21400,1,8,0:0:0:0:
58,90,21600,1,0,0:0:0:0:
106,182,21800,1,2,0:0:0:0:
209,189,22000,1,0,0:0:0:0:
277,110,22200,6,0,P|285:65|280:25,1,80,2|2,0:0|0:0,0:0:0:0:
209,189,22600,1,4,0:0:0:0:
396,279,23000,2,0,P|419:226|423:186,1,80,8|0,0:0|0:0,0:0:0:0:
364,117,23400,1,0,0:0:0:0:
275,61,23600,1,2,0:0:0:0:
222,150,23800,5,0,0:0:0:0:
309,205,24000,1,2,0:0:0:0:
364,117,24200,2,0,P|404:104|444:102,1,80,0|2,0:0|0:0,0:0:0:0:
222,150,24600,2,0,P|182:163|142:165,1,80,8|0,0:0|0:0,0:0:0:0:
43,137,25000,1,2,0:0:0:0:
130,81,25200,1,0,0:0:0:0:
222,150,25400,6,0,L|217:240,1,80,2|0,0:0|0:0,0:0:0:0:
212,333,25800,1,4,0:0:0:0:
377,207,26200,2,0,P|375:153|365:117,1,80,8|0,0:0|0:0,0:0:0:0:
293,55,26600,1,0,0:0:0:0:
226,134,26800,1,2,0:0:0:0:
134,85,27000,6,0,P|133:46|145:5,1,80,0|2,0:0|0:0,0:0:0:0:
226,134,27400,2,0,P|227:173|215:214,1,80,0|2,0:0|0:0,0:0:0:0:
113,297,27800,1,8,0:0:0:0:
113,297,28000,1,0,0:0:0:0:
194,361,28200,2,0,L|285:355,1,80,2|0,0:0|0:0,0:0:0:0:
352,286,28600,5,2,0:0:0:0:
295,198,28800,1,2,0:0:0:0:
225,274,29000,1,4,0:0:0:0:
84,120,29400,2,0,P|129:106|168:104,1,80,8|0,0:0|0:0,0:0:0:0:
265,110,29800,1,0,0:0:0:0:
204,194,30000,1,2,0:0:0:0:
263,279,30200,6,0,P|317:292|359:284,1,80,0|2,0:0|0:0,0:0:0:0:
440,257,30600,1,0,0:0:0:0:
399,352,30800,1,2,0:0:0:0:
342,210,31000,2,0,P|337:157|349:116,1,80,8|0,0:0|0:0,0:0:0:0:
398,42,31400,1,2,0:0:0:0:
398,42,31600,1,0,0:0:0:0:
283,78,31800,6,0,P|219:88|184:86,1,80,2|0,0:0|0:0,0:0:0:0:
101,66,32200,1,4,0:0:0:0:
164,263,32600,2,0,P|210:270|248:268,1,80,8|0,0:0|0:0,0:0:0:0:
332,214,33000,1,0,0:0:0:0:
396,295,33200,1,2,0:0:0:0:
464,216,33400,6,0,P|473:163|474:132,1,80,0|2,0:0|0:0,0:0:0:0:
396,295,33800,2,0,P|387:348|386:379,1,80,0|2,0:0|0:0,0:0:0:0:
332,214,34200,1,8,0:0:0:0:
252,280,34400,1,0,0:0:0:0:
197,191,34600,1,2,0:0:0:0:
136,316,34800,1,0,0:0:0:0:
252,280,35000,6,0,P|305:273|343:274,1,80,2|2,0:0|0:0,0:0:0:0:
109,228,35400,1,4,0:0:0:0:
310,177,35800,2,0,P|363:178|401:182,1,80,8|0,0:0|0:0,0:0:0:0:
473,242,36200,1,0,0:0:0:0:
482,138,36400,1,2,0:0:0:0:
388,262,36600,6,0,P|378:317|376:349,1,80,0|2,0:0|0:0,0:0:0:0:
482,138,37000,2,0,P|492:83|494:51,1,80,0|2,0:0|0:0,0:0:0:0:
400,12,37400,1,8,0:0:0:0:
349,102,37600,1,0,0:0:0:0:
248,75,37800,1,2,0:0:0:0:
226,176,38000,1,0,0:0:0:0:
129,215,38200,6,0,P|85:211|46:199,1,80,2|0,0:0|0:0,0:0:0:0:
213,279,38600,1,4,0:0:0:0:
216,71,39000,1,8,0:0:0:0:
216,71,39200,1,0,0:0:0:0:
298,134,39400,2,0,P|353:145|384:146,1,80,0|2,0:0|0:0,0:0:0:0:
348,246,39800,5,0,0:0:0:0:
247,219,40000,1,2,0:0:0:0:
203,313,40200,2,0,P|149:309|107:312,1,80,0|2,0:0|0:0,0:0:0:0:
302,350,40600,2,0,P|341:351|381:347,1,80,8|0,0:0|0:0,0:0:0:0:
464,284,41000,1,2,0:0:0:0:
453,180,41200,1,0,0:0:0:0:
453,180,41300,1,0,0:0:0:0:
453,180,41400,6,0,P|410:156|379:149,1,80,2|2,0:0|0:0,0:0:0:0:
452,73,41800,1,4,0:0:0:0:
360,259,42200,2,0,P|301:268|268:268,1,80,8|0,0:0|0:0,0:0:0:0:
179,243,42600,1,0,0:0:0:0:
260,178,42800,1,2,0:0:0:0:
260,178,42900,1,0,0:0:0:0:
260,178,43000,6,0,P|269:124|263:92,1,80,0|2,0:0|0:0,0:0:0:0:
186,31,43400,1,0,0:0:0:0:
131,119,43600,1,2,0:0:0:0:
265,99,43800,2,0,P|308:92|358:92,1,80,8|0,0:0|0:0,0:0:0:0:
131,119,44200,2,0,P|91:117|51:111,1,80,2|0,0:0|0:0,0:0:0:0:
209,190,44600,5,2,0:0:0:0:
361,255,45000,1,0,0:0:0:0:
324,180,45200,1,2,0:0:0:0:
278,249,45400,2,0,P|270:296|273:326,1,64,0|0,0:0|0:0,0:0:0:0:
192,283,45800,2,0,P|174:323|172:351,1,64,2|0,0:0|0:0,0:0:0:0:
127,207,46200,6,0,P|93:209|52:227,1,64,2|0,0:0|0:0,0:0:0:0:
219,182,46600,2,0,P|239:162|260:124,1,64,2|0,0:0|0:0,0:0:0:0:
145,49,47000,2,0,P|146:91|157:130,1,64,2|0,0:0|0:0,0:0:0:0:
255,44,47400,1,2,0:0:0:0:
382,208,47800,6,0,P|371:256|353:294,1,80,2|2,0:0|0:0,0:0:0:0:
267,334,48200,1,4,0:0:0:0:
310,130,48600,2,0,P|360:118|395:117,1,80,8|0,0:0|0:0,0:0:0:0:
246,218,49000,1,0,0:0:0:0:
200,124,49200,1,2,0:0:0:0:
115,184,49400,6,0,P|65:194|31:193,1,80,0|2,0:0|0:0,0:0:0:0:
200,124,49800,2,0,P|239:124|278:133,1,80,0|2,0:0|0:0,0:0:0:0:
194,267,50200,1,8,0:0:0:0:
99,310,50400,1,0,0:0:0:0:
185,367,50600,2,0,P|239:373|281:368,1,80,2|0,0:0|0:0,0:0:0:0:
353,316,51000,5,2,0:0:0:0:
235,144,51400,1,4,0:0:0:0:
238,247,51600,1,0,0:0:0:0:
327,194,51800,2,0,P|374:188|414:189,1,80,8|0,0:0|0:0,0:0:0:0:
235,144,52200,1,0,0:0:0:0:
146,197,52400,1,2,0:0:0:0:
238,247,52600,6,0,P|251:298|250:341,1,80,0|2,0:0|0:0,0:0:0:0:
347,282,53000,1,0,0:0:0:0:
331,179,53200,1,2,0:0:0:0:
331,179,53300,1,0,0:0:0:0:
331,179,53400,2,0,L|262:164,2,40,8|0|0,0:0|0:0|0:0,0:0:0:0:
373,84,53800,2,0,P|422:74|452:76,1,80,2|0,0:0|0:0,0:0:0:0:
267,90,54200,5,2,0:0:0:0:
191,18,54400,1,2,0:0:0:0:
166,119,54600,2,0,P|168:167|172:204,1,80,4|0,0:0|0:0,0:0:0:0:
267,90,55000,2,0,P|273:47|273:4,1,80,8|0,0:0|0:0,0:0:0:0:
84,56,55400,2,0,P|84:95|90:135,1,80,0|2,0:0|0:0,0:0:0:0:
148,222,55800,6,0,P|189:215|235:210,1,80,0|2,0:0|0:0,0:0:0:0:
320,303,56200,2,0,P|270:294|218:291,1,80,0|2,0:0|0:0,0:0:0:0:
330,196,56600,1,8,0:0:0:0:
330,196,56800,1,0,0:0:0:0:
320,303,57000,1,2,0:0:0:0:
212,293,57200,1,0,0:0:0:0:
222,184,57400,5,2,0:0:0:0:
224,193,57800,1,4,0:0:0:0:
288,125,58000,1,0,0:0:0:0:
317,213,58200,1,8,0:0:0:0:
189,102,58600,1,0,0:0:0:0:
123,168,58800,6,0,P|101:128|100:90,1,71.9999978027344,2|0,0:0|0:0,0:0:0:0:
142,255,59200,2,0,P|87:249|57:225,1,71.9999978027344,2|0,0:0|0:0,0:0:0:0:
210,196,59600,1,2,0:0:0:0:
289,266,59800,2,0,P|297:315|296:344,1,71.9999978027344,8|0,0:0|0:0,0:0:0:0:
210,196,60200,1,2,0:0:0:0:
288,145,60400,1,0,0:0:0:0:
366,195,60600,6,0,P|383:235|390:267,1,71.9999978027344,2|2,0:0|0:0,0:0:0:0:
289,266,61000,1,4,0:0:0:0:
374,101,61400,2,0,P|421:101|458:108,1,71.9999978027344,8|0,0:0|0:0,0:0:0:0:
288,145,61800,1,0,0:0:0:0:
342,221,62000,6,0,P|401:223|431:216,1,71.9999978027344,2|0,0:0|0:0,0:0:0:0:
288,145,62400,2,0,P|229:143|199:150,1,71.9999978027344,2|0,0:0|0:0,0:0:0:0:
131,183,62800,1,2,0:0:0:0:
183,274,63000,2,0,P|223:284|258:286,1,71.9999978027344,8|0,0:0|0:0,0:0:0:0:
341,252,63400,1,2,0:0:0:0:
402,322,63600,1,0,0:0:0:0:
315,337,63800,5,0,0:0:0:0:
312,327,64200,1,0,0:0:0:0:
288,20,65000,1,0,0:0:0:0:
381,142,65400,5,0,0:0:0:0:
228,163,65800,2,0,P|187:162|144:169,1,64,0|0,0:0|0:0,0:0:0:0:
152,318,66400,1,0,0:0:0:0:
221,285,66600,2,0,P|264:275|286:273,1,64,0|0,0:0|0:0,0:0:0:0:
380,276,67000,5,2,0:0:0:0:
362,173,67200,1,2,0:0:0:0:
260,151,67400,1,4,0:0:0:0:
380,276,67800,2,0,P|432:276|466:265,1,80,8|0,0:0|0:0,0:0:0:0:
288,338,68200,1,0,0:0:0:0:
270,229,68400,6,0,P|261:191|260:146,1,80,2|0,0:0|0:0,0:0:0:0:
380,276,68800,2,0,P|378:315|369:354,1,80,2|0,0:0|0:0,0:0:0:0:
467,318,69200,1,2,0:0:0:0:
414,192,69400,2,0,P|363:179|325:176,1,80,8|0,0:0|0:0,0:0:0:0:
255,242,69800,1,2,0:0:0:0:
177,173,70000,1,0,0:0:0:0:
242,92,70200,6,0,P|290:83|332:80,1,80,2|0,0:0|0:0,0:0:0:0:
159,39,70600,1,4,0:0:0:0:
326,162,71000,2,0,P|379:170|415:167,1,80,8|0,0:0|0:0,0:0:0:0:
505,140,71400,1,0,0:0:0:0:
461,234,71600,6,0,P|410:249|378:250,1,80,2|0,0:0|0:0,0:0:0:0:
288,292,72000,2,0,P|236:282|203:263,1,80,2|0,0:0|0:0,0:0:0:0:
178,171,72400,1,2,0:0:0:0:
292,184,72600,2,0,P|334:186|378:174,1,80,8|0,0:0|0:0,0:0:0:0:
402,78,73000,1,2,0:0:0:0:
319,15,73200,1,0,0:0:0:0:
233,74,73400,6,0,P|186:81|149:82,1,80,2|2,0:0|0:0,0:0:0:0:
51,61,73800,1,4,0:0:0:0:
192,213,74200,2,0,P|239:224|280:225,1,80,8|0,0:0|0:0,0:0:0:0:
362,176,74600,1,0,0:0:0:0:
394,274,74800,6,0,L|390:356,1,80,2|0,0:0|0:0,0:0:0:0:
362,176,75200,2,0,L|366:94,1,80,2|0,0:0|0:0,0:0:0:0:
448,200,75600,1,2,0:0:0:0:
308,249,75800,2,0,P|255:253|210:248,1,80,8|0,0:0|0:0,0:0:0:0:
137,199,76200,1,0,0:0:0:0:
183,105,76400,1,0,0:0:0:0:
280,140,76600,5,0,0:0:0:0:
137,199,77000,1,0,0:0:0:0:
432,76,77800,1,0,0:0:0:0:
277,33,78200,5,0,0:0:0:0:
311,189,78600,1,0,0:0:0:0:
