osu file format v14

[General]
AudioFilename: audio.mp3
AudioLeadIn: 0
PreviewTime: 6200
Countdown: 0
SampleSet: Soft
StackLeniency: 0.7
Mode: 0
LetterboxInBreaks: 0
WidescreenStoryboard: 0

[Editor]
DistanceSpacing: 0.9
BeatDivisor: 4
GridSize: 16
TimelineZoom: 1.3

[Metadata]
Title:KENDRICK LAMAR "HUMBLE" MINECRAFT PARODY
TitleUnicode:KENDRICK LAMAR "HUMBLE" MINECRAFT PARODY
Artist:Galaxy Goats
ArtistUnicode:Galaxy Goats
Creator:vanucik
Version:Diamond
Source:
Tags:Instrumental Remake By Prince the Producer Youtube Galaxy Goat Chalwa Marvollo M_a_r_v_o_l_l_o Shmiklak armin a_r_m_i_n
BeatmapID:1361127
BeatmapSetID:641970

[Difficulty]
HPDrainRate:6.1
CircleSize:3.5
OverallDifficulty:8.2
ApproachRate:9
SliderMultiplier:2.2
SliderTickRate:1

[Events]
//Background and Video events
0,0,"123213123123123123123123123.jpg",0,0
Video,54,"123123.mp4"
//Break Periods
//Storyboard Layer 0 (Background)
//Storyboard Layer 1 (Fail)
//Storyboard Layer 2 (Pass)
//Storyboard Layer 3 (Foreground)
//Storyboard Sound Samples

[TimingPoints]
6200.05882352941,400,4,2,1,40,1,0
19800,-66.6666666666667,4,2,1,40,0,0
20600,-100,4,2,1,40,0,0
44600,-200,4,2,1,25,0,0
47800,-100,4,2,1,40,0,0
57400,-125,4,2,1,40,0,0
63800,-142.857142857143,4,2,1,40,0,0
67000,-125,4,2,1,40,0,0

[HitObjects]
195,105,6200,6,0,P|149:70|88:56,1,110,2|0,0:0|0:0,0:0:0:0:
172,209,6600,2,0,P|242:203|293:113,1,165,4|0,0:0|0:0,0:0:0:0:
293,100,7000,5,8,0:0:0:0:
374,222,7200,1,0,0:0:0:0:
286,77,7400,1,0,0:0:0:0:
370,243,7600,1,2,0:0:0:0:
442,60,7800,5,0,0:0:0:0:
213,169,8000,1,2,0:0:0:0:
480,228,8200,1,0,0:0:0:0:
244,340,8400,1,2,0:0:0:0:
311,53,8600,5,8,0:0:0:0:
312,245,8800,1,0,0:0:0:0:
303,41,9000,1,2,0:0:0:0:
318,258,9200,1,0,0:0:0:0:
150,97,9400,5,2,0:0:0:0:
393,143,9600,1,2,0:0:0:0:
158,247,9800,1,4,0:0:0:0:
408,136,10000,1,0,0:0:0:0:
261,54,10200,5,8,0:0:0:0:
285,303,10400,1,0,0:0:0:0:
422,131,10600,1,0,0:0:0:0:
132,190,10800,1,2,0:0:0:0:
443,285,11000,5,0,0:0:0:0:
379,39,11200,1,2,0:0:0:0:
310,325,11400,1,0,0:0:0:0:
260,55,11600,1,2,0:0:0:0:
165,322,11800,1,10,0:0:0:0:
140,40,12000,1,0,0:0:0:0:
39,332,12200,1,2,0:0:0:0:
26,37,12400,1,0,0:0:0:0:
273,178,12600,5,2,0:0:0:0:
110,194,12800,1,0,0:0:0:0:
282,162,13000,1,4,0:0:0:0:
212,337,13200,1,0,0:0:0:0:
179,92,13400,5,8,0:0:0:0:
263,41,13600,1,0,0:0:0:0:
359,63,13800,1,0,0:0:0:0:
407,149,14000,1,2,0:0:0:0:
128,289,14200,5,0,0:0:0:0:
278,127,14400,1,2,0:0:0:0:
308,354,14600,1,0,0:0:0:0:
284,112,14800,1,2,0:0:0:0:
136,307,15000,5,8,0:0:0:0:
315,368,15200,1,0,0:0:0:0:
286,94,15400,1,2,0:0:0:0:
125,314,15600,1,0,0:0:0:0:
415,216,15800,5,2,0:0:0:0:
126,141,16000,1,2,0:0:0:0:
418,232,16200,2,0,P|452:174|377:91,1,165,4|0,0:0|0:0,0:0:0:0:
372,92,16600,5,8,0:0:0:0:
292,228,16800,1,0,0:0:0:0:
495,288,17000,1,0,0:0:0:0:
371,71,17200,1,2,0:0:0:0:
216,310,17400,5,0,0:0:0:0:
252,51,17600,1,2,0:0:0:0:
105,279,17800,1,0,0:0:0:0:
144,30,18000,1,2,0:0:0:0:
358,296,18200,5,8,0:0:0:0:
360,32,18400,1,0,0:0:0:0:
470,293,18600,1,2,0:0:0:0:
498,17,18800,1,0,0:0:0:0:
261,164,19000,5,2,0:0:0:0:
487,142,19200,1,0,0:0:0:0:
257,186,19400,2,0,P|194:177|148:89,1,165,4|0,0:0|0:0,0:0:0:0:
147,67,19800,6,0,B|156:155|156:155|117:202|117:202|126:305,1,247.500009441376,8|0,0:0|0:0,0:0:0:0:
129,329,20200,1,0,0:0:0:0:
303,290,20400,1,2,0:0:0:0:
28,257,20600,6,0,P|6:182|30:124,1,110,0|2,0:0|0:0,0:0:0:0:
28,126,20900,1,0,0:0:0:0:
28,126,21000,1,0,0:0:0:0:
131,209,21200,1,2,0:0:0:0:
313,118,21400,6,0,P|322:61|300:6,1,110,8|0,0:0|0:0,0:0:0:0:
226,279,21800,1,2,0:0:0:0:
409,354,22000,1,0,0:0:0:0:
313,118,22200,6,0,P|255:93|206:95,1,110,2|2,0:0|0:0,0:0:0:0:
52,324,22600,2,0,P|112:283|205:296,1,165,4|0,0:0|0:0,0:0:0:0:
228,313,23000,5,8,0:0:0:0:
128,127,23200,1,0,0:0:0:0:
52,324,23400,1,0,0:0:0:0:
118,109,23600,1,2,0:0:0:0:
336,207,23800,6,0,P|374:211|445:181,1,110,0|2,0:0|0:0,0:0:0:0:
231,95,24200,1,0,0:0:0:0:
257,298,24400,1,2,0:0:0:0:
349,68,24600,5,8,0:0:0:0:
111,44,24800,1,0,0:0:0:0:
377,193,25000,1,2,0:0:0:0:
129,169,25200,1,0,0:0:0:0:
134,357,25400,6,0,P|195:374|273:310,1,165,2|0,0:0|0:0,0:0:0:0:
275,293,25800,2,0,B|278:267|274:247|274:247|301:310|372:305,1,165,4|0,0:0|0:0,0:0:0:0:
404,303,26200,5,8,0:0:0:0:
313,155,26400,1,0,0:0:0:0:
182,264,26600,1,0,0:0:0:0:
413,207,26800,1,2,0:0:0:0:
181,85,27000,5,0,0:0:0:0:
87,307,27200,1,2,0:0:0:0:
266,99,27400,1,0,0:0:0:0:
264,355,27600,1,2,0:0:0:0:
351,83,27800,5,8,0:0:0:0:
439,288,28000,1,0,0:0:0:0:
423,26,28200,1,2,0:0:0:0:
303,262,28400,1,0,0:0:0:0:
201,73,28600,6,0,P|149:57|78:59,1,110,2|2,0:0|0:0,0:0:0:0:
23,232,29000,2,0,P|68:190|168:197,1,165,4|0,0:0|0:0,0:0:0:0:
193,218,29400,5,8,0:0:0:0:
113,286,29600,1,0,0:0:0:0:
94,98,29800,1,0,0:0:0:0:
267,169,30000,1,2,0:0:0:0:
113,286,30200,6,0,P|68:294|4:284,1,110,0|2,0:0|0:0,0:0:0:0:
191,108,30600,1,0,0:0:0:0:
230,343,30800,1,2,0:0:0:0:
302,44,31000,5,8,0:0:0:0:
319,277,31200,1,0,0:0:0:0:
441,42,31400,1,2,0:0:0:0:
420,265,31600,1,0,0:0:0:0:
190,178,31800,6,0,P|162:113|211:30,1,165,2|0,0:0|0:0,0:0:0:0:
225,28,32200,2,0,B|271:58|271:58|247:117|290:163,1,165,4|0,0:0|0:0,0:0:0:0:
307,182,32600,5,8,0:0:0:0:
375,51,32800,1,0,0:0:0:0:
110,139,33000,1,0,0:0:0:0:
367,263,33200,1,2,0:0:0:0:
210,73,33400,5,0,0:0:0:0:
180,320,33600,1,2,0:0:0:0:
211,58,33800,1,0,0:0:0:0:
439,180,34000,1,2,0:0:0:0:
107,152,34200,5,8,0:0:0:0:
376,277,34400,1,0,0:0:0:0:
213,41,34600,1,2,0:0:0:0:
459,59,34800,1,0,0:0:0:0:
144,240,35000,6,0,P|80:239|30:220,1,110,2|2,0:0|0:0,0:0:0:0:
242,164,35400,2,0,P|266:213|226:328,1,165,4|0,0:0|0:0,0:0:0:0:
212,335,35800,5,8,0:0:0:0:
141,153,36000,1,0,0:0:0:0:
350,195,36200,1,0,0:0:0:0:
255,24,36400,1,2,0:0:0:0:
116,242,36600,5,0,0:0:0:0:
362,100,36800,1,2,0:0:0:0:
203,304,37000,1,0,0:0:0:0:
446,230,37200,1,2,0:0:0:0:
190,158,37400,5,8,0:0:0:0:
459,102,37600,1,0,0:0:0:0:
203,304,37800,1,2,0:0:0:0:
317,47,38000,1,0,0:0:0:0:
480,292,38200,6,0,P|434:329|326:324,1,165,2|0,0:0|0:0,0:0:0:0:
311,311,38600,2,0,B|270:235|342:233|303:150,1,165,4|0,0:0|0:0,0:0:0:0:
285,128,39000,5,8,0:0:0:0:
177,239,39200,1,0,0:0:0:0:
425,180,39400,1,0,0:0:0:0:
260,20,39600,1,2,0:0:0:0:
283,302,39800,5,0,0:0:0:0:
404,71,40000,1,2,0:0:0:0:
393,356,40200,1,0,0:0:0:0:
293,106,40400,1,2,0:0:0:0:
109,341,40600,5,8,0:0:0:0:
71,114,40800,1,0,0:0:0:0:
231,357,41000,1,2,0:0:0:0:
191,59,41200,1,0,0:0:0:0:
191,59,41300,1,0,0:0:0:0:
191,59,41400,6,0,P|205:115|195:179,1,110,2|2,0:0|0:0,0:0:0:0:
104,314,41800,2,0,P|166:265|261:272,1,165,4|0,0:0|0:0,0:0:0:0:
270,279,42200,6,0,P|289:236|277:154,1,110,8|0,0:0|0:0,0:0:0:0:
191,59,42600,1,0,0:0:0:0:
57,215,42800,1,2,0:0:0:0:
57,215,42900,1,0,0:0:0:0:
57,215,43000,5,0,0:0:0:0:
240,137,43200,1,2,0:0:0:0:
96,312,43400,1,0,0:0:0:0:
318,182,43600,1,2,0:0:0:0:
183,359,43800,5,8,0:0:0:0:
320,95,44000,1,0,0:0:0:0:
290,372,44200,1,2,0:0:0:0:
244,47,44400,1,0,0:0:0:0:
424,150,44600,6,0,L|427:263,1,110,2|0,0:0|0:0,0:0:0:0:
341,317,45200,1,2,0:0:0:0:
270,249,45400,2,0,P|235:231|216:225,1,55,0|0,0:0|0:0,0:0:0:0:
187,328,45800,2,0,P|153:322|125:322,1,55,2|0,0:0|0:0,0:0:0:0:
63,209,46200,6,0,P|64:168|70:151,1,55,2|0,0:0|0:0,0:0:0:0:
143,128,46500,1,0,0:0:0:0:
143,128,46600,2,0,P|169:159|176:175,1,55,2|0,0:0|0:0,0:0:0:0:
280,240,47000,2,0,P|286:198|286:173,1,55,2|0,0:0|0:0,0:0:0:0:
376,138,47400,2,0,P|374:91|369:71,1,55,2|0,0:0|0:0,0:0:0:0:
165,250,47800,6,0,P|187:312|223:344,1,110,2|2,0:0|0:0,0:0:0:0:
229,160,48200,2,0,B|172:121|110:153|110:153|86:114,1,165,4|0,0:0|0:0,0:0:0:0:
83,85,48600,6,0,P|132:65|195:65,1,110,8|0,0:0|0:0,0:0:0:0:
371,175,49000,1,0,0:0:0:0:
202,265,49200,1,2,0:0:0:0:
356,70,49400,5,0,0:0:0:0:
386,293,49600,1,2,0:0:0:0:
235,59,49800,1,0,0:0:0:0:
269,342,50000,1,2,0:0:0:0:
123,104,50200,5,8,0:0:0:0:
450,174,50400,1,0,0:0:0:0:
73,220,50600,2,0,P|44:175|30:93,1,110,2|0,0:0|0:0,0:0:0:0:
312,41,51000,6,0,P|333:103|268:189,1,165,2|0,0:0|0:0,0:0:0:0:
257,191,51400,2,0,P|309:218|365:214,1,110,4|0,0:0|0:0,0:0:0:0:
479,74,51800,5,8,0:0:0:0:
229,111,52000,1,0,0:0:0:0:
472,189,52200,1,0,0:0:0:0:
245,0,52400,1,2,0:0:0:0:
207,295,52600,6,0,P|259:327|328:328,1,110,0|2,0:0|0:0,0:0:0:0:
219,167,53000,2,0,B|166:156|166:156|113:184,1,110,0|2,0:0|0:0,0:0:0:0:
91,200,53300,1,0,0:0:0:0:
91,200,53400,2,0,P|79:157|79:140,1,55,8|0,0:0|0:0,0:0:0:0:
122,50,53600,1,0,0:0:0:0:
164,269,53800,2,0,P|107:301|49:295,1,110,2|0,0:0|0:0,0:0:0:0:
239,138,54200,5,2,0:0:0:0:
316,246,54400,1,2,0:0:0:0:
105,167,54600,1,4,0:0:0:0:
282,33,54800,1,0,0:0:0:0:
177,323,55000,5,8,0:0:0:0:
154,66,55200,1,0,0:0:0:0:
325,343,55400,1,0,0:0:0:0:
282,33,55600,1,2,0:0:0:0:
52,270,55800,6,0,P|113:243|173:240,1,110,0|2,0:0|0:0,0:0:0:0:
451,200,56200,2,0,P|390:173|330:170,1,110,0|2,0:0|0:0,0:0:0:0:
65,115,56600,2,0,P|139:94|193:96,1,110,8|0,0:0|0:0,0:0:0:0:
418,329,57000,1,2,0:0:0:0:
85,267,57200,1,0,0:0:0:0:
300,33,57400,5,2,0:0:0:0:
300,33,57800,2,0,P|283:96|287:131,1,88,4|0,0:0|0:0,0:0:0:0:
307,236,58200,1,8,0:0:0:0:
307,236,58600,1,0,0:0:0:0:
220,342,58800,6,0,L|213:245,1,88,2|0,0:0|0:0,0:0:0:0:
401,142,59200,2,0,L|394:239,1,88,2|0,0:0|0:0,0:0:0:0:
316,87,59600,1,2,0:0:0:0:
475,50,59800,2,0,L|490:158,1,88,8|0,0:0|0:0,0:0:0:0:
307,199,60200,1,2,0:0:0:0:
316,87,60400,1,0,0:0:0:0:
440,253,60600,6,0,L|432:351,1,88,2|2,0:0|0:0,0:0:0:0:
451,138,61000,1,4,0:0:0:0:
245,308,61400,2,0,P|197:289|146:288,1,88,8|0,0:0|0:0,0:0:0:0:
49,314,61800,1,0,0:0:0:0:
123,183,62000,6,0,L|219:172,1,88,2|0,0:0|0:0,0:0:0:0:
332,318,62400,2,0,L|244:307,1,88,2|0,0:0|0:0,0:0:0:0:
318,192,62800,1,2,0:0:0:0:
458,291,63000,2,0,L|451:393,1,88,8|0,0:0|0:0,0:0:0:0:
318,192,63400,1,2,0:0:0:0:
471,120,63600,1,0,0:0:0:0:
329,35,63800,5,0,0:0:0:0:
471,120,64200,1,0,0:0:0:0:
471,120,65000,1,0,0:0:0:0:
342,216,65400,5,0,0:0:0:0:
204,142,65800,1,0,0:0:0:0:
204,142,66000,1,0,0:0:0:0:
342,216,66400,1,0,0:0:0:0:
308,118,66600,1,0,0:0:0:0:
228,249,66800,1,0,0:0:0:0:
95,157,67000,6,0,P|84:109|100:54,1,88,2|2,0:0|0:0,0:0:0:0:
206,25,67400,1,4,0:0:0:0:
206,25,67800,2,0,L|203:118,1,88,8|0,0:0|0:0,0:0:0:0:
198,217,68200,1,0,0:0:0:0:
307,158,68400,6,0,B|326:114|326:114|311:71,1,88,2|0,0:0|0:0,0:0:0:0:
97,149,68800,2,0,B|78:193|78:193|93:236,1,88,2|0,0:0|0:0,0:0:0:0:
146,326,69200,1,2,0:0:0:0:
218,192,69400,2,0,L|212:95,1,88,8|0,0:0|0:0,0:0:0:0:
317,272,69800,1,2,0:0:0:0:
405,181,70000,1,0,0:0:0:0:
506,270,70200,5,2,0:0:0:0:
506,270,70600,2,0,P|446:261|399:270,1,88,4|0,0:0|0:0,0:0:0:0:
317,272,71000,1,8,0:0:0:0:
317,272,71400,1,0,0:0:0:0:
211,213,71600,6,0,P|190:162|194:121,1,88,2|0,0:0|0:0,0:0:0:0:
382,94,72000,2,0,P|403:145|399:186,1,88,2|0,0:0|0:0,0:0:0:0:
294,158,72400,1,2,0:0:0:0:
326,12,72600,2,0,P|374:-3|423:6,1,88,8|0,0:0|0:0,0:0:0:0:
232,93,73000,1,2,0:0:0:0:
134,28,73200,1,0,0:0:0:0:
40,107,73400,6,0,L|45:208,1,88,2|2,0:0|0:0,0:0:0:0:
125,269,73800,1,4,0:0:0:0:
125,269,74200,2,0,P|178:252|218:253,1,88,8|0,0:0|0:0,0:0:0:0:
322,273,74600,1,0,0:0:0:0:
286,164,74800,6,0,B|243:150|243:150|195:167,1,88,2|0,0:0|0:0,0:0:0:0:
422,219,75200,2,0,B|465:233|465:233|513:216,1,88,2|0,0:0|0:0,0:0:0:0:
384,112,75600,1,2,0:0:0:0:
268,205,75800,2,0,P|219:217|170:208,1,88,8|0,0:0|0:0,0:0:0:0:
86,151,76200,1,0,0:0:0:0:
215,111,76400,1,0,0:0:0:0:
204,315,76600,5,0,0:0:0:0:
204,315,77000,1,0,0:0:0:0:
445,220,77800,1,0,0:0:0:0:
321,164,78200,5,0,0:0:0:0:
321,164,78600,1,0,0:0:0:0:
