osu file format v14

[General]
AudioFilename: audio.mp3
AudioLeadIn: 0
PreviewTime: 123189
Countdown: 0
SampleSet: Normal
StackLeniency: 0.7
Mode: 1
LetterboxInBreaks: 0
WidescreenStoryboard: 1

[Editor]
DistanceSpacing: 0.6
BeatDivisor: 4
GridSize: 32
TimelineZoom: 2

[Metadata]
Title:Jetpack Race
TitleUnicode:Jetpack Race
Artist:Galactikraken & Jonathan Young
ArtistUnicode:Galactikraken & Jonathan Young
Creator:Axer
Version:Muzukashii
Source:
Tags:english rock keytarcore Starship Velociraptor
BeatmapID:3577554
BeatmapSetID:1453784

[Difficulty]
HPDrainRate:6
CircleSize:2
OverallDifficulty:5
ApproachRate:10
SliderMultiplier:1.4
SliderTickRate:1

[Events]
//Background and Video events
0,0,"sv.jpg",0,0
//Break Periods
//Storyboard Layer 0 (Background)
//Storyboard Layer 1 (Fail)
//Storyboard Layer 2 (Pass)
//Storyboard Layer 3 (Foreground)
//Storyboard Layer 4 (Overlay)
//Storyboard Sound Samples

[TimingPoints]
119,279.06976744186,4,1,0,90,1,8
119,-111.111111111111,4,1,0,90,0,0
259,279.06976744186,4,1,0,90,1,0
259,-111.111111111111,4,1,0,90,0,0
107282,-111.111111111111,4,1,0,90,0,1
125142,-111.111111111111,4,1,0,90,0,0
125417,-125,4,1,0,90,0,0
142928,-111.111111111111,4,1,0,100,0,0
143003,-111.111111111111,4,1,0,100,0,1
160863,-111.111111111111,4,1,0,100,0,0
160998,-111.111111111111,4,1,0,90,0,0
172026,-111.111111111111,4,1,0,90,0,1
189812,-111.111111111111,4,1,0,100,0,1
207747,-111.111111111111,4,1,0,100,0,0
207886,-111.111111111111,4,1,0,90,0,0

[HitObjects]
260,191,119,5,12,0:0:0:0:
260,191,398,1,0,0:0:0:0:
260,191,538,1,8,0:0:0:0:
260,191,677,1,0,0:0:0:0:
260,191,817,1,8,0:0:0:0:
260,191,956,1,0,0:0:0:0:
260,191,1096,1,8,0:0:0:0:
260,191,1375,1,4,0:0:0:0:
260,191,1654,1,8,0:0:0:0:
260,191,1933,1,4,0:0:0:0:
260,191,2212,1,8,0:0:0:0:
260,191,2352,1,4,0:0:0:0:
260,191,2631,1,0,0:0:0:0:
260,191,2770,1,0,0:0:0:0:
260,191,2910,1,8,0:0:0:0:
260,191,3049,1,0,0:0:0:0:
260,191,3189,1,0,0:0:0:0:
260,191,3328,1,8,0:0:0:0:
260,191,3607,1,12,0:0:0:0:
260,191,3886,1,0,0:0:0:0:
260,191,4165,1,12,0:0:0:0:
260,191,4445,1,0,0:0:0:0:
260,191,4584,1,12,0:0:0:0:
260,191,5003,1,12,0:0:0:0:
260,191,5282,1,4,0:0:0:0:
260,191,5561,1,12,0:0:0:0:
260,191,5840,1,4,0:0:0:0:
260,191,6119,1,12,0:0:0:0:
260,191,6398,1,0,0:0:0:0:
260,191,6538,1,8,0:0:0:0:
260,191,6817,1,4,0:0:0:0:
260,191,7096,1,0,0:0:0:0:
260,191,7235,1,8,0:0:0:0:
260,191,7514,1,0,0:0:0:0:
260,191,7654,1,8,0:0:0:0:
260,191,7793,1,8,0:0:0:0:
260,191,7933,1,4,0:0:0:0:
260,191,8212,1,0,0:0:0:0:
260,191,8352,1,8,0:0:0:0:
260,191,8491,1,0,0:0:0:0:
260,191,8561,1,0,0:0:0:0:
260,191,8631,1,0,0:0:0:0:
260,191,8770,1,8,0:0:0:0:
260,191,8910,1,8,0:0:0:0:
260,191,9049,1,12,0:0:0:0:
260,191,9328,1,0,0:0:0:0:
260,191,9468,1,8,0:0:0:0:
260,191,9607,1,0,0:0:0:0:
260,191,9747,1,8,0:0:0:0:
260,191,9886,1,0,0:0:0:0:
260,191,10026,1,8,0:0:0:0:
260,191,10305,1,4,0:0:0:0:
260,191,10584,1,8,0:0:0:0:
260,191,10863,1,4,0:0:0:0:
260,191,11142,1,8,0:0:0:0:
260,191,11282,1,4,0:0:0:0:
260,191,11561,1,8,0:0:0:0:
260,191,11700,1,0,0:0:0:0:
260,191,11840,1,8,0:0:0:0:
260,191,11979,1,0,0:0:0:0:
260,191,12119,1,0,0:0:0:0:
260,191,12258,1,8,0:0:0:0:
260,191,12538,1,12,0:0:0:0:
260,191,12817,1,0,0:0:0:0:
260,191,13096,1,12,0:0:0:0:
260,191,13375,1,0,0:0:0:0:
260,191,13514,1,12,0:0:0:0:
260,191,13933,1,12,0:0:0:0:
260,191,14212,1,4,0:0:0:0:
260,191,14491,1,12,0:0:0:0:
260,191,14770,1,4,0:0:0:0:
260,191,15049,1,12,0:0:0:0:
260,191,15328,1,0,0:0:0:0:
260,191,15468,1,8,0:0:0:0:
260,191,15747,1,4,0:0:0:0:
260,191,16026,1,0,0:0:0:0:
260,191,16165,1,8,0:0:0:0:
260,191,16305,1,0,0:0:0:0:
260,191,16375,1,0,0:0:0:0:
260,191,16445,1,0,0:0:0:0:
260,191,16584,1,0,0:0:0:0:
260,191,16724,1,0,0:0:0:0:
260,191,16863,1,12,0:0:0:0:
260,191,17282,1,8,0:0:0:0:
260,191,17561,1,8,0:0:0:0:
260,191,17700,1,8,0:0:0:0:
260,191,17840,1,8,0:0:0:0:
260,191,17979,1,4,0:0:0:0:
260,191,18398,1,8,0:0:0:0:
260,191,18677,1,0,0:0:0:0:
260,191,18817,1,0,0:0:0:0:
260,191,18956,1,8,0:0:0:0:
260,191,19235,1,0,0:0:0:0:
260,191,19375,1,0,0:0:0:0:
260,191,19514,1,8,0:0:0:0:
260,191,19793,1,0,0:0:0:0:
260,191,19933,1,0,0:0:0:0:
260,191,20072,1,8,0:0:0:0:
260,191,20212,1,0,0:0:0:0:
260,191,20491,1,0,0:0:0:0:
260,191,20631,1,8,0:0:0:0:
260,191,20910,1,0,0:0:0:0:
260,191,21049,1,0,0:0:0:0:
260,191,21189,1,8,0:0:0:0:
260,191,21468,1,0,0:0:0:0:
260,191,21607,1,8,0:0:0:0:
260,191,21747,1,8,0:0:0:0:
260,191,22026,1,0,0:0:0:0:
260,191,22165,1,0,0:0:0:0:
260,191,22305,1,8,0:0:0:0:
260,191,22445,1,0,0:0:0:0:
260,191,22724,1,0,0:0:0:0:
260,191,22863,1,8,0:0:0:0:
260,191,23142,1,0,0:0:0:0:
260,191,23282,1,0,0:0:0:0:
260,191,23421,1,8,0:0:0:0:
260,191,23700,1,0,0:0:0:0:
260,191,23840,1,0,0:0:0:0:
260,191,23979,1,8,0:0:0:0:
260,191,24258,1,0,0:0:0:0:
260,191,24398,1,0,0:0:0:0:
260,191,24538,1,8,0:0:0:0:
260,191,24677,1,0,0:0:0:0:
260,191,24956,1,0,0:0:0:0:
260,191,25096,1,8,0:0:0:0:
260,191,25375,1,0,0:0:0:0:
260,191,25514,1,0,0:0:0:0:
260,191,25654,1,8,0:0:0:0:
260,191,25933,1,0,0:0:0:0:
260,191,26072,1,8,0:0:0:0:
260,191,26212,1,8,0:0:0:0:
260,191,26491,1,8,0:0:0:0:
260,191,26631,1,0,0:0:0:0:
260,191,26770,1,8,0:0:0:0:
260,191,26910,1,4,0:0:0:0:
260,191,27328,1,8,0:0:0:0:
260,191,27607,1,0,0:0:0:0:
260,191,27747,1,0,0:0:0:0:
260,191,27886,1,8,0:0:0:0:
260,191,28165,1,0,0:0:0:0:
260,191,28305,1,0,0:0:0:0:
260,191,28445,1,8,0:0:0:0:
260,191,28724,1,0,0:0:0:0:
260,191,28863,1,0,0:0:0:0:
260,191,29003,1,8,0:0:0:0:
260,191,29142,1,0,0:0:0:0:
260,191,29421,1,0,0:0:0:0:
260,191,29561,1,8,0:0:0:0:
260,191,29840,1,0,0:0:0:0:
260,191,29979,1,0,0:0:0:0:
260,191,30119,1,8,0:0:0:0:
260,191,30398,1,0,0:0:0:0:
260,191,30538,1,8,0:0:0:0:
260,191,30677,1,8,0:0:0:0:
260,191,30956,1,0,0:0:0:0:
260,191,31096,1,0,0:0:0:0:
260,191,31235,1,8,0:0:0:0:
260,191,31375,1,0,0:0:0:0:
260,191,31654,1,0,0:0:0:0:
260,191,31793,1,8,0:0:0:0:
260,191,32072,1,0,0:0:0:0:
260,191,32212,1,0,0:0:0:0:
260,191,32352,1,8,0:0:0:0:
260,191,32631,1,0,0:0:0:0:
260,191,32770,1,0,0:0:0:0:
260,191,32910,1,8,0:0:0:0:
260,191,33189,1,0,0:0:0:0:
260,191,33328,1,0,0:0:0:0:
260,191,33468,1,8,0:0:0:0:
260,191,33607,1,0,0:0:0:0:
260,191,33886,1,0,0:0:0:0:
260,191,34026,1,8,0:0:0:0:
260,191,34305,1,0,0:0:0:0:
260,191,34445,1,0,0:0:0:0:
260,191,34584,1,8,0:0:0:0:
260,191,34863,1,0,0:0:0:0:
260,191,35003,1,8,0:0:0:0:
260,191,35072,1,8,0:0:0:0:
260,191,35142,1,8,0:0:0:0:
260,191,35282,1,0,0:0:0:0:
260,191,35561,1,8,0:0:0:0:
260,191,35840,1,4,0:0:0:0:
260,191,36119,1,8,0:0:0:0:
260,191,36398,1,8,0:0:0:0:
260,191,36538,1,4,0:0:0:0:
260,191,36817,1,8,0:0:0:0:
260,191,37096,1,4,0:0:0:0:
260,191,37375,1,8,0:0:0:0:
260,191,37514,1,4,0:0:0:0:
260,191,37793,1,8,0:0:0:0:
260,191,38072,1,4,0:0:0:0:
260,191,38352,1,8,0:0:0:0:
260,191,38631,1,8,0:0:0:0:
260,191,38770,1,4,0:0:0:0:
260,191,39049,1,8,0:0:0:0:
260,191,39328,1,4,0:0:0:0:
260,191,39468,1,0,0:0:0:0:
260,191,39607,1,8,0:0:0:0:
260,191,39886,1,8,0:0:0:0:
260,191,39956,1,8,0:0:0:0:
260,191,40026,1,8,0:0:0:0:
260,191,40165,1,8,0:0:0:0:
260,191,40305,1,4,0:0:0:0:
260,191,40584,1,8,0:0:0:0:
260,191,40863,1,8,0:0:0:0:
260,191,41003,1,4,0:0:0:0:
260,191,41282,1,8,0:0:0:0:
260,191,41561,1,4,0:0:0:0:
260,191,41840,1,8,0:0:0:0:
260,191,41979,1,4,0:0:0:0:
260,191,42258,1,8,0:0:0:0:
260,191,42538,1,4,0:0:0:0:
260,191,42817,1,8,0:0:0:0:
260,191,43096,1,8,0:0:0:0:
260,191,43235,1,4,0:0:0:0:
260,191,43514,1,8,0:0:0:0:
260,191,43793,1,0,0:0:0:0:
260,191,43933,1,8,0:0:0:0:
260,191,44072,1,8,0:0:0:0:
260,191,44352,1,8,0:0:0:0:
260,191,44491,1,8,0:0:0:0:
260,191,44631,1,8,0:0:0:0:
260,191,44770,1,4,0:0:0:0:
260,191,45189,1,0,0:0:0:0:
260,191,45468,1,8,0:0:0:0:
260,191,45747,1,0,0:0:0:0:
260,191,46026,1,8,0:0:0:0:
260,191,46584,1,0,0:0:0:0:
260,191,47003,1,8,0:0:0:0:
260,191,47421,1,0,0:0:0:0:
260,191,47700,1,8,0:0:0:0:
260,191,47979,1,0,0:0:0:0:
260,191,48258,1,8,0:0:0:0:
260,191,48538,1,8,0:0:0:0:
260,191,48677,1,8,0:0:0:0:
260,191,48817,1,0,0:0:0:0:
260,191,49096,1,8,0:0:0:0:
260,191,49235,1,4,0:0:0:0:
260,191,49654,1,0,0:0:0:0:
260,191,49933,1,8,0:0:0:0:
260,191,50212,1,0,0:0:0:0:
260,191,50491,1,8,0:0:0:0:
260,191,51049,1,0,0:0:0:0:
260,191,51468,1,8,0:0:0:0:
260,191,51747,1,0,0:0:0:0:
260,191,51886,1,8,0:0:0:0:
260,191,52026,1,0,0:0:0:0:
260,191,52165,1,8,0:0:0:0:
260,191,52445,1,0,0:0:0:0:
260,191,52584,1,0,0:0:0:0:
260,191,52724,1,8,0:0:0:0:
260,191,53003,1,8,0:0:0:0:
260,191,53142,1,8,0:0:0:0:
260,191,53282,1,0,0:0:0:0:
260,191,53561,1,8,0:0:0:0:
260,191,53700,1,4,0:0:0:0:
260,191,54119,1,0,0:0:0:0:
260,191,54398,1,8,0:0:0:0:
260,191,54677,1,0,0:0:0:0:
260,191,54956,1,0,0:0:0:0:
260,191,55096,1,8,0:0:0:0:
260,191,55375,1,0,0:0:0:0:
260,191,55514,1,8,0:0:0:0:
260,191,55793,1,0,0:0:0:0:
260,191,55933,1,8,0:0:0:0:
260,191,56352,1,0,0:0:0:0:
260,191,56631,1,8,0:0:0:0:
260,191,56910,1,0,0:0:0:0:
260,191,57189,1,12,0:0:0:0:
260,191,57747,1,4,0:0:0:0:
260,191,58165,1,12,0:0:0:0:
260,191,58584,1,0,0:0:0:0:
260,191,58863,1,8,0:0:0:0:
260,191,59142,1,0,0:0:0:0:
260,191,59421,1,8,0:0:0:0:
260,191,59700,1,8,0:0:0:0:
260,191,59840,1,8,0:0:0:0:
260,191,59979,1,0,0:0:0:0:
260,191,60258,1,8,0:0:0:0:
260,191,60398,1,4,0:0:0:0:
260,191,60817,1,0,0:0:0:0:
260,191,61096,1,8,0:0:0:0:
260,191,61375,1,0,0:0:0:0:
260,191,61514,1,0,0:0:0:0:
260,191,61654,1,8,0:0:0:0:
260,191,61933,1,8,0:0:0:0:
260,191,62072,1,0,0:0:0:0:
260,191,62212,1,8,0:0:0:0:
260,191,62491,1,0,0:0:0:0:
260,191,62631,1,12,0:0:0:0:
260,191,62910,1,0,0:0:0:0:
260,191,63049,1,8,0:0:0:0:
260,191,63189,1,0,0:0:0:0:
260,191,63328,1,8,0:0:0:0:
260,191,63468,1,0,0:0:0:0:
260,191,63607,1,8,0:0:0:0:
260,191,63886,1,4,0:0:0:0:
260,191,64165,1,8,0:0:0:0:
260,191,64445,1,4,0:0:0:0:
260,191,64724,1,8,0:0:0:0:
260,191,64863,1,4,0:0:0:0:
260,191,65142,1,8,0:0:0:0:
260,191,65282,1,0,0:0:0:0:
260,191,65421,1,8,0:0:0:0:
260,191,65561,1,0,0:0:0:0:
260,191,65700,1,0,0:0:0:0:
260,191,65840,1,8,0:0:0:0:
260,191,66119,1,12,0:0:0:0:
260,191,66398,1,0,0:0:0:0:
260,191,66677,1,12,0:0:0:0:
260,191,66956,1,0,0:0:0:0:
260,191,67096,1,12,0:0:0:0:
260,191,67514,1,12,0:0:0:0:
260,191,67793,1,4,0:0:0:0:
260,191,68072,1,12,0:0:0:0:
260,191,68352,1,4,0:0:0:0:
260,191,68631,1,12,0:0:0:0:
260,191,68910,1,0,0:0:0:0:
260,191,69189,1,8,0:0:0:0:
260,191,69328,1,4,0:0:0:0:
260,191,69607,1,0,0:0:0:0:
260,191,69747,1,8,0:0:0:0:
260,191,70026,1,0,0:0:0:0:
260,191,70165,1,8,0:0:0:0:
260,191,70305,1,8,0:0:0:0:
260,191,70445,1,4,0:0:0:0:
260,191,70724,1,0,0:0:0:0:
260,191,70863,1,8,0:0:0:0:
260,191,71003,1,0,0:0:0:0:
260,191,71072,1,0,0:0:0:0:
260,191,71142,1,0,0:0:0:0:
260,191,71282,1,8,0:0:0:0:
260,191,71421,1,8,0:0:0:0:
260,191,71561,1,12,0:0:0:0:
260,191,71840,1,0,0:0:0:0:
260,191,71979,1,8,0:0:0:0:
260,191,72119,1,0,0:0:0:0:
260,191,72258,1,8,0:0:0:0:
260,191,72398,1,0,0:0:0:0:
260,191,72538,1,8,0:0:0:0:
260,191,72817,1,4,0:0:0:0:
260,191,73096,1,8,0:0:0:0:
260,191,73375,1,4,0:0:0:0:
260,191,73654,1,8,0:0:0:0:
260,191,73793,1,4,0:0:0:0:
260,191,74072,1,8,0:0:0:0:
260,191,74212,1,0,0:0:0:0:
260,191,74352,1,8,0:0:0:0:
260,191,74491,1,0,0:0:0:0:
260,191,74631,1,0,0:0:0:0:
260,191,74770,1,8,0:0:0:0:
260,191,75049,1,12,0:0:0:0:
260,191,75328,1,0,0:0:0:0:
260,191,75607,1,12,0:0:0:0:
260,191,75886,1,0,0:0:0:0:
260,191,76026,1,12,0:0:0:0:
260,191,76305,1,0,0:0:0:0:
260,191,76445,1,12,0:0:0:0:
260,191,76724,1,4,0:0:0:0:
260,191,77003,1,12,0:0:0:0:
260,191,77282,1,4,0:0:0:0:
260,191,77561,1,12,0:0:0:0:
260,191,77840,1,0,0:0:0:0:
260,191,77979,1,0,0:0:0:0:
260,191,78119,1,8,0:0:0:0:
260,191,78258,1,4,0:0:0:0:
260,191,78538,1,0,0:0:0:0:
260,191,78677,1,8,0:0:0:0:
260,191,78956,1,8,0:0:0:0:
260,191,79096,1,0,0:0:0:0:
260,191,79375,1,12,0:0:0:0:
260,191,79654,1,0,0:0:0:0:
260,191,79793,1,8,0:0:0:0:
260,191,79933,1,0,0:0:0:0:
260,191,80072,1,8,0:0:0:0:
260,191,80212,1,8,0:0:0:0:
260,191,80352,1,8,0:0:0:0:
260,191,80491,1,4,0:0:0:0:
260,191,80910,1,8,0:0:0:0:
260,191,81189,1,0,0:0:0:0:
260,191,81328,1,0,0:0:0:0:
260,191,81468,1,8,0:0:0:0:
260,191,81747,1,0,0:0:0:0:
260,191,81886,1,0,0:0:0:0:
260,191,82026,1,8,0:0:0:0:
260,191,82305,1,0,0:0:0:0:
260,191,82445,1,0,0:0:0:0:
260,191,82584,1,8,0:0:0:0:
260,191,82724,1,0,0:0:0:0:
260,191,83003,1,0,0:0:0:0:
260,191,83142,1,8,0:0:0:0:
260,191,83421,1,8,0:0:0:0:
260,191,83561,1,0,0:0:0:0:
260,191,83700,1,8,0:0:0:0:
260,191,83979,1,0,0:0:0:0:
260,191,84119,1,0,0:0:0:0:
260,191,84258,1,8,0:0:0:0:
260,191,84538,1,0,0:0:0:0:
260,191,84677,1,0,0:0:0:0:
260,191,84817,1,8,0:0:0:0:
260,191,84956,1,0,0:0:0:0:
260,191,85235,1,0,0:0:0:0:
260,191,85375,1,8,0:0:0:0:
260,191,85654,1,0,0:0:0:0:
260,191,85793,1,0,0:0:0:0:
260,191,85933,1,8,0:0:0:0:
260,191,86212,1,0,0:0:0:0:
260,191,86352,1,0,0:0:0:0:
260,191,86491,1,8,0:0:0:0:
260,191,86770,1,0,0:0:0:0:
260,191,86910,1,0,0:0:0:0:
260,191,87049,1,8,0:0:0:0:
260,191,87189,1,0,0:0:0:0:
260,191,87468,1,0,0:0:0:0:
260,191,87607,1,8,0:0:0:0:
260,191,87747,1,0,0:0:0:0:
260,191,87817,1,0,0:0:0:0:
260,191,87886,1,0,0:0:0:0:
260,191,88026,1,8,0:0:0:0:
260,191,88165,1,8,0:0:0:0:
260,191,88445,1,8,0:0:0:0:
260,191,88584,1,0,0:0:0:0:
260,191,88654,1,0,0:0:0:0:
260,191,88724,1,0,0:0:0:0:
260,191,88863,1,8,0:0:0:0:
260,191,89003,1,8,0:0:0:0:
260,191,89142,1,0,0:0:0:0:
260,191,89282,1,8,0:0:0:0:
260,191,89421,1,0,0:0:0:0:
260,191,89840,1,8,0:0:0:0:
260,191,90119,1,0,0:0:0:0:
260,191,90258,1,0,0:0:0:0:
260,191,90398,1,8,0:0:0:0:
260,191,90677,1,0,0:0:0:0:
260,191,90817,1,0,0:0:0:0:
260,191,90956,1,8,0:0:0:0:
260,191,91235,1,0,0:0:0:0:
260,191,91375,1,0,0:0:0:0:
260,191,91514,1,8,0:0:0:0:
260,191,91654,1,0,0:0:0:0:
260,191,91933,1,0,0:0:0:0:
260,191,92072,1,8,0:0:0:0:
260,191,92352,1,8,0:0:0:0:
260,191,92491,1,0,0:0:0:0:
260,191,92631,1,8,0:0:0:0:
260,191,92910,1,0,0:0:0:0:
260,191,93049,1,0,0:0:0:0:
260,191,93189,1,8,0:0:0:0:
260,191,93468,1,0,0:0:0:0:
260,191,93607,1,0,0:0:0:0:
260,191,93747,1,8,0:0:0:0:
260,191,93886,1,0,0:0:0:0:
260,191,94165,1,0,0:0:0:0:
260,191,94305,1,8,0:0:0:0:
260,191,94584,1,0,0:0:0:0:
260,191,94724,1,0,0:0:0:0:
260,191,94863,1,8,0:0:0:0:
260,191,95142,1,0,0:0:0:0:
260,191,95282,1,0,0:0:0:0:
260,191,95421,1,8,0:0:0:0:
260,191,95700,1,0,0:0:0:0:
260,191,95840,1,0,0:0:0:0:
260,191,95979,1,8,0:0:0:0:
260,191,96119,1,0,0:0:0:0:
260,191,96398,1,0,0:0:0:0:
260,191,96538,1,8,0:0:0:0:
260,191,96817,1,0,0:0:0:0:
260,191,96956,1,0,0:0:0:0:
260,191,97096,1,8,0:0:0:0:
260,191,97375,1,0,0:0:0:0:
260,191,97514,1,8,0:0:0:0:
260,191,97654,1,8,0:0:0:0:
260,191,97933,1,0,0:0:0:0:
260,191,98072,1,8,0:0:0:0:
260,191,98142,1,8,0:0:0:0:
260,191,98212,1,8,0:0:0:0:
260,191,98352,1,4,0:0:0:0:
260,191,98631,1,8,0:0:0:0:
260,191,98910,1,8,0:0:0:0:
260,191,99049,1,4,0:0:0:0:
260,191,99328,1,8,0:0:0:0:
260,191,99607,1,4,0:0:0:0:
260,191,99886,1,8,0:0:0:0:
260,191,100026,1,4,0:0:0:0:
260,191,100305,1,8,0:0:0:0:
260,191,100584,1,4,0:0:0:0:
260,191,100863,1,8,0:0:0:0:
260,191,101142,1,8,0:0:0:0:
260,191,101282,1,4,0:0:0:0:
260,191,101561,1,8,0:0:0:0:
260,191,101840,1,4,0:0:0:0:
260,191,101979,1,0,0:0:0:0:
260,191,102119,1,8,0:0:0:0:
260,191,102398,1,8,0:0:0:0:
260,191,102538,1,0,0:0:0:0:
260,191,102677,1,8,0:0:0:0:
260,191,102817,1,4,0:0:0:0:
260,191,103096,1,8,0:0:0:0:
260,191,103375,1,8,0:0:0:0:
260,191,103514,1,4,0:0:0:0:
260,191,103793,1,8,0:0:0:0:
260,191,104072,1,4,0:0:0:0:
260,191,104352,1,8,0:0:0:0:
260,191,104491,1,4,0:0:0:0:
260,191,104770,1,8,0:0:0:0:
260,191,105049,1,4,0:0:0:0:
260,191,105328,1,8,0:0:0:0:
260,191,105607,1,8,0:0:0:0:
260,191,105747,1,4,0:0:0:0:
260,191,106026,1,8,0:0:0:0:
260,191,106305,1,0,0:0:0:0:
260,191,106445,1,0,0:0:0:0:
260,191,106584,1,8,0:0:0:0:
260,191,106863,1,8,0:0:0:0:
260,191,107003,1,8,0:0:0:0:
260,191,107142,1,8,0:0:0:0:
260,191,107282,1,4,0:0:0:0:
260,191,107700,1,8,0:0:0:0:
260,191,107840,1,0,0:0:0:0:
260,191,107979,1,8,0:0:0:0:
260,191,108049,1,8,0:0:0:0:
260,191,108119,1,8,0:0:0:0:
260,191,108258,1,0,0:0:0:0:
260,191,108398,1,0,0:0:0:0:
260,191,108538,1,8,0:0:0:0:
260,191,108607,1,8,0:0:0:0:
260,191,108677,1,8,0:0:0:0:
260,191,108817,1,0,0:0:0:0:
260,191,108956,1,0,0:0:0:0:
260,191,109096,1,8,0:0:0:0:
260,191,109165,1,8,0:0:0:0:
260,191,109235,1,8,0:0:0:0:
260,191,109375,1,0,0:0:0:0:
260,191,109514,1,12,0:0:0:0:
260,191,109933,1,8,0:0:0:0:
260,191,110072,1,8,0:0:0:0:
260,191,110212,1,0,0:0:0:0:
260,191,110282,1,0,0:0:0:0:
260,191,110352,1,0,0:0:0:0:
260,191,110491,1,8,0:0:0:0:
260,191,110631,1,0,0:0:0:0:
260,191,110770,1,12,0:0:0:0:
260,191,111049,1,8,0:0:0:0:
260,191,111189,1,0,0:0:0:0:
260,191,111328,1,12,0:0:0:0:
260,191,111607,1,0,0:0:0:0:
260,191,111747,1,12,0:0:0:0:
260,191,112165,1,8,0:0:0:0:
260,191,112305,1,0,0:0:0:0:
260,191,112445,1,8,0:0:0:0:
260,191,112584,1,8,0:0:0:0:
260,191,112654,1,8,0:0:0:0:
260,191,112724,1,8,0:0:0:0:
260,191,112863,1,0,0:0:0:0:
260,191,113003,1,8,0:0:0:0:
260,191,113072,1,8,0:0:0:0:
260,191,113142,1,8,0:0:0:0:
260,191,113282,1,0,0:0:0:0:
260,191,113421,1,0,0:0:0:0:
260,191,113561,1,8,0:0:0:0:
260,191,113631,1,8,0:0:0:0:
260,191,113700,1,8,0:0:0:0:
260,191,113840,1,0,0:0:0:0:
260,191,113979,1,12,0:0:0:0:
260,191,114398,1,8,0:0:0:0:
260,191,114538,1,0,0:0:0:0:
260,191,114677,1,8,0:0:0:0:
260,191,114817,1,0,0:0:0:0:
260,191,114886,1,0,0:0:0:0:
260,191,114956,1,0,0:0:0:0:
260,191,115096,1,0,0:0:0:0:
260,191,115235,1,12,0:0:0:0:
260,191,115514,1,8,0:0:0:0:
260,191,115654,1,0,0:0:0:0:
260,191,115793,1,12,0:0:0:0:
260,191,116072,1,0,0:0:0:0:
260,191,116212,1,12,0:0:0:0:
260,191,116631,1,8,0:0:0:0:
260,191,116770,1,0,0:0:0:0:
260,191,116910,1,8,0:0:0:0:
260,191,116979,1,8,0:0:0:0:
260,191,117049,1,8,0:0:0:0:
260,191,117189,1,0,0:0:0:0:
260,191,117328,1,0,0:0:0:0:
260,191,117468,1,8,0:0:0:0:
260,191,117538,1,8,0:0:0:0:
260,191,117607,1,8,0:0:0:0:
260,191,117747,1,0,0:0:0:0:
260,191,117886,1,0,0:0:0:0:
260,191,118026,1,8,0:0:0:0:
260,191,118096,1,8,0:0:0:0:
260,191,118165,1,8,0:0:0:0:
260,191,118305,1,0,0:0:0:0:
260,191,118445,1,12,0:0:0:0:
260,191,118863,1,8,0:0:0:0:
260,191,119003,1,0,0:0:0:0:
260,191,119142,1,8,0:0:0:0:
260,191,119212,1,8,0:0:0:0:
260,191,119282,1,8,0:0:0:0:
260,191,119421,1,0,0:0:0:0:
260,191,119561,1,0,0:0:0:0:
260,191,119700,1,12,0:0:0:0:
260,191,119979,1,8,0:0:0:0:
260,191,120119,1,0,0:0:0:0:
260,191,120258,1,12,0:0:0:0:
260,191,120538,1,0,0:0:0:0:
260,191,120677,1,12,0:0:0:0:
260,191,121096,1,8,0:0:0:0:
260,191,121235,1,0,0:0:0:0:
260,191,121375,1,8,0:0:0:0:
260,191,121514,1,8,0:0:0:0:
260,191,121584,1,8,0:0:0:0:
260,191,121654,1,8,0:0:0:0:
260,191,121793,1,0,0:0:0:0:
260,191,121933,1,12,0:0:0:0:
260,191,122212,1,8,0:0:0:0:
260,191,122352,1,0,0:0:0:0:
260,191,122491,1,12,0:0:0:0:
260,191,122770,1,0,0:0:0:0:
260,191,122910,1,12,0:0:0:0:
260,191,123189,1,0,0:0:0:0:
260,191,123328,1,8,0:0:0:0:
260,191,123468,1,0,0:0:0:0:
260,191,123607,1,8,0:0:0:0:
260,191,123747,1,0,0:0:0:0:
260,191,123886,1,8,0:0:0:0:
260,191,124026,1,0,0:0:0:0:
260,191,124165,1,12,0:0:0:0:
260,191,124445,1,8,0:0:0:0:
260,191,124584,1,0,0:0:0:0:
260,191,124724,1,12,0:0:0:0:
260,191,125003,1,0,0:0:0:0:
260,191,125142,1,12,0:0:0:0:
260,191,125700,1,0,0:0:0:0:
260,191,125770,1,0,0:0:0:0:
260,191,125840,1,0,0:0:0:0:
260,191,125979,1,8,0:0:0:0:
260,191,126119,1,0,0:0:0:0:
260,191,126398,1,8,0:0:0:0:
260,191,126677,1,0,0:0:0:0:
260,191,126817,1,8,0:0:0:0:
260,191,127096,1,0,0:0:0:0:
260,191,127235,1,8,0:0:0:0:
260,191,127514,1,8,0:0:0:0:
260,191,127654,1,0,0:0:0:0:
260,191,127793,1,8,0:0:0:0:
260,191,128072,1,8,0:0:0:0:
260,191,128142,1,8,0:0:0:0:
260,191,128212,1,8,0:0:0:0:
260,191,128352,1,0,0:0:0:0:
260,191,128491,1,8,0:0:0:0:
260,191,128770,1,0,0:0:0:0:
260,191,129049,1,8,0:0:0:0:
260,191,129328,1,0,0:0:0:0:
260,191,129468,1,0,0:0:0:0:
260,191,129607,1,0,0:0:0:0:
260,191,130026,1,8,0:0:0:0:
260,191,130445,1,0,0:0:0:0:
260,191,130863,1,0,0:0:0:0:
260,191,131282,1,0,0:0:0:0:
260,191,131700,1,8,0:0:0:0:
260,191,131840,1,8,0:0:0:0:
260,191,132119,1,8,0:0:0:0:
260,191,132398,1,8,0:0:0:0:
260,191,132677,1,8,0:0:0:0:
260,191,132956,1,8,0:0:0:0:
260,191,133235,1,8,0:0:0:0:
260,191,133375,1,8,0:0:0:0:
260,191,133514,1,0,0:0:0:0:
260,191,133793,1,0,0:0:0:0:
260,191,134072,1,8,0:0:0:0:
260,191,134352,1,0,0:0:0:0:
260,191,134491,1,8,0:0:0:0:
260,191,134631,1,0,0:0:0:0:
260,191,134770,1,8,0:0:0:0:
260,191,134910,1,8,0:0:0:0:
260,191,135049,1,0,0:0:0:0:
260,191,135328,1,0,0:0:0:0:
260,191,135468,1,0,0:0:0:0:
260,191,135607,1,8,0:0:0:0:
260,191,135747,1,0,0:0:0:0:
260,191,135886,1,8,0:0:0:0:
260,191,136026,1,0,0:0:0:0:
260,191,136165,1,8,0:0:0:0:
260,191,136445,1,0,0:0:0:0:
260,191,136863,1,8,0:0:0:0:
260,191,137142,1,0,0:0:0:0:
260,191,137421,1,8,0:0:0:0:
260,191,137979,1,8,0:0:0:0:
260,191,138049,1,8,0:0:0:0:
260,191,138119,1,8,0:0:0:0:
260,191,138258,1,0,0:0:0:0:
260,191,138538,1,8,0:0:0:0:
260,191,138817,1,0,0:0:0:0:
260,191,138956,1,8,0:0:0:0:
260,191,139096,1,0,0:0:0:0:
260,191,139235,1,8,0:0:0:0:
260,191,139375,1,0,0:0:0:0:
260,191,139514,1,8,0:0:0:0:
260,191,139654,1,0,0:0:0:0:
260,191,139793,1,8,0:0:0:0:
260,191,139863,1,8,0:0:0:0:
260,191,139933,1,8,0:0:0:0:
260,191,140072,1,0,0:0:0:0:
260,191,140212,1,0,0:0:0:0:
260,191,140352,1,8,0:0:0:0:
260,191,140421,1,8,0:0:0:0:
260,191,140491,1,8,0:0:0:0:
260,191,140631,1,0,0:0:0:0:
260,191,140770,1,8,0:0:0:0:
260,191,141189,1,8,0:0:0:0:
260,191,141328,1,0,0:0:0:0:
260,191,141468,1,8,0:0:0:0:
260,191,141607,1,0,0:0:0:0:
260,191,141677,1,0,0:0:0:0:
260,191,141747,1,0,0:0:0:0:
260,191,141886,1,0,0:0:0:0:
260,191,142026,1,8,0:0:0:0:
260,191,142305,1,0,0:0:0:0:
260,191,142445,1,8,0:0:0:0:
260,191,142584,1,0,0:0:0:0:
260,191,142724,1,8,0:0:0:0:
260,191,142863,1,0,0:0:0:0:
260,191,143003,1,12,0:0:0:0:
260,191,143421,1,0,0:0:0:0:
260,191,143561,1,8,0:0:0:0:
260,191,143700,1,0,0:0:0:0:
260,191,143840,1,8,0:0:0:0:
260,191,143979,1,8,0:0:0:0:
260,191,144119,1,8,0:0:0:0:
260,191,144258,1,0,0:0:0:0:
260,191,144398,1,8,0:0:0:0:
260,191,144538,1,0,0:0:0:0:
260,191,144677,1,8,0:0:0:0:
260,191,144817,1,0,0:0:0:0:
260,191,144956,1,8,0:0:0:0:
260,191,145026,1,8,0:0:0:0:
260,191,145096,1,8,0:0:0:0:
260,191,145235,1,8,0:0:0:0:
260,191,145375,1,0,0:0:0:0:
260,191,145514,1,8,0:0:0:0:
260,191,145654,1,0,0:0:0:0:
260,191,145793,1,0,0:0:0:0:
260,191,145933,1,8,0:0:0:0:
260,191,146072,1,8,0:0:0:0:
260,191,146212,1,0,0:0:0:0:
260,191,146352,1,0,0:0:0:0:
260,191,146491,1,12,0:0:0:0:
260,191,146770,1,0,0:0:0:0:
260,191,146910,1,0,0:0:0:0:
260,191,147049,1,12,0:0:0:0:
260,191,147328,1,8,0:0:0:0:
260,191,147468,1,4,0:0:0:0:
260,191,147747,1,0,0:0:0:0:
260,191,147886,1,0,0:0:0:0:
260,191,148026,1,8,0:0:0:0:
260,191,148165,1,0,0:0:0:0:
260,191,148305,1,0,0:0:0:0:
260,191,148445,1,8,0:0:0:0:
260,191,148584,1,0,0:0:0:0:
260,191,148724,1,0,0:0:0:0:
260,191,148863,1,8,0:0:0:0:
260,191,149003,1,0,0:0:0:0:
260,191,149142,1,0,0:0:0:0:
260,191,149282,1,8,0:0:0:0:
260,191,149421,1,0,0:0:0:0:
260,191,149561,1,0,0:0:0:0:
260,191,149700,1,12,0:0:0:0:
260,191,150119,1,8,0:0:0:0:
260,191,150258,1,0,0:0:0:0:
260,191,150398,1,8,0:0:0:0:
260,191,150468,1,8,0:0:0:0:
260,191,150538,1,8,0:0:0:0:
260,191,150677,1,8,0:0:0:0:
260,191,150817,1,0,0:0:0:0:
260,191,150956,1,12,0:0:0:0:
260,191,151235,1,8,0:0:0:0:
260,191,151375,1,0,0:0:0:0:
260,191,151514,1,12,0:0:0:0:
260,191,151793,1,0,0:0:0:0:
260,191,151933,1,12,0:0:0:0:
260,191,152212,1,8,0:0:0:0:
260,191,152352,1,8,0:0:0:0:
260,191,152491,1,0,0:0:0:0:
260,191,152631,1,8,0:0:0:0:
260,191,152770,1,0,0:0:0:0:
260,191,153049,1,8,0:0:0:0:
260,191,153189,1,0,0:0:0:0:
260,191,153328,1,8,0:0:0:0:
260,191,153468,1,8,0:0:0:0:
260,191,153607,1,0,0:0:0:0:
260,191,153747,1,8,0:0:0:0:
260,191,153886,1,0,0:0:0:0:
260,191,154165,1,8,0:0:0:0:
260,191,154305,1,0,0:0:0:0:
260,191,154445,1,8,0:0:0:0:
260,191,154584,1,8,0:0:0:0:
260,191,154724,1,8,0:0:0:0:
260,191,154863,1,8,0:0:0:0:
260,191,155003,1,8,0:0:0:0:
260,191,155142,1,8,0:0:0:0:
260,191,155282,1,8,0:0:0:0:
260,191,155421,1,8,0:0:0:0:
260,191,155561,1,0,0:0:0:0:
260,191,155700,1,8,0:0:0:0:
260,191,155840,1,0,0:0:0:0:
260,191,155979,1,8,0:0:0:0:
260,191,156119,1,0,0:0:0:0:
260,191,156398,1,12,0:0:0:0:
260,191,156817,1,8,0:0:0:0:
260,191,156956,1,8,0:0:0:0:
260,191,157096,1,8,0:0:0:0:
260,191,157235,1,0,0:0:0:0:
260,191,157375,1,8,0:0:0:0:
260,191,157514,1,0,0:0:0:0:
260,191,157654,1,8,0:0:0:0:
260,191,157793,1,8,0:0:0:0:
260,191,157933,1,8,0:0:0:0:
260,191,158072,1,8,0:0:0:0:
260,191,158212,1,8,0:0:0:0:
260,191,158352,1,0,0:0:0:0:
260,191,158491,1,8,0:0:0:0:
260,191,158631,1,0,0:0:0:0:
260,191,158770,1,8,0:0:0:0:
260,191,158910,1,8,0:0:0:0:
260,191,159049,1,8,0:0:0:0:
260,191,159189,1,0,0:0:0:0:
260,191,159328,1,8,0:0:0:0:
260,191,159468,1,0,0:0:0:0:
260,191,159607,1,8,0:0:0:0:
260,191,159747,1,0,0:0:0:0:
260,191,159886,1,12,0:0:0:0:
260,191,160165,1,0,0:0:0:0:
260,191,160305,1,0,0:0:0:0:
260,191,160445,1,12,0:0:0:0:
260,191,160724,1,0,0:0:0:0:
260,191,160863,1,12,0:0:0:0:
260,191,161142,1,0,0:0:0:0:
260,191,161282,1,0,0:0:0:0:
260,191,161421,1,8,0:0:0:0:
260,191,161561,1,0,0:0:0:0:
260,191,161700,1,0,0:0:0:0:
260,191,161840,1,8,0:0:0:0:
260,191,161979,1,0,0:0:0:0:
260,191,162119,1,0,0:0:0:0:
260,191,162258,1,8,0:0:0:0:
260,191,162398,1,0,0:0:0:0:
260,191,162468,1,0,0:0:0:0:
260,191,162538,1,0,0:0:0:0:
260,191,162677,1,0,0:0:0:0:
260,191,162817,1,0,0:0:0:0:
260,191,163096,1,12,0:0:0:0:
260,191,163375,1,8,0:0:0:0:
260,191,163654,1,8,0:0:0:0:
260,191,163793,1,4,0:0:0:0:
260,191,164072,1,8,0:0:0:0:
260,191,164352,1,4,0:0:0:0:
260,191,164631,1,8,0:0:0:0:
260,191,164770,1,4,0:0:0:0:
260,191,165049,1,8,0:0:0:0:
260,191,165328,1,4,0:0:0:0:
260,191,165607,1,8,0:0:0:0:
260,191,165886,1,8,0:0:0:0:
260,191,166026,1,4,0:0:0:0:
260,191,166305,1,8,0:0:0:0:
260,191,166584,1,4,0:0:0:0:
260,191,166863,1,8,0:0:0:0:
260,191,167003,1,0,0:0:0:0:
260,191,167142,1,8,0:0:0:0:
260,191,167282,1,0,0:0:0:0:
260,191,167421,1,8,0:0:0:0:
260,191,167561,1,4,0:0:0:0:
260,191,167840,1,8,0:0:0:0:
260,191,168119,1,8,0:0:0:0:
260,191,168258,1,4,0:0:0:0:
260,191,168538,1,8,0:0:0:0:
260,191,168817,1,4,0:0:0:0:
260,191,169096,1,8,0:0:0:0:
260,191,169235,1,4,0:0:0:0:
260,191,169514,1,8,0:0:0:0:
260,191,169793,1,4,0:0:0:0:
260,191,170072,1,8,0:0:0:0:
260,191,170352,1,8,0:0:0:0:
260,191,170491,1,4,0:0:0:0:
260,191,170770,1,8,0:0:0:0:
260,191,171049,1,8,0:0:0:0:
260,191,171189,1,0,0:0:0:0:
260,191,171328,1,8,0:0:0:0:
260,191,171468,1,0,0:0:0:0:
260,191,171607,1,8,0:0:0:0:
260,191,171747,1,0,0:0:0:0:
260,191,172026,1,12,0:0:0:0:
260,191,172445,1,8,0:0:0:0:
260,191,172584,1,0,0:0:0:0:
260,191,172724,1,8,0:0:0:0:
260,191,172793,1,8,0:0:0:0:
260,191,172863,1,8,0:0:0:0:
260,191,173003,1,0,0:0:0:0:
260,191,173142,1,0,0:0:0:0:
260,191,173282,1,8,0:0:0:0:
260,191,173352,1,8,0:0:0:0:
260,191,173421,1,8,0:0:0:0:
260,191,173561,1,0,0:0:0:0:
260,191,173700,1,0,0:0:0:0:
260,191,173840,1,8,0:0:0:0:
260,191,173910,1,8,0:0:0:0:
260,191,173979,1,8,0:0:0:0:
260,191,174119,1,0,0:0:0:0:
260,191,174258,1,12,0:0:0:0:
260,191,174677,1,8,0:0:0:0:
260,191,174817,1,0,0:0:0:0:
260,191,174956,1,8,0:0:0:0:
260,191,175096,1,0,0:0:0:0:
260,191,175165,1,0,0:0:0:0:
260,191,175235,1,0,0:0:0:0:
260,191,175375,1,0,0:0:0:0:
260,191,175514,1,12,0:0:0:0:
260,191,175793,1,8,0:0:0:0:
260,191,175933,1,0,0:0:0:0:
260,191,176072,1,12,0:0:0:0:
260,191,176352,1,0,0:0:0:0:
260,191,176491,1,12,0:0:0:0:
260,191,176910,1,8,0:0:0:0:
260,191,177049,1,0,0:0:0:0:
260,191,177189,1,8,0:0:0:0:
260,191,177328,1,8,0:0:0:0:
260,191,177398,1,8,0:0:0:0:
260,191,177468,1,8,0:0:0:0:
260,191,177607,1,0,0:0:0:0:
260,191,177747,1,8,0:0:0:0:
260,191,177817,1,8,0:0:0:0:
260,191,177886,1,8,0:0:0:0:
260,191,178026,1,0,0:0:0:0:
260,191,178165,1,0,0:0:0:0:
260,191,178305,1,8,0:0:0:0:
260,191,178375,1,8,0:0:0:0:
260,191,178445,1,8,0:0:0:0:
260,191,178584,1,0,0:0:0:0:
260,191,178724,1,12,0:0:0:0:
260,191,179142,1,8,0:0:0:0:
260,191,179282,1,0,0:0:0:0:
260,191,179421,1,8,0:0:0:0:
260,191,179561,1,8,0:0:0:0:
260,191,179631,1,8,0:0:0:0:
260,191,179700,1,8,0:0:0:0:
260,191,179840,1,0,0:0:0:0:
260,191,179979,1,12,0:0:0:0:
260,191,180258,1,8,0:0:0:0:
260,191,180398,1,0,0:0:0:0:
260,191,180538,1,12,0:0:0:0:
260,191,180817,1,0,0:0:0:0:
260,191,180956,1,12,0:0:0:0:
260,191,181375,1,8,0:0:0:0:
260,191,181514,1,0,0:0:0:0:
260,191,181654,1,8,0:0:0:0:
260,191,181724,1,8,0:0:0:0:
260,191,181793,1,8,0:0:0:0:
260,191,181933,1,8,0:0:0:0:
260,191,182072,1,0,0:0:0:0:
260,191,182212,1,8,0:0:0:0:
260,191,182282,1,8,0:0:0:0:
260,191,182352,1,8,0:0:0:0:
260,191,182491,1,0,0:0:0:0:
260,191,182631,1,0,0:0:0:0:
260,191,182770,1,8,0:0:0:0:
260,191,182840,1,8,0:0:0:0:
260,191,182910,1,8,0:0:0:0:
260,191,183049,1,0,0:0:0:0:
260,191,183189,1,12,0:0:0:0:
260,191,183607,1,8,0:0:0:0:
260,191,183747,1,0,0:0:0:0:
260,191,183886,1,8,0:0:0:0:
260,191,183956,1,8,0:0:0:0:
260,191,184026,1,8,0:0:0:0:
260,191,184165,1,8,0:0:0:0:
260,191,184305,1,0,0:0:0:0:
260,191,184445,1,12,0:0:0:0:
260,191,184724,1,8,0:0:0:0:
260,191,184863,1,0,0:0:0:0:
260,191,185003,1,12,0:0:0:0:
260,191,185282,1,0,0:0:0:0:
260,191,185421,1,12,0:0:0:0:
260,191,185840,1,8,0:0:0:0:
260,191,185979,1,0,0:0:0:0:
260,191,186119,1,8,0:0:0:0:
260,191,186258,1,8,0:0:0:0:
260,191,186328,1,8,0:0:0:0:
260,191,186398,1,8,0:0:0:0:
260,191,186538,1,0,0:0:0:0:
260,191,186677,1,8,0:0:0:0:
260,191,186747,1,8,0:0:0:0:
260,191,186817,1,8,0:0:0:0:
260,191,186956,1,0,0:0:0:0:
260,191,187096,1,0,0:0:0:0:
260,191,187235,1,8,0:0:0:0:
260,191,187305,1,8,0:0:0:0:
260,191,187375,1,8,0:0:0:0:
260,191,187514,1,0,0:0:0:0:
260,191,187654,1,12,0:0:0:0:
260,191,188072,1,8,0:0:0:0:
260,191,188212,1,8,0:0:0:0:
260,191,188352,1,8,0:0:0:0:
260,191,188491,1,0,0:0:0:0:
260,191,188631,1,8,0:0:0:0:
260,191,188770,1,0,0:0:0:0:
260,191,188910,1,12,0:0:0:0:
260,191,189189,1,8,0:0:0:0:
260,191,189328,1,8,0:0:0:0:
260,191,189468,1,12,0:0:0:0:
260,191,189747,1,0,0:0:0:0:
260,191,189886,1,12,0:0:0:0:
260,191,190305,1,8,0:0:0:0:
260,191,190445,1,0,0:0:0:0:
260,191,190584,1,8,0:0:0:0:
260,191,190654,1,8,0:0:0:0:
260,191,190724,1,8,0:0:0:0:
260,191,190863,1,8,0:0:0:0:
260,191,191003,1,0,0:0:0:0:
260,191,191142,1,0,0:0:0:0:
260,191,191212,1,0,0:0:0:0:
260,191,191282,1,0,0:0:0:0:
260,191,191421,1,8,0:0:0:0:
260,191,191561,1,0,0:0:0:0:
260,191,191700,1,8,0:0:0:0:
260,191,191770,1,8,0:0:0:0:
260,191,191840,1,8,0:0:0:0:
260,191,191979,1,0,0:0:0:0:
260,191,192119,1,12,0:0:0:0:
260,191,192538,1,8,0:0:0:0:
260,191,192677,1,0,0:0:0:0:
260,191,192817,1,8,0:0:0:0:
260,191,192956,1,0,0:0:0:0:
260,191,193026,1,0,0:0:0:0:
260,191,193096,1,0,0:0:0:0:
260,191,193235,1,0,0:0:0:0:
260,191,193375,1,12,0:0:0:0:
260,191,193654,1,8,0:0:0:0:
260,191,193793,1,0,0:0:0:0:
260,191,193933,1,12,0:0:0:0:
260,191,194212,1,0,0:0:0:0:
260,191,194352,1,12,0:0:0:0:
260,191,194770,1,8,0:0:0:0:
260,191,194910,1,0,0:0:0:0:
260,191,195049,1,8,0:0:0:0:
260,191,195119,1,8,0:0:0:0:
260,191,195189,1,8,0:0:0:0:
260,191,195328,1,8,0:0:0:0:
260,191,195468,1,0,0:0:0:0:
260,191,195607,1,0,0:0:0:0:
260,191,195677,1,0,0:0:0:0:
260,191,195747,1,0,0:0:0:0:
260,191,195886,1,8,0:0:0:0:
260,191,196026,1,0,0:0:0:0:
260,191,196165,1,8,0:0:0:0:
260,191,196235,1,8,0:0:0:0:
260,191,196305,1,8,0:0:0:0:
260,191,196445,1,0,0:0:0:0:
260,191,196584,1,12,0:0:0:0:
260,191,197003,1,8,0:0:0:0:
260,191,197142,1,0,0:0:0:0:
260,191,197282,1,8,0:0:0:0:
260,191,197421,1,8,0:0:0:0:
260,191,197491,1,8,0:0:0:0:
260,191,197561,1,8,0:0:0:0:
260,191,197700,1,0,0:0:0:0:
260,191,197840,1,12,0:0:0:0:
260,191,198119,1,8,0:0:0:0:
260,191,198258,1,0,0:0:0:0:
260,191,198398,1,12,0:0:0:0:
260,191,198677,1,0,0:0:0:0:
260,191,198817,1,12,0:0:0:0:
260,191,199235,1,8,0:0:0:0:
260,191,199375,1,0,0:0:0:0:
260,191,199514,1,8,0:0:0:0:
260,191,199584,1,8,0:0:0:0:
260,191,199654,1,8,0:0:0:0:
260,191,199793,1,8,0:0:0:0:
260,191,199933,1,0,0:0:0:0:
260,191,200072,1,0,0:0:0:0:
260,191,200142,1,0,0:0:0:0:
260,191,200212,1,0,0:0:0:0:
260,191,200352,1,8,0:0:0:0:
260,191,200491,1,0,0:0:0:0:
260,191,200631,1,8,0:0:0:0:
260,191,200700,1,8,0:0:0:0:
260,191,200770,1,8,0:0:0:0:
260,191,200910,1,0,0:0:0:0:
260,191,201049,1,12,0:0:0:0:
260,191,201468,1,8,0:0:0:0:
260,191,201607,1,0,0:0:0:0:
260,191,201747,1,8,0:0:0:0:
260,191,201886,1,8,0:0:0:0:
260,191,201956,1,8,0:0:0:0:
260,191,202026,1,8,0:0:0:0:
260,191,202165,1,0,0:0:0:0:
260,191,202305,1,12,0:0:0:0:
260,191,202584,1,8,0:0:0:0:
260,191,202724,1,0,0:0:0:0:
260,191,202863,1,12,0:0:0:0:
260,191,203142,1,0,0:0:0:0:
260,191,203282,1,12,0:0:0:0:
260,191,203700,1,0,0:0:0:0:
260,191,203770,1,0,0:0:0:0:
260,191,203840,1,0,0:0:0:0:
260,191,203979,1,8,0:0:0:0:
260,191,204049,1,8,0:0:0:0:
260,191,204119,1,8,0:0:0:0:
260,191,204258,1,0,0:0:0:0:
260,191,204328,1,0,0:0:0:0:
260,191,204398,1,0,0:0:0:0:
260,191,204538,1,8,0:0:0:0:
260,191,204817,1,8,0:0:0:0:
260,191,204956,1,0,0:0:0:0:
260,191,205096,1,8,0:0:0:0:
260,191,205375,1,0,0:0:0:0:
260,191,205514,1,12,0:0:0:0:
260,191,205933,1,0,0:0:0:0:
260,191,206003,1,0,0:0:0:0:
260,191,206072,1,0,0:0:0:0:
260,191,206212,1,8,0:0:0:0:
260,191,206282,1,8,0:0:0:0:
260,191,206352,1,8,0:0:0:0:
260,191,206491,1,0,0:0:0:0:
260,191,206561,1,0,0:0:0:0:
260,191,206631,1,0,0:0:0:0:
260,191,206770,1,12,0:0:0:0:
260,191,207049,1,8,0:0:0:0:
260,191,207189,1,0,0:0:0:0:
260,191,207328,1,12,0:0:0:0:
260,191,207607,1,0,0:0:0:0:
260,191,207747,1,12,0:0:0:0:
260,191,208305,1,0,0:0:0:0:
260,191,208445,1,8,0:0:0:0:
260,191,208584,1,0,0:0:0:0:
260,191,208724,1,8,0:0:0:0:
260,191,209003,1,4,0:0:0:0:
260,191,209421,1,0,0:0:0:0:
260,191,209491,1,0,0:0:0:0:
260,191,209561,1,0,0:0:0:0:
260,191,209700,1,8,0:0:0:0:
260,191,209840,1,8,0:0:0:0:
260,191,209979,1,4,0:0:0:0:
260,191,210258,1,8,0:0:0:0:
260,191,210538,1,0,0:0:0:0:
260,191,210677,1,8,0:0:0:0:
260,191,210956,1,8,0:0:0:0:
260,191,211235,1,4,0:0:0:0:
260,191,211514,1,8,0:0:0:0:
260,191,211654,1,0,0:0:0:0:
260,191,211793,1,8,0:0:0:0:
260,191,211863,1,8,0:0:0:0:
260,191,211933,1,8,0:0:0:0:
260,191,212072,1,0,0:0:0:0:
260,191,212212,1,8,0:0:0:0:
260,191,212631,1,12,0:0:0:0:
260,191,212770,1,0,0:0:0:0:
260,191,212910,1,0,0:0:0:0:
260,191,213049,1,12,0:0:0:0:
260,191,213189,1,0,0:0:0:0:
260,191,213328,1,0,0:0:0:0:
260,191,213468,1,12,0:0:0:0:
