osu file format v14

[General]
AudioFilename: audio.mp3
AudioLeadIn: 0
PreviewTime: 2506
Countdown: 0
SampleSet: None
StackLeniency: 0.7
Mode: 2
LetterboxInBreaks: 0
WidescreenStoryboard: 1

[Editor]
Bookmarks: 19976,22800,25623,31270,36917,42564,45741,46800
DistanceSpacing: 0.8
BeatDivisor: 4
GridSize: 8
TimelineZoom: 2.599999

[Metadata]
Title:lancer from deltarune raps
TitleUnicode:lancer from deltarune raps
Artist:Galactic Hole
ArtistUnicode:Galactic Hole
Creator:_wwwww
Version:Lancer
Source:Deltarune
Tags:Mashup toby fox vs. lancer tech n9ne speed of sound claustrophobia spongebob
BeatmapID:1848168
BeatmapSetID:884156

[Difficulty]
HPDrainRate:5
CircleSize:4.3
OverallDifficulty:10
ApproachRate:9.7
SliderMultiplier:2.6
SliderTickRate:1

[Events]
//Background and Video events
0,0,"Lancer.png",0,0
//Break Periods
//Storyboard Layer 0 (Background)
//Storyboard Layer 1 (Fail)
//Storyboard Layer 2 (Pass)
//Storyboard Layer 3 (Foreground)
//Storyboard Sound Samples

[TimingPoints]
212,352.941176470588,4,2,0,45,1,0
35506,-33.3333333333333,4,2,0,45,0,0
36211,-100,4,2,0,45,0,0
44682,-33.3333333333333,4,2,0,45,0,0
45035,-100,4,2,0,45,0,0

[HitObjects]
144,264,212,5,0,0:0:0:0:
97,205,300,1,0,0:0:0:0:
116,133,388,1,0,0:0:0:0:
185,106,476,1,0,0:0:0:0:
352,80,564,5,0,0:0:0:0:
416,116,652,1,0,0:0:0:0:
415,190,740,1,0,0:0:0:0:
351,226,828,1,0,0:0:0:0:
80,264,917,2,0,L|160:256,1,65
360,208,1094,2,0,L|248:192,1,65
128,112,1270,5,0,0:0:0:0:
69,157,1358,1,0,0:0:0:0:
76,231,1446,1,0,0:0:0:0:
142,264,1534,1,0,0:0:0:0:
384,304,1623,6,0,L|480:296,1,65
248,248,1800,2,0,L|160:232,1,65
408,144,1976,2,0,L|304:128,1,65
136,64,2153,2,0,L|232:56,1,65
440,144,2506,6,0,L|432:232,1,65
352,272,2682,2,0,L|272:328,1,65
192,312,2859,2,0,L|96:312,1,65
440,144,3035,6,0,L|446:249,1,65
387,175,3211,2,0,L|455:215,1,65
135,192,3388,2,0,L|71:200,3,65
216,184,3741,2,0,L|224:120,1,65
136,192,3917,2,0,L|128:128,1,65
384,120,4094,6,0,L|464:128,1,65
368,216,4270,2,0,L|448:208,1,65
325,242,4447,2,0,L|333:314,1,65
368,216,4623,2,0,L|448:224,1,65
120,160,4800,6,0,L|24:168,1,65
304,312,4976,2,0,L|312:240,1,65
224,248,5153,2,0,L|208:168,1,65
384,96,5329,2,0,L|464:104,1,65
256,40,5506,2,0,L|176:48,1,65
288,72,5682,2,0,L|304:152,1,65
128,160,5859,2,0,L|16:168,1,65
392,216,6035,6,0,L|408:296,1,65
288,256,6211,2,0,L|256:312,1,65
144,288,6388,2,0,L|56:304,1,65
408,120,6564,2,0,L|448:200,1,65
320,192,6741,2,0,L|240:224,1,65
112,216,6917,2,0,L|40:216,1,65
472,56,7094,6,0,L|528:120,1,65
288,128,7270,2,0,L|224:144,1,65
64,144,7447,2,0,L|-16:128,1,65
432,272,7623,2,0,L|512:256,1,65
88,296,7800,5,0,0:0:0:0:
32,256,7888,1,0,0:0:0:0:
96,240,7976,1,0,0:0:0:0:
160,224,8064,1,0,0:0:0:0:
464,272,8153,6,0,L|448:176,1,65
280,192,8329,2,0,L|248:120,1,65
360,88,8506,2,0,L|280:72,1,65
88,72,8682,2,0,L|72:160,1,65
368,320,8859,5,0,0:0:0:0:
368,287,8903,1,0,0:0:0:0:
368,255,8947,1,0,0:0:0:0:
144,224,9035,1,0,0:0:0:0:
144,191,9079,1,0,0:0:0:0:
144,159,9123,1,0,0:0:0:0:
338,97,9211,6,0,L|426:81,1,65
344,160,9388,2,0,L|424:144,1,65
144,159,9564,2,0,L|72:144,1,65
344,160,9741,2,0,L|360:248,1,65
256,256,9917,2,0,L|176:264,1,65
448,304,10094,2,0,L|456:224,1,65
395,265,10270,2,0,L|475:229,1,65
72,272,10447,6,0,L|168:264,1,65
392,72,10623,2,0,L|408:152,1,65
296,128,10800,2,0,L|288:192,1,65
96,120,10976,2,0,L|24:112,1,65
256,200,11153,2,0,L|352:192,1,65
96,296,11329,2,0,L|200:312,1,65
448,328,11506,6,0,L|456:248,1,65
120,168,11682,2,0,L|24:152,1,65
120,112,11859,2,0,L|48:104,1,65
376,112,12035,2,0,L|448:96,1,65
256,264,12211,2,0,L|192:312,1,65
384,240,12388,2,0,L|312:296,1,65
136,112,12564,2,0,L|40:88,1,65
184,168,12741,6,0,L|192:240,1,65
384,240,12917,2,0,L|456:248,1,65
344,176,13094,2,0,L|272:96,1,65
64,288,13270,2,0,L|136:272,1,65
384,240,13447,1,0,0:0:0:0:
459,236,13535,1,0,0:0:0:0:
384,240,13623,1,0,0:0:0:0:
309,246,13711,1,0,0:0:0:0:
88,216,13800,6,0,L|80:128,1,65
256,104,13976,2,0,L|328:104,1,65
216,152,14153,2,0,L|208:240,1,65
392,176,14329,6,0,L|472:166,1,65
130,231,14506,1,0,0:0:0:0:
58,215,14594,1,0,0:0:0:0:
138,223,14682,1,0,0:0:0:0:
66,207,14770,1,0,0:0:0:0:
349,266,14859,1,0,0:0:0:0:
232,272,15035,6,0,L|160:262,1,65
416,96,15212,1,0,0:0:0:0:
488,80,15300,1,0,0:0:0:0:
408,88,15388,1,0,0:0:0:0:
480,72,15476,1,0,0:0:0:0:
232,136,15565,1,0,0:0:0:0:
368,192,15741,6,0,L|432:208,1,65
304,256,15917,2,0,L|240:272,1,65
32,208,16094,2,0,L|72:144,1,65
144,136,16270,2,0,L|216:136,1,65
440,192,16447,6,0,L|512:200,1,65
200,272,16623,1,0,0:0:0:0:
272,256,16711,1,0,0:0:0:0:
192,264,16800,1,0,0:0:0:0:
264,248,16888,1,0,0:0:0:0:
48,288,16976,1,0,0:0:0:0:
182,93,17153,6,0,L|326:102,1,130
268,158,17417,2,0,L|136:216,1,130
317,219,17682,2,0,L|168:278,1,130
287,273,17917,2,0,L|404:394,1,130
51,253,18211,1,0,0:0:0:0:
197,261,18388,1,0,0:0:0:0:
101,190,18564,6,0,L|274:181,1,130
306,119,18829,2,0,L|153:108,1,130
382,196,19094,2,0,L|525:208,1,130
426,307,19359,2,0,L|511:207,1,130
169,299,19623,1,0,0:0:0:0:
302,232,19800,1,0,0:0:0:0:
170,109,19976,6,0,L|246:113,1,65
301,116,20153,1,0,0:0:0:0:
117,184,20329,2,0,L|23:195,2,65
463,216,20682,1,0,0:0:0:0:
340,301,20859,6,0,L|383:223,1,65
118,183,21035,2,0,L|56:143,1,65
180,112,21211,2,0,L|237:67,1,65
421,64,21388,2,0,L|501:65,1,65
482,119,21564,2,0,L|391:118,1,65
113,218,21741,2,0,L|44:216,1,65
378,174,21917,2,0,L|446:176,1,65
113,218,22094,1,0,0:0:0:0:
272,274,22270,6,0,L|118:294,2,130
256,192,22800,12,0,24035,0:0:0:0:
358,194,24211,5,0,0:0:0:0:
33,194,24564,1,0,0:0:0:0:
218,194,24741,1,0,0:0:0:0:
336,194,24829,1,0,0:0:0:0:
453,194,24917,5,0,0:0:0:0:
310,82,25094,6,0,L|477:94,1,130
56,67,25447,1,0,0:0:0:0:
188,146,25623,6,0,L|266:153,1,65
162,163,25800,2,0,L|101:216,1,65
397,233,25976,2,0,L|277:353,1,130
472,331,26241,1,0,0:0:0:0:
325,131,26329,2,0,L|489:149,1,130
55,104,26682,1,0,0:0:0:0:
382,133,27035,5,0,0:0:0:0:
238,183,27211,1,0,0:0:0:0:
415,227,27388,1,0,0:0:0:0:
142,288,27564,1,0,0:0:0:0:
488,324,27741,1,0,0:0:0:0:
36,146,27917,1,0,0:0:0:0:
511,41,28094,1,0,0:0:0:0:
153,48,28447,5,0,0:0:0:0:
275,136,28623,2,0,L|163:135,1,65
415,190,28800,2,0,L|477:242,1,65
358,263,28976,2,0,L|274:272,1,65
74,254,29153,2,0,L|69:176,1,65
353,135,29329,2,0,L|264:123,1,65
81,103,29506,2,0,L|157:91,1,65
354,136,29682,2,0,L|427:148,1,65
239,223,29859,6,0,L|236:303,1,65
36,188,30035,2,0,L|27:109,1,65
251,137,30211,2,0,L|260:61,1,65
471,168,30388,2,0,L|478:242,1,65
200,249,30564,2,0,L|97:251,1,65
406,162,30741,2,0,L|482:169,1,65
74,76,30917,1,0,0:0:0:0:
239,42,31270,5,0,0:0:0:0:
414,107,31447,2,0,L|316:112,1,65
276,142,31623,2,0,L|387:146,1,65
430,158,31800,2,0,L|439:243,1,65
89,254,31976,1,0,0:0:0:0:
183,191,32153,6,0,L|97:187,1,65
191,134,32329,2,0,L|119:131,1,65
199,70,32506,2,0,L|279:70,1,65
497,258,32682,1,0,0:0:0:0:
366,309,32859,6,0,L|429:288,1,65
191,294,33035,2,0,L|120:256,1,65
319,208,33211,2,0,L|325:141,1,65
242,116,33388,1,0,0:0:0:0:
407,85,33565,1,0,0:0:0:0:
18,292,33741,1,0,0:0:0:0:
183,189,34094,5,0,0:0:0:0:
91,107,34270,2,0,L|182:112,1,65
350,72,34447,2,0,L|454:86,1,65
340,126,34623,2,0,L|422:138,1,65
326,179,34800,2,0,L|399:188,1,65
228,239,34976,2,0,L|328:251,1,65
93,301,35153,2,0,L|193:318,1,65
399,301,35329,2,0,L|311:316,1,65
60,92,35506,6,0,L|551:133,1,390.00001487732
44,196,35859,1,0,0:0:0:0:
441,127,36035,1,0,0:0:0:0:
117,124,36211,6,0,P|71:208|194:263,1,260
380,197,36917,5,0,0:0:0:0:
251,107,37094,2,0,L|368:116,1,65
113,326,37270,2,0,L|253:216,1,130
19,218,37535,1,0,0:0:0:0:
215,245,37623,2,0,L|387:273,1,130
38,101,37976,1,0,0:0:0:0:
191,128,38329,5,0,0:0:0:0:
327,168,38506,1,0,0:0:0:0:
151,222,38682,1,0,0:0:0:0:
418,276,38859,1,0,0:0:0:0:
78,177,39035,1,0,0:0:0:0:
464,93,39211,1,0,0:0:0:0:
47,354,39388,1,0,0:0:0:0:
244,269,39741,5,0,0:0:0:0:
124,208,39917,2,0,L|216:198,1,65
430,142,40094,2,0,L|335:135,1,65
433,186,40270,2,0,L|341:180,1,65
66,207,40447,6,0,L|62:294,1,65
273,307,40623,2,0,L|344:299,1,65
146,127,40800,2,0,L|69:117,1,65
189,184,40976,2,0,L|192:262,1,65
433,188,41153,6,0,L|443:106,1,65
74,188,41329,2,0,L|56:94,1,65
379,190,41506,2,0,L|360:296,1,65
128,186,41682,2,0,L|138:259,1,65
417,78,41859,2,0,L|336:77,1,65
96,78,42035,2,0,L|183:78,1,65
454,173,42211,1,0,0:0:0:0:
292,273,42564,5,0,0:0:0:0:
117,273,42741,2,0,L|196:266,1,65
108,213,42917,2,0,L|185:207,1,65
101,154,43094,1,0,0:0:0:0:
401,62,43270,5,0,0:0:0:0:
266,119,43447,2,0,L|260:185,1,65
355,168,43623,2,0,L|365:237,1,65
122,322,43800,1,0,0:0:0:0:
269,298,43976,5,0,0:0:0:0:
150,218,44153,2,0,L|81:213,1,65
162,159,44329,2,0,L|88:151,1,65
314,127,44506,2,0,L|235:120,1,65
456,224,44682,6,0,L|38:254,1,390.00001487732
456,224,45035,1,0,0:0:0:0:
66,252,45211,1,0,0:0:0:0:
316,75,45388,5,0,0:0:0:0:
375,79,45476,1,0,0:0:0:0:
429,102,45564,1,0,0:0:0:0:
453,162,45652,1,0,0:0:0:0:
456,224,45740,1,0,0:0:0:0:
387,237,45829,1,0,0:0:0:0:
319,248,45917,1,0,0:0:0:0:
251,257,46006,1,0,0:0:0:0:
34,280,46094,1,0,0:0:0:0:
