osu file format v14

[General]
AudioFilename: audio.mp3
AudioLeadIn: 0
PreviewTime: 2506
Countdown: 0
SampleSet: None
StackLeniency: 0.7
Mode: 2
LetterboxInBreaks: 0
WidescreenStoryboard: 1

[Editor]
Bookmarks: 19976,22800,25623,31270,36917,42564,45741,46800
DistanceSpacing: 0.8
BeatDivisor: 4
GridSize: 8
TimelineZoom: 2.599999

[Metadata]
Title:lancer from deltarune raps
TitleUnicode:lancer from deltarune raps
Artist:Galactic Hole
ArtistUnicode:Galactic Hole
Creator:_wwwww
Version:Kris
Source:Deltarune
Tags:Mashup toby fox vs. lancer tech n9ne speed of sound claustrophobia spongebob
BeatmapID:1854345
BeatmapSetID:884156

[Difficulty]
HPDrainRate:4
CircleSize:4
OverallDifficulty:10
ApproachRate:9.5
SliderMultiplier:2.2
SliderTickRate:1

[Events]
//Background and Video events
0,0,"fuking cringe.jpg",0,0
//Break Periods
//Storyboard Layer 0 (Background)
//Storyboard Layer 1 (Fail)
//Storyboard Layer 2 (Pass)
//Storyboard Layer 3 (Foreground)
//Storyboard Sound Samples

[TimingPoints]
212,352.941176470588,4,2,0,45,1,0

[HitObjects]
151,155,212,5,0,0:0:0:0:
105,198,300,1,0,0:0:0:0:
114,260,388,1,0,0:0:0:0:
169,289,476,1,0,0:0:0:0:
352,65,564,1,0,0:0:0:0:
404,99,652,1,0,0:0:0:0:
413,162,740,1,0,0:0:0:0:
373,210,828,1,0,0:0:0:0:
105,198,917,6,0,L|41:184,1,55
279,164,1094,2,0,L|349:138,1,55
155,79,1270,1,0,0:0:0:0:
105,98,1358,1,0,0:0:0:0:
84,147,1446,1,0,0:0:0:0:
104,197,1534,1,0,0:0:0:0:
355,288,1623,2,0,L|427:271,1,55
171,246,1800,2,0,L|81:232,1,55
311,173,1976,2,0,L|386:158,1,55
145,124,2153,2,0,L|82:114,1,55
341,233,2506,5,0,0:0:0:0:
189,278,2682,1,0,0:0:0:0:
24,324,2859,1,0,0:0:0:0:
411,70,3035,6,0,P|448:122|422:178,1,110
381,188,3300,1,0,0:0:0:0:
154,68,3388,1,0,0:0:0:0:
102,81,3476,1,0,0:0:0:0:
81,130,3564,1,0,0:0:0:0:
107,177,3652,1,0,0:0:0:0:
286,190,3741,5,0,0:0:0:0:
296,242,3829,1,0,0:0:0:0:
270,289,3917,1,0,0:0:0:0:
219,307,4005,1,0,0:0:0:0:
447,291,4094,2,0,L|512:287,1,55
286,190,4270,2,0,L|285:118,1,55
445,293,4447,5,0,0:0:0:0:
461,241,4535,1,0,0:0:0:0:
447,188,4623,1,0,0:0:0:0:
408,151,4711,1,0,0:0:0:0:
172,113,4800,2,0,L|98:107,1,55
351,140,4976,1,0,0:0:0:0:
392,175,5064,1,0,0:0:0:0:
403,227,5152,1,0,0:0:0:0:
380,276,5240,1,0,0:0:0:0:
171,114,5329,6,0,L|94:107,1,55
351,140,5506,2,0,L|412:129,1,55
202,222,5682,2,0,L|135:241,1,55
380,276,5859,2,0,L|473:293,1,55
202,222,6035,6,0,L|80:209,2,110
394,126,6564,2,0,L|254:140,2,110
43,62,7094,2,0,L|166:79,2,110
449,270,7623,1,0,0:0:0:0:
71,319,7800,1,0,0:0:0:0:
348,215,8153,6,0,L|430:200,1,55
306,176,8329,2,0,L|216:151,1,55
356,147,8506,2,0,L|419:134,1,55
55,93,8682,1,0,0:0:0:0:
164,184,8859,5,0,0:0:0:0:
164,211,8903,1,0,0:0:0:0:
165,238,8947,1,0,0:0:0:0:
247,238,9035,1,0,0:0:0:0:
247,265,9079,1,0,0:0:0:0:
248,292,9123,1,0,0:0:0:0:
309,333,9211,6,0,L|315:278,1,55
111,298,9388,1,0,0:0:0:0:
67,266,9476,1,0,0:0:0:0:
61,213,9564,1,0,0:0:0:0:
97,173,9652,1,0,0:0:0:0:
303,120,9741,6,0,L|372:112,1,55
156,63,9917,2,0,L|67:44,1,55
301,121,10094,1,0,0:0:0:0:
316,172,10182,1,0,0:0:0:0:
296,223,10270,1,0,0:0:0:0:
250,251,10358,1,0,0:0:0:0:
79,250,10447,2,0,L|6:240,1,55
250,251,10623,5,0,0:0:0:0:
302,237,10711,1,0,0:0:0:0:
331,192,10799,1,0,0:0:0:0:
320,139,10887,1,0,0:0:0:0:
155,76,10976,2,0,L|88:65,1,55
331,59,11153,2,0,L|395:46,1,55
217,168,11329,2,0,L|125:189,1,55
407,213,11506,6,0,L|412:278,1,55
85,297,11682,2,0,L|82:222,1,55
159,232,11859,2,0,L|157:167,1,55
373,72,12035,2,0,L|375:139,1,55
159,232,12211,2,0,L|152:304,1,55
233,282,12388,2,0,L|226:349,1,55
421,235,12564,1,0,0:0:0:0:
463,195,12652,1,0,0:0:0:0:
456,138,12740,1,0,0:0:0:0:
403,108,12828,1,0,0:0:0:0:
96,85,12917,5,0,0:0:0:0:
48,123,13005,1,0,0:0:0:0:
49,177,13093,1,0,0:0:0:0:
96,208,13181,1,0,0:0:0:0:
294,188,13270,2,0,L|359:183,1,55
96,208,13447,1,0,0:0:0:0:
73,161,13535,1,0,0:0:0:0:
96,114,13623,1,0,0:0:0:0:
147,99,13711,1,0,0:0:0:0:
390,95,13800,6,0,L|288:56,2,110
115,233,14329,2,0,L|19:254,1,55
180,300,14506,1,0,0:0:0:0:
218,261,14594,1,0,0:0:0:0:
222,208,14682,1,0,0:0:0:0:
190,164,14770,1,0,0:0:0:0:
138,151,14858,1,0,0:0:0:0:
438,198,15035,6,0,L|515:209,1,55
402,117,15211,1,0,0:0:0:0:
351,136,15299,1,0,0:0:0:0:
327,184,15387,1,0,0:0:0:0:
341,236,15475,1,0,0:0:0:0:
386,265,15563,1,0,0:0:0:0:
151,90,15741,6,0,L|82:82,1,55
183,130,15917,2,0,L|191:200,1,55
17,266,16094,2,0,L|76:312,1,55
129,277,16270,1,0,0:0:0:0:
385,222,16447,6,0,L|464:207,1,55
325,154,16623,1,0,0:0:0:0:
286,191,16711,1,0,0:0:0:0:
281,245,16799,1,0,0:0:0:0:
310,290,16887,1,0,0:0:0:0:
362,306,16975,1,0,0:0:0:0:
158,254,17153,6,0,L|111:120,1,110
217,130,17417,2,0,L|89:103,1,110
207,70,17682,2,0,L|304:58,1,55
484,37,17859,1,0,0:0:0:0:
379,127,18035,6,0,L|380:224,1,55
168,196,18211,1,0,0:0:0:0:
291,194,18388,1,0,0:0:0:0:
134,288,18564,6,0,L|274:348,1,110
340,301,18829,2,0,L|198:341,1,110
311,237,19094,2,0,L|458:252,1,110
344,172,19359,2,0,L|217:155,1,110
436,105,19623,1,0,0:0:0:0:
294,68,19800,1,0,0:0:0:0:
165,97,19976,5,0,0:0:0:0:
223,123,20064,1,0,0:0:0:0:
165,97,20152,1,0,0:0:0:0:
412,192,20329,1,0,0:0:0:0:
442,244,20417,1,0,0:0:0:0:
427,296,20505,1,0,0:0:0:0:
375,323,20593,1,0,0:0:0:0:
85,339,20682,1,0,0:0:0:0:
218,216,20859,6,0,L|98:226,2,110
472,37,21388,1,0,0:0:0:0:
471,95,21476,1,0,0:0:0:0:
436,147,21564,1,0,0:0:0:0:
387,164,21652,1,0,0:0:0:0:
157,130,21741,2,0,L|86:120,1,55
330,156,21917,5,0,0:0:0:0:
377,189,22005,1,0,0:0:0:0:
382,243,22093,1,0,0:0:0:0:
336,282,22181,1,0,0:0:0:0:
119,297,22270,6,0,L|46:283,1,55
265,226,22447,2,0,L|332:212,1,55
220,142,22623,2,0,L|161:131,1,55
256,192,22800,12,0,25270,0:0:0:0:
256,191,25447,5,0,0:0:0:0:
56,188,25623,1,0,0:0:0:0:
203,190,25800,2,0,L|206:249,1,55
415,276,25976,1,0,0:0:0:0:
445,232,26064,1,0,0:0:0:0:
430,181,26152,1,0,0:0:0:0:
381,162,26240,1,0,0:0:0:0:
137,143,26329,6,0,L|66:139,1,55
256,90,26506,2,0,L|310:82,1,55
139,276,26682,2,0,L|74:316,1,55
349,330,27035,5,0,0:0:0:0:
213,274,27211,2,0,L|204:197,1,55
448,169,27388,1,0,0:0:0:0:
312,127,27564,1,0,0:0:0:0:
448,169,27741,1,0,0:0:0:0:
271,231,27917,1,0,0:0:0:0:
448,169,28094,1,0,0:0:0:0:
127,89,28447,1,0,0:0:0:0:
295,294,28623,6,0,L|364:302,1,55
62,234,28800,2,0,L|58:163,1,55
142,169,28976,2,0,L|149:107,1,55
433,117,29153,2,0,L|505:154,1,55
386,185,29329,2,0,L|380:278,1,55
130,319,29506,2,0,L|66:327,1,55
323,265,29682,2,0,L|398:278,1,55
172,161,29859,6,0,L|105:146,1,55
212,115,30035,2,0,L|218:52,1,55
449,205,30211,2,0,L|456:273,1,55
286,273,30388,2,0,L|221:281,1,55
37,245,30564,2,0,L|40:182,1,55
221,134,30741,2,0,L|296:149,1,55
453,198,30917,2,0,L|456:268,1,55
192,323,31270,5,0,0:0:0:0:
350,237,31447,1,0,0:0:0:0:
354,181,31535,1,0,0:0:0:0:
294,151,31623,1,0,0:0:0:0:
374,123,31711,1,0,0:0:0:0:
378,65,31800,1,0,0:0:0:0:
62,119,31976,5,0,0:0:0:0:
180,177,32153,1,0,0:0:0:0:
131,199,32241,1,0,0:0:0:0:
115,250,32329,1,0,0:0:0:0:
142,296,32417,1,0,0:0:0:0:
194,307,32505,1,0,0:0:0:0:
441,287,32682,5,0,0:0:0:0:
308,221,32859,2,0,L|300:155,1,55
380,154,33035,2,0,L|382:97,1,55
294,72,33211,1,0,0:0:0:0:
43,191,33388,5,0,0:0:0:0:
310,221,33564,1,0,0:0:0:0:
26,126,33741,1,0,0:0:0:0:
301,323,34094,5,0,0:0:0:0:
146,240,34270,2,0,L|94:211,1,55
337,193,34447,1,0,0:0:0:0:
382,166,34535,1,0,0:0:0:0:
383,113,34623,1,0,0:0:0:0:
339,85,34711,1,0,0:0:0:0:
428,89,34800,1,0,0:0:0:0:
425,142,34888,1,0,0:0:0:0:
389,183,34976,1,0,0:0:0:0:
336,192,35064,1,0,0:0:0:0:
184,85,35153,5,0,0:0:0:0:
135,105,35241,1,0,0:0:0:0:
128,157,35329,1,0,0:0:0:0:
170,190,35417,1,0,0:0:0:0:
378,253,35506,2,0,L|437:274,1,55
104,313,35682,2,0,L|99:236,1,55
380,255,35859,2,0,L|386:166,1,55
151,145,36035,2,0,L|75:127,1,55
363,118,36211,2,0,P|441:175|351:251,1,220
122,190,36917,5,0,0:0:0:0:
245,214,37094,2,0,L|249:291,1,55
79,252,37270,1,0,0:0:0:0:
45,210,37358,1,0,0:0:0:0:
50,157,37446,1,0,0:0:0:0:
91,123,37534,1,0,0:0:0:0:
288,78,37623,2,0,L|358:84,1,55
170,149,37800,2,0,L|143:214,1,55
426,275,37976,1,0,0:0:0:0:
175,339,38329,5,0,0:0:0:0:
316,293,38506,2,0,L|303:222,1,55
67,196,38682,1,0,0:0:0:0:
200,123,38859,1,0,0:0:0:0:
67,196,39035,1,0,0:0:0:0:
256,235,39211,1,0,0:0:0:0:
67,196,39388,1,0,0:0:0:0:
316,47,39741,5,0,0:0:0:0:
161,110,39917,2,0,L|156:183,1,55
392,192,40094,2,0,L|397:251,1,55
478,240,40270,2,0,L|484:312,1,55
151,299,40447,2,0,L|144:232,1,55
57,254,40623,2,0,L|52:191,1,55
266,182,40800,6,0,L|271:120,1,55
183,129,40976,2,0,L|188:71,1,55
403,117,41153,2,0,L|482:120,1,55
266,182,41329,2,0,L|201:186,1,55
311,247,41506,2,0,L|305:333,1,55
61,252,41682,2,0,L|54:185,1,55
249,87,41859,2,0,L|328:82,1,55
109,61,42035,2,0,L|52:54,1,55
379,219,42211,1,0,0:0:0:0:
107,333,42564,5,0,0:0:0:0:
257,267,42741,1,0,0:0:0:0:
240,199,42829,1,0,0:0:0:0:
189,154,42917,1,0,0:0:0:0:
125,132,43005,1,0,0:0:0:0:
59,133,43094,1,0,0:0:0:0:
447,149,43270,5,0,0:0:0:0:
297,96,43447,1,0,0:0:0:0:
359,103,43535,1,0,0:0:0:0:
419,109,43623,1,0,0:0:0:0:
359,103,43711,1,0,0:0:0:0:
297,96,43800,1,0,0:0:0:0:
46,290,43976,5,0,0:0:0:0:
198,265,44153,2,0,L|266:243,1,55
98,192,44329,1,0,0:0:0:0:
71,145,44417,1,0,0:0:0:0:
90,95,44505,1,0,0:0:0:0:
140,76,44593,1,0,0:0:0:0:
349,103,44682,2,0,L|358:174,1,55
174,149,44859,2,0,L|181:208,1,55
373,261,45035,6,0,L|454:272,1,55
143,286,45211,2,0,L|71:304,1,55
373,263,45388,1,0,0:0:0:0:
445,247,45476,2,0,L|426:190,6,55
34,125,46094,1,0,0:0:0:0:
