osu file format v14

[General]
AudioFilename: audio.mp3
AudioLeadIn: 0
PreviewTime: 23293
Countdown: 0
SampleSet: Normal
StackLeniency: 0.7
Mode: 1
LetterboxInBreaks: 0
WidescreenStoryboard: 1

[Editor]
Bookmarks: 11993,23993,47993,71993,119993
DistanceSpacing: 2.8
BeatDivisor: 4
GridSize: 32
TimelineZoom: 3.149999

[Metadata]
Title:Katatsumuri o Tebanashimasu
TitleUnicode:カタツムリを手放します
Artist:Gakugaku
ArtistUnicode:がくがく
Creator:Ulqui
Version:Inner Oni
Source:
Tags:electronic instrumental experimental noise
BeatmapID:3715851
BeatmapSetID:1811324

[Difficulty]
HPDrainRate:6.5
CircleSize:6.5
OverallDifficulty:6.5
ApproachRate:6.5
SliderMultiplier:1.4
SliderTickRate:1

[Events]
//Background and Video events
0,0,"4927112_p0.jpg",0,-30
//Break Periods
//Storyboard Layer 0 (Background)
//Storyboard Layer 1 (Fail)
//Storyboard Layer 2 (Pass)
//Storyboard Layer 3 (Foreground)
//Storyboard Layer 4 (Overlay)
//Storyboard Sound Samples

[TimingPoints]
43,375,4,1,0,30,1,0
22543,-20,4,1,0,5,0,0
23293,-10000,4,1,0,50,0,0
23996,-100,4,1,0,70,0,0
24043,-100,4,1,0,70,0,1
48043,-100,4,1,0,70,0,0
48089,-100,4,1,0,30,0,0
70519,-20,4,1,0,5,0,0
71269,-10000,4,1,0,50,0,0
71972,-100,4,1,0,70,0,0
72043,-100,4,1,0,70,0,1
96043,-86.9565217391304,4,1,0,90,0,1
120043,-86.9565217391304,4,1,0,90,0,0
120136,-100,4,1,0,30,0,0

[HitObjects]
156,171,12043,5,0,0:0:0:0:
197,92,12230,1,0,0:0:0:0:
196,97,12418,1,2,0:0:0:0:
141,158,12605,1,0,0:0:0:0:
136,162,12699,1,0,0:0:0:0:
132,162,12793,1,0,0:0:0:0:
215,116,12886,1,0,0:0:0:0:
120,164,12980,1,2,0:0:0:0:
122,157,13168,1,2,0:0:0:0:
119,139,13543,1,0,0:0:0:0:
119,142,13730,1,2,0:0:0:0:
117,140,13918,1,0,0:0:0:0:
186,64,14011,1,2,0:0:0:0:
119,139,14199,1,0,0:0:0:0:
119,139,14293,1,2,0:0:0:0:
191,102,14386,1,0,0:0:0:0:
174,67,14574,1,2,0:0:0:0:
191,94,14668,1,0,0:0:0:0:
220,102,14855,1,0,0:0:0:0:
161,87,15043,1,2,0:0:0:0:
167,133,15418,1,2,0:0:0:0:
167,133,15605,1,0,0:0:0:0:
167,133,15699,1,0,0:0:0:0:
178,127,15793,1,0,0:0:0:0:
187,129,15886,1,0,0:0:0:0:
189,129,15980,1,2,0:0:0:0:
216,54,16168,1,0,0:0:0:0:
211,54,16261,1,2,0:0:0:0:
191,150,16449,1,2,0:0:0:0:
191,149,16543,1,0,0:0:0:0:
187,148,16730,1,2,0:0:0:0:
187,148,16918,1,0,0:0:0:0:
189,153,17011,1,2,0:0:0:0:
191,152,17199,1,0,0:0:0:0:
198,152,17293,1,2,0:0:0:0:
235,40,17386,1,0,0:0:0:0:
201,152,17480,1,0,0:0:0:0:
194,82,17668,1,2,0:0:0:0:
170,97,17855,1,0,0:0:0:0:
170,97,18043,1,0,0:0:0:0:
171,103,18418,1,2,0:0:0:0:
176,117,18605,1,0,0:0:0:0:
178,117,18699,1,0,0:0:0:0:
180,117,18793,1,0,0:0:0:0:
238,175,18886,1,0,0:0:0:0:
186,119,18980,1,2,0:0:0:0:
192,121,19168,1,2,0:0:0:0:
192,122,19355,1,0,0:0:0:0:
192,123,19543,1,0,0:0:0:0:
181,138,19730,1,2,0:0:0:0:
181,139,19918,1,2,0:0:0:0:
183,141,20011,1,2,0:0:0:0:
199,78,20199,1,0,0:0:0:0:
199,78,20293,1,2,0:0:0:0:
208,118,20480,1,0,0:0:0:0:
208,118,20574,1,0,0:0:0:0:
191,80,20761,1,2,0:0:0:0:
190,80,20855,1,0,0:0:0:0:
191,81,21043,1,2,0:0:0:0:
189,137,21418,1,2,0:0:0:0:
189,137,21605,1,0,0:0:0:0:
189,137,21699,1,0,0:0:0:0:
189,137,21793,1,0,0:0:0:0:
244,182,21886,1,0,0:0:0:0:
189,143,21980,1,2,0:0:0:0:
256,192,22543,12,0,22918,0:0:0:0:
256,192,23293,12,0,23855,0:0:0:0:
224,75,24043,5,0,0:0:0:0:
196,105,24136,1,0,0:0:0:0:
196,105,24230,1,2,0:0:0:0:
181,102,24324,1,0,0:0:0:0:
184,102,24418,1,0,0:0:0:0:
203,96,24511,1,2,0:0:0:0:
201,97,24605,1,0,0:0:0:0:
164,52,24699,1,2,0:0:0:0:
200,97,24793,1,2,0:0:0:0:
207,147,24980,1,2,0:0:0:0:
207,147,25074,1,0,0:0:0:0:
206,75,25168,1,0,0:0:0:0:
201,76,25261,1,2,0:0:0:0:
201,77,25355,1,0,0:0:0:0:
146,58,25449,1,2,0:0:0:0:
146,60,25543,1,0,0:0:0:0:
178,90,25730,1,2,0:0:0:0:
178,90,25824,1,0,0:0:0:0:
178,90,25918,1,0,0:0:0:0:
179,97,26011,1,2,0:0:0:0:
179,97,26105,1,2,0:0:0:0:
180,96,26199,1,0,0:0:0:0:
180,95,26293,1,2,0:0:0:0:
158,77,26480,1,2,0:0:0:0:
199,59,26668,1,2,0:0:0:0:
157,46,26761,1,2,0:0:0:0:
157,46,26855,1,0,0:0:0:0:
148,109,26949,1,0,0:0:0:0:
207,61,27043,1,0,0:0:0:0:
196,142,27230,1,2,0:0:0:0:
196,142,27324,1,0,0:0:0:0:
196,142,27418,1,0,0:0:0:0:
196,142,27511,1,2,0:0:0:0:
196,142,27605,1,0,0:0:0:0:
188,106,27699,1,2,0:0:0:0:
196,142,27793,1,2,0:0:0:0:
171,133,27980,1,2,0:0:0:0:
171,133,28074,1,0,0:0:0:0:
171,133,28168,1,0,0:0:0:0:
171,133,28261,1,2,0:0:0:0:
171,133,28355,1,0,0:0:0:0:
171,133,28449,1,2,0:0:0:0:
166,134,28543,1,0,0:0:0:0:
187,81,28730,1,2,0:0:0:0:
187,81,28824,1,0,0:0:0:0:
181,83,28918,1,0,0:0:0:0:
180,85,29011,1,2,0:0:0:0:
190,77,29105,1,2,0:0:0:0:
180,85,29199,1,0,0:0:0:0:
187,81,29293,1,2,0:0:0:0:
186,100,29480,1,0,0:0:0:0:
186,100,29574,1,2,0:0:0:0:
186,100,29668,1,2,0:0:0:0:
192,97,29855,1,2,0:0:0:0:
182,167,30043,1,0,0:0:0:0:
182,167,30136,1,0,0:0:0:0:
183,61,30230,1,2,0:0:0:0:
182,167,30324,1,0,0:0:0:0:
182,167,30418,1,0,0:0:0:0:
182,167,30511,1,2,0:0:0:0:
181,172,30605,1,0,0:0:0:0:
206,47,30699,1,2,0:0:0:0:
206,47,30793,1,2,0:0:0:0:
171,102,30980,1,2,0:0:0:0:
170,107,31074,1,0,0:0:0:0:
171,102,31168,1,0,0:0:0:0:
171,102,31261,1,2,0:0:0:0:
171,102,31355,1,2,0:0:0:0:
171,102,31449,1,2,0:0:0:0:
188,49,31543,1,0,0:0:0:0:
188,49,31730,1,2,0:0:0:0:
188,49,31824,1,0,0:0:0:0:
188,49,31918,1,0,0:0:0:0:
194,50,32011,1,2,0:0:0:0:
196,50,32105,1,2,0:0:0:0:
196,50,32199,1,0,0:0:0:0:
176,41,32293,1,2,0:0:0:0:
174,76,32480,1,2,0:0:0:0:
174,76,32668,1,2,0:0:0:0:
174,76,32761,1,2,0:0:0:0:
174,76,32855,1,0,0:0:0:0:
168,89,32949,1,0,0:0:0:0:
184,41,33043,1,0,0:0:0:0:
147,168,33230,1,2,0:0:0:0:
141,161,33324,1,0,0:0:0:0:
147,168,33418,1,0,0:0:0:0:
147,168,33511,1,2,0:0:0:0:
142,161,33605,1,0,0:0:0:0:
147,168,33699,1,2,0:0:0:0:
136,176,33793,1,2,0:0:0:0:
202,62,33980,1,0,0:0:0:0:
208,62,34074,1,2,0:0:0:0:
210,62,34168,1,0,0:0:0:0:
210,62,34261,1,0,0:0:0:0:
210,62,34355,1,0,0:0:0:0:
206,65,34449,1,2,0:0:0:0:
211,23,34543,1,2,0:0:0:0:
169,82,34730,1,0,0:0:0:0:
169,82,34824,1,2,0:0:0:0:
176,87,34918,1,0,0:0:0:0:
176,90,35011,1,0,0:0:0:0:
176,87,35105,1,2,0:0:0:0:
174,94,35199,1,0,0:0:0:0:
172,94,35293,1,2,0:0:0:0:
229,59,35480,1,2,0:0:0:0:
221,58,35574,1,0,0:0:0:0:
256,40,35668,1,2,0:0:0:0:
210,27,35761,1,2,0:0:0:0:
203,32,35855,1,2,0:0:0:0:
224,75,36043,5,0,0:0:0:0:
196,105,36136,1,0,0:0:0:0:
196,105,36230,1,2,0:0:0:0:
181,102,36324,1,0,0:0:0:0:
184,102,36418,1,0,0:0:0:0:
203,96,36511,1,2,0:0:0:0:
201,97,36605,1,0,0:0:0:0:
164,52,36699,1,2,0:0:0:0:
200,97,36793,1,2,0:0:0:0:
207,147,36980,1,2,0:0:0:0:
207,147,37074,1,0,0:0:0:0:
206,75,37168,1,0,0:0:0:0:
201,76,37261,1,2,0:0:0:0:
201,77,37355,1,0,0:0:0:0:
146,58,37449,1,2,0:0:0:0:
146,60,37543,1,0,0:0:0:0:
178,90,37730,1,2,0:0:0:0:
178,90,37824,1,0,0:0:0:0:
178,90,37918,1,0,0:0:0:0:
179,97,38011,1,2,0:0:0:0:
179,97,38105,1,2,0:0:0:0:
180,96,38199,1,0,0:0:0:0:
180,95,38293,1,2,0:0:0:0:
158,77,38480,1,2,0:0:0:0:
199,59,38668,1,2,0:0:0:0:
157,46,38761,1,2,0:0:0:0:
157,46,38855,1,0,0:0:0:0:
203,66,38949,1,0,0:0:0:0:
207,61,39043,1,0,0:0:0:0:
196,142,39230,1,2,0:0:0:0:
196,142,39324,1,0,0:0:0:0:
196,142,39418,1,0,0:0:0:0:
196,142,39511,1,2,0:0:0:0:
196,142,39605,1,0,0:0:0:0:
188,106,39699,1,2,0:0:0:0:
196,142,39793,1,2,0:0:0:0:
171,133,39980,1,2,0:0:0:0:
171,133,40074,1,0,0:0:0:0:
171,133,40168,1,0,0:0:0:0:
171,133,40261,1,2,0:0:0:0:
171,133,40355,1,0,0:0:0:0:
171,133,40449,1,2,0:0:0:0:
166,134,40543,1,0,0:0:0:0:
187,81,40730,1,2,0:0:0:0:
187,81,40824,1,0,0:0:0:0:
181,83,40918,1,0,0:0:0:0:
180,85,41011,1,2,0:0:0:0:
190,77,41105,1,2,0:0:0:0:
180,85,41199,1,0,0:0:0:0:
187,81,41293,1,2,0:0:0:0:
186,100,41480,1,0,0:0:0:0:
186,100,41574,1,2,0:0:0:0:
186,100,41668,1,2,0:0:0:0:
192,97,41855,1,2,0:0:0:0:
182,167,42043,1,0,0:0:0:0:
182,167,42136,1,0,0:0:0:0:
183,61,42230,1,2,0:0:0:0:
182,167,42324,1,0,0:0:0:0:
182,167,42418,1,0,0:0:0:0:
182,167,42511,1,2,0:0:0:0:
181,172,42605,1,0,0:0:0:0:
206,47,42699,1,2,0:0:0:0:
206,47,42793,1,2,0:0:0:0:
171,102,42980,1,2,0:0:0:0:
170,107,43074,1,0,0:0:0:0:
171,102,43168,1,0,0:0:0:0:
171,102,43261,1,2,0:0:0:0:
171,102,43355,1,2,0:0:0:0:
171,102,43449,1,2,0:0:0:0:
188,49,43543,1,0,0:0:0:0:
188,49,43730,1,2,0:0:0:0:
188,49,43824,1,0,0:0:0:0:
188,49,43918,1,0,0:0:0:0:
194,50,44011,1,2,0:0:0:0:
196,50,44105,1,2,0:0:0:0:
196,50,44199,1,0,0:0:0:0:
176,41,44293,1,2,0:0:0:0:
174,76,44480,1,2,0:0:0:0:
174,76,44668,1,2,0:0:0:0:
174,76,44761,1,2,0:0:0:0:
174,76,44855,1,0,0:0:0:0:
166,80,44949,1,0,0:0:0:0:
184,41,45043,1,0,0:0:0:0:
147,168,45230,1,2,0:0:0:0:
141,161,45324,1,0,0:0:0:0:
147,168,45418,1,0,0:0:0:0:
147,168,45511,1,2,0:0:0:0:
142,161,45605,1,0,0:0:0:0:
147,168,45699,1,2,0:0:0:0:
136,176,45793,1,2,0:0:0:0:
202,62,45980,1,0,0:0:0:0:
208,62,46074,1,2,0:0:0:0:
210,62,46168,1,0,0:0:0:0:
210,62,46261,1,0,0:0:0:0:
210,62,46355,1,0,0:0:0:0:
206,65,46449,1,2,0:0:0:0:
211,23,46543,1,2,0:0:0:0:
169,82,46730,1,0,0:0:0:0:
169,82,46824,1,2,0:0:0:0:
176,87,46918,1,0,0:0:0:0:
176,90,47011,1,0,0:0:0:0:
176,87,47105,5,2,0:0:0:0:
174,94,47199,1,0,0:0:0:0:
172,94,47293,1,2,0:0:0:0:
229,59,47480,1,2,0:0:0:0:
221,58,47574,1,0,0:0:0:0:
256,40,47668,1,2,0:0:0:0:
210,27,47761,1,2,0:0:0:0:
203,32,47855,1,2,0:0:0:0:
153,138,48043,5,4,0:0:0:0:
125,170,49168,1,2,0:0:0:0:
125,170,49543,1,0,0:0:0:0:
146,192,49730,1,2,0:0:0:0:
146,192,50011,1,2,0:0:0:0:
164,170,50293,1,0,0:0:0:0:
176,145,50574,1,0,0:0:0:0:
176,145,50855,1,0,0:0:0:0:
176,145,51043,1,2,0:0:0:0:
189,184,52543,1,0,0:0:0:0:
176,188,52730,1,2,0:0:0:0:
176,188,53011,1,2,0:0:0:0:
176,188,53293,1,0,0:0:0:0:
163,214,53668,1,2,0:0:0:0:
163,214,53855,1,0,0:0:0:0:
140,153,54043,1,0,0:0:0:0:
171,115,55168,1,2,0:0:0:0:
171,115,55543,1,0,0:0:0:0:
171,115,55730,1,2,0:0:0:0:
171,115,56011,1,2,0:0:0:0:
171,115,56293,1,0,0:0:0:0:
171,115,56574,1,0,0:0:0:0:
171,115,56855,1,0,0:0:0:0:
171,115,57043,1,2,0:0:0:0:
203,126,58543,1,0,0:0:0:0:
203,126,58730,1,2,0:0:0:0:
203,126,59011,1,2,0:0:0:0:
203,126,59293,1,0,0:0:0:0:
199,128,59668,1,2,0:0:0:0:
199,128,59855,1,0,0:0:0:0:
203,126,60043,1,0,0:0:0:0:
166,160,60230,1,0,0:0:0:0:
166,160,60324,1,0,0:0:0:0:
191,88,60418,1,2,0:0:0:0:
224,95,60605,1,0,0:0:0:0:
229,111,60793,1,0,0:0:0:0:
229,112,60980,1,2,0:0:0:0:
204,67,61074,1,0,0:0:0:0:
224,125,61168,1,2,0:0:0:0:
204,67,61355,1,0,0:0:0:0:
200,70,61543,1,0,0:0:0:0:
222,77,61730,1,2,0:0:0:0:
183,46,61824,1,0,0:0:0:0:
183,46,61918,1,0,0:0:0:0:
179,48,62011,1,2,0:0:0:0:
204,67,62199,1,0,0:0:0:0:
204,67,62293,1,2,0:0:0:0:
204,72,62480,1,0,0:0:0:0:
204,72,62574,1,2,0:0:0:0:
199,77,62668,1,0,0:0:0:0:
179,87,62855,1,0,0:0:0:0:
179,87,63043,1,2,0:0:0:0:
181,95,63230,1,0,0:0:0:0:
181,95,63324,1,0,0:0:0:0:
177,95,63418,1,2,0:0:0:0:
181,97,63605,1,0,0:0:0:0:
182,98,63793,1,0,0:0:0:0:
187,77,63980,1,2,0:0:0:0:
167,87,64074,1,0,0:0:0:0:
174,101,64168,1,2,0:0:0:0:
203,125,64355,1,0,0:0:0:0:
203,125,64543,1,0,0:0:0:0:
171,90,64730,1,2,0:0:0:0:
186,93,64824,1,0,0:0:0:0:
171,92,64918,1,0,0:0:0:0:
171,92,65011,1,2,0:0:0:0:
166,102,65199,1,2,0:0:0:0:
166,102,65293,1,0,0:0:0:0:
163,77,65480,1,2,0:0:0:0:
164,77,65574,1,0,0:0:0:0:
166,77,65668,1,2,0:0:0:0:
176,92,65855,1,2,0:0:0:0:
174,95,66043,1,0,0:0:0:0:
175,107,66230,1,0,0:0:0:0:
173,107,66324,1,0,0:0:0:0:
171,107,66418,1,2,0:0:0:0:
162,122,66605,1,0,0:0:0:0:
162,122,66793,1,0,0:0:0:0:
162,122,66980,1,2,0:0:0:0:
171,87,67074,1,0,0:0:0:0:
172,89,67168,1,2,0:0:0:0:
200,108,67355,1,0,0:0:0:0:
200,108,67543,1,0,0:0:0:0:
156,80,67730,1,2,0:0:0:0:
192,52,67824,1,0,0:0:0:0:
156,80,67918,1,0,0:0:0:0:
157,80,68011,1,2,0:0:0:0:
197,87,68199,1,0,0:0:0:0:
194,88,68293,1,2,0:0:0:0:
192,94,68480,1,0,0:0:0:0:
192,95,68574,1,2,0:0:0:0:
167,114,68668,1,0,0:0:0:0:
140,140,68855,1,0,0:0:0:0:
189,82,69043,1,2,0:0:0:0:
184,126,69230,1,0,0:0:0:0:
213,76,69324,1,0,0:0:0:0:
184,126,69418,1,2,0:0:0:0:
183,96,69511,1,2,0:0:0:0:
184,96,69605,1,0,0:0:0:0:
184,97,69699,1,0,0:0:0:0:
184,97,69793,1,2,0:0:0:0:
191,105,69980,1,0,0:0:0:0:
176,59,70168,1,2,0:0:0:0:
256,192,70543,12,0,70918,0:0:0:0:
256,192,71293,12,0,71855,0:0:0:0:
191,252,72043,5,0,0:0:0:0:
191,252,72136,1,0,0:0:0:0:
191,252,72230,1,2,0:0:0:0:
191,252,72324,1,0,0:0:0:0:
191,252,72418,1,0,0:0:0:0:
203,153,72511,1,2,0:0:0:0:
191,252,72605,1,0,0:0:0:0:
191,252,72699,1,2,0:0:0:0:
191,76,72793,1,2,0:0:0:0:
186,121,72980,1,2,0:0:0:0:
184,127,73074,1,0,0:0:0:0:
183,133,73168,1,0,0:0:0:0:
182,137,73261,1,2,0:0:0:0:
182,134,73355,1,0,0:0:0:0:
182,137,73449,1,2,0:0:0:0:
182,138,73543,1,0,0:0:0:0:
169,159,73730,1,2,0:0:0:0:
169,159,73824,1,0,0:0:0:0:
169,159,73918,1,0,0:0:0:0:
179,149,74011,1,2,0:0:0:0:
169,159,74105,1,2,0:0:0:0:
169,159,74199,1,0,0:0:0:0:
169,159,74293,1,2,0:0:0:0:
181,150,74480,1,0,0:0:0:0:
181,149,74668,1,2,0:0:0:0:
179,149,74761,1,0,0:0:0:0:
182,149,74855,1,2,0:0:0:0:
183,150,74949,1,2,0:0:0:0:
188,148,75043,1,0,0:0:0:0:
188,148,75230,1,2,0:0:0:0:
188,148,75324,1,0,0:0:0:0:
188,148,75418,1,0,0:0:0:0:
188,152,75511,1,2,0:0:0:0:
188,148,75605,1,0,0:0:0:0:
188,148,75699,1,2,0:0:0:0:
188,148,75793,1,2,0:0:0:0:
188,153,75980,1,2,0:0:0:0:
188,153,76074,1,0,0:0:0:0:
188,154,76168,1,0,0:0:0:0:
188,152,76261,1,2,0:0:0:0:
191,158,76355,1,2,0:0:0:0:
188,163,76543,1,0,0:0:0:0:
187,75,76636,1,2,0:0:0:0:
187,75,76730,1,2,0:0:0:0:
187,75,76824,1,0,0:0:0:0:
193,74,76918,1,0,0:0:0:0:
192,77,77011,1,2,0:0:0:0:
191,78,77105,1,0,0:0:0:0:
192,77,77199,1,0,0:0:0:0:
194,77,77293,1,2,0:0:0:0:
184,106,77480,1,0,0:0:0:0:
166,116,77574,1,2,0:0:0:0:
166,117,77668,1,2,0:0:0:0:
166,117,77761,1,0,0:0:0:0:
166,127,77855,1,2,0:0:0:0:
185,135,78043,1,0,0:0:0:0:
189,67,78136,1,0,0:0:0:0:
246,205,78230,1,2,0:0:0:0:
246,205,78324,1,0,0:0:0:0:
246,205,78418,1,0,0:0:0:0:
246,205,78511,1,2,0:0:0:0:
253,203,78605,1,0,0:0:0:0:
253,203,78699,1,2,0:0:0:0:
219,210,78793,1,2,0:0:0:0:
219,210,78980,1,2,0:0:0:0:
214,210,79074,1,0,0:0:0:0:
213,210,79168,1,2,0:0:0:0:
213,210,79261,1,2,0:0:0:0:
218,217,79355,1,0,0:0:0:0:
218,217,79449,1,2,0:0:0:0:
223,217,79543,1,0,0:0:0:0:
223,217,79730,1,2,0:0:0:0:
223,217,79824,1,0,0:0:0:0:
223,217,79918,1,0,0:0:0:0:
221,220,80011,1,2,0:0:0:0:
218,217,80105,1,2,0:0:0:0:
216,222,80199,1,0,0:0:0:0:
216,222,80293,1,2,0:0:0:0:
213,222,80480,1,0,0:0:0:0:
166,49,80668,1,2,0:0:0:0:
210,222,80761,1,0,0:0:0:0:
203,232,80855,1,2,0:0:0:0:
191,77,80949,1,2,0:0:0:0:
206,229,81043,1,0,0:0:0:0:
166,227,81230,1,2,0:0:0:0:
166,227,81324,1,0,0:0:0:0:
166,227,81418,1,0,0:0:0:0:
166,227,81511,1,2,0:0:0:0:
166,227,81605,1,0,0:0:0:0:
168,222,81699,1,2,0:0:0:0:
171,222,81793,1,2,0:0:0:0:
169,223,81980,1,0,0:0:0:0:
169,222,82074,1,2,0:0:0:0:
166,227,82168,1,2,0:0:0:0:
166,227,82261,1,0,0:0:0:0:
166,227,82355,1,0,0:0:0:0:
175,217,82543,1,2,0:0:0:0:
171,222,82636,1,0,0:0:0:0:
169,223,82730,1,0,0:0:0:0:
169,222,82824,1,2,0:0:0:0:
172,222,82918,1,2,0:0:0:0:
171,227,83011,1,0,0:0:0:0:
168,230,83105,1,0,0:0:0:0:
180,222,83199,1,0,0:0:0:0:
181,226,83293,1,2,0:0:0:0:
162,217,83480,1,0,0:0:0:0:
161,222,83574,1,0,0:0:0:0:
160,229,83668,1,2,0:0:0:0:
176,222,83761,1,2,0:0:0:0:
161,230,83855,1,2,0:0:0:0:
191,252,84043,5,0,0:0:0:0:
191,252,84136,1,0,0:0:0:0:
191,252,84230,1,2,0:0:0:0:
191,252,84324,1,0,0:0:0:0:
191,252,84418,1,0,0:0:0:0:
203,153,84511,1,2,0:0:0:0:
191,252,84605,1,0,0:0:0:0:
191,252,84699,1,2,0:0:0:0:
191,76,84793,1,2,0:0:0:0:
186,121,84980,1,2,0:0:0:0:
184,127,85074,1,0,0:0:0:0:
183,133,85168,1,0,0:0:0:0:
182,137,85261,1,2,0:0:0:0:
182,134,85355,1,0,0:0:0:0:
182,137,85449,1,2,0:0:0:0:
182,138,85543,1,0,0:0:0:0:
169,159,85730,1,2,0:0:0:0:
169,159,85824,1,0,0:0:0:0:
169,159,85918,1,0,0:0:0:0:
179,149,86011,1,2,0:0:0:0:
169,159,86105,1,2,0:0:0:0:
169,159,86199,1,0,0:0:0:0:
169,159,86293,1,2,0:0:0:0:
181,150,86480,1,0,0:0:0:0:
181,149,86668,1,2,0:0:0:0:
179,149,86761,1,0,0:0:0:0:
182,149,86855,1,2,0:0:0:0:
183,150,86949,1,2,0:0:0:0:
188,148,87043,1,0,0:0:0:0:
188,148,87230,1,2,0:0:0:0:
188,148,87324,1,0,0:0:0:0:
188,148,87418,1,0,0:0:0:0:
188,152,87511,1,2,0:0:0:0:
188,148,87605,1,0,0:0:0:0:
188,148,87699,1,2,0:0:0:0:
188,148,87793,1,2,0:0:0:0:
188,153,87980,1,2,0:0:0:0:
188,153,88074,1,0,0:0:0:0:
188,154,88168,1,0,0:0:0:0:
188,152,88261,1,2,0:0:0:0:
191,158,88355,1,2,0:0:0:0:
188,163,88543,1,0,0:0:0:0:
187,75,88636,1,2,0:0:0:0:
187,75,88730,1,2,0:0:0:0:
187,75,88824,1,0,0:0:0:0:
193,74,88918,1,0,0:0:0:0:
192,77,89011,1,2,0:0:0:0:
191,78,89105,1,0,0:0:0:0:
192,77,89199,1,0,0:0:0:0:
194,77,89293,1,2,0:0:0:0:
184,106,89480,1,0,0:0:0:0:
166,116,89574,1,2,0:0:0:0:
166,117,89668,1,2,0:0:0:0:
166,117,89761,1,0,0:0:0:0:
166,127,89855,1,2,0:0:0:0:
185,135,90043,1,0,0:0:0:0:
189,67,90136,1,0,0:0:0:0:
246,205,90230,1,2,0:0:0:0:
246,205,90324,1,0,0:0:0:0:
246,205,90418,1,0,0:0:0:0:
246,205,90511,1,2,0:0:0:0:
253,203,90605,1,0,0:0:0:0:
253,203,90699,1,2,0:0:0:0:
219,210,90793,1,2,0:0:0:0:
219,210,90980,1,2,0:0:0:0:
214,210,91074,1,0,0:0:0:0:
213,210,91168,1,2,0:0:0:0:
213,210,91261,1,2,0:0:0:0:
218,217,91355,1,0,0:0:0:0:
218,217,91449,1,2,0:0:0:0:
223,217,91543,1,0,0:0:0:0:
223,217,91730,1,2,0:0:0:0:
223,217,91824,1,0,0:0:0:0:
223,217,91918,1,0,0:0:0:0:
221,220,92011,1,2,0:0:0:0:
218,217,92105,1,2,0:0:0:0:
216,222,92199,1,0,0:0:0:0:
216,222,92293,1,2,0:0:0:0:
216,222,92480,1,0,0:0:0:0:
206,227,92668,1,2,0:0:0:0:
210,222,92761,1,0,0:0:0:0:
203,232,92855,1,2,0:0:0:0:
191,77,92949,1,2,0:0:0:0:
206,229,93043,1,0,0:0:0:0:
166,227,93230,1,2,0:0:0:0:
166,227,93324,1,0,0:0:0:0:
166,227,93418,1,0,0:0:0:0:
166,227,93511,1,2,0:0:0:0:
166,227,93605,1,0,0:0:0:0:
168,222,93699,1,2,0:0:0:0:
171,222,93793,1,2,0:0:0:0:
169,223,93980,1,0,0:0:0:0:
169,222,94074,1,2,0:0:0:0:
166,227,94168,1,2,0:0:0:0:
166,227,94261,1,0,0:0:0:0:
166,227,94355,1,0,0:0:0:0:
175,217,94543,1,2,0:0:0:0:
171,222,94636,1,0,0:0:0:0:
169,223,94730,1,0,0:0:0:0:
169,222,94824,1,2,0:0:0:0:
172,222,94918,1,2,0:0:0:0:
171,227,95011,1,0,0:0:0:0:
168,230,95105,1,0,0:0:0:0:
180,222,95199,1,0,0:0:0:0:
181,226,95293,1,2,0:0:0:0:
162,217,95480,1,0,0:0:0:0:
161,222,95574,1,0,0:0:0:0:
160,229,95668,1,2,0:0:0:0:
176,222,95761,1,2,0:0:0:0:
161,230,95855,1,2,0:0:0:0:
191,252,96043,5,0,0:0:0:0:
191,252,96136,1,0,0:0:0:0:
191,252,96230,1,2,0:0:0:0:
191,252,96324,1,0,0:0:0:0:
191,252,96418,1,0,0:0:0:0:
203,153,96511,1,2,0:0:0:0:
191,252,96605,1,0,0:0:0:0:
191,252,96699,1,2,0:0:0:0:
191,76,96793,1,2,0:0:0:0:
186,121,96980,1,2,0:0:0:0:
184,127,97074,1,0,0:0:0:0:
183,133,97168,1,0,0:0:0:0:
182,137,97261,1,2,0:0:0:0:
182,134,97355,1,0,0:0:0:0:
182,137,97449,1,2,0:0:0:0:
182,138,97543,1,2,0:0:0:0:
185,92,97636,1,0,0:0:0:0:
169,159,97730,1,2,0:0:0:0:
169,159,97824,1,0,0:0:0:0:
169,159,97918,1,0,0:0:0:0:
179,149,98011,1,2,0:0:0:0:
169,159,98105,1,2,0:0:0:0:
169,159,98199,1,0,0:0:0:0:
169,159,98293,1,2,0:0:0:0:
181,150,98480,1,2,0:0:0:0:
181,149,98668,1,2,0:0:0:0:
179,149,98761,1,0,0:0:0:0:
182,149,98855,1,2,0:0:0:0:
183,150,98949,1,2,0:0:0:0:
188,148,99043,1,0,0:0:0:0:
188,148,99230,1,2,0:0:0:0:
188,148,99324,1,0,0:0:0:0:
188,148,99418,1,0,0:0:0:0:
188,152,99511,1,2,0:0:0:0:
188,148,99605,1,0,0:0:0:0:
188,148,99699,1,2,0:0:0:0:
188,148,99793,1,2,0:0:0:0:
233,41,99886,1,0,0:0:0:0:
188,153,99980,1,2,0:0:0:0:
188,153,100074,1,0,0:0:0:0:
188,154,100168,1,0,0:0:0:0:
188,152,100261,1,2,0:0:0:0:
191,158,100355,1,2,0:0:0:0:
188,163,100543,1,0,0:0:0:0:
187,75,100636,1,2,0:0:0:0:
187,75,100730,1,2,0:0:0:0:
187,75,100824,1,0,0:0:0:0:
193,74,100918,1,0,0:0:0:0:
192,77,101011,1,2,0:0:0:0:
191,78,101105,1,0,0:0:0:0:
192,77,101199,1,0,0:0:0:0:
194,77,101293,1,2,0:0:0:0:
184,106,101480,1,0,0:0:0:0:
166,116,101574,1,2,0:0:0:0:
166,117,101668,1,2,0:0:0:0:
166,117,101761,1,0,0:0:0:0:
166,127,101855,1,2,0:0:0:0:
185,135,102043,1,0,0:0:0:0:
189,67,102136,1,0,0:0:0:0:
246,205,102230,1,2,0:0:0:0:
246,205,102324,1,0,0:0:0:0:
246,205,102418,1,0,0:0:0:0:
246,205,102511,1,2,0:0:0:0:
253,203,102605,1,0,0:0:0:0:
253,203,102699,1,2,0:0:0:0:
219,210,102793,1,2,0:0:0:0:
219,210,102980,1,2,0:0:0:0:
214,210,103074,1,0,0:0:0:0:
213,210,103168,1,2,0:0:0:0:
213,210,103261,1,2,0:0:0:0:
218,217,103355,1,0,0:0:0:0:
218,217,103449,1,2,0:0:0:0:
223,217,103543,1,0,0:0:0:0:
182,78,103636,1,2,0:0:0:0:
223,217,103730,1,2,0:0:0:0:
223,217,103824,1,0,0:0:0:0:
223,217,103918,1,0,0:0:0:0:
221,220,104011,1,2,0:0:0:0:
218,217,104105,1,2,0:0:0:0:
216,222,104199,1,0,0:0:0:0:
216,222,104293,1,2,0:0:0:0:
213,222,104480,1,2,0:0:0:0:
166,49,104668,1,2,0:0:0:0:
210,222,104761,1,0,0:0:0:0:
203,232,104855,1,2,0:0:0:0:
191,77,104949,1,2,0:0:0:0:
206,229,105043,1,0,0:0:0:0:
166,227,105230,1,2,0:0:0:0:
166,227,105324,1,0,0:0:0:0:
166,227,105418,1,0,0:0:0:0:
166,227,105511,1,2,0:0:0:0:
166,227,105605,1,0,0:0:0:0:
168,222,105699,1,2,0:0:0:0:
171,222,105793,1,2,0:0:0:0:
166,94,105886,1,0,0:0:0:0:
169,223,105980,1,0,0:0:0:0:
169,222,106074,1,2,0:0:0:0:
166,227,106168,1,0,0:0:0:0:
181,45,106355,1,2,0:0:0:0:
181,45,106449,1,0,0:0:0:0:
175,217,106543,1,2,0:0:0:0:
171,222,106636,1,2,0:0:0:0:
169,223,106730,1,0,0:0:0:0:
169,222,106824,1,2,0:0:0:0:
172,222,106918,1,0,0:0:0:0:
171,227,107011,1,2,0:0:0:0:
168,230,107105,1,0,0:0:0:0:
180,222,107199,1,0,0:0:0:0:
181,226,107293,1,2,0:0:0:0:
162,217,107480,1,0,0:0:0:0:
161,222,107574,1,0,0:0:0:0:
160,229,107668,1,2,0:0:0:0:
176,222,107761,1,2,0:0:0:0:
161,230,107855,1,2,0:0:0:0:
191,252,108043,5,0,0:0:0:0:
191,252,108136,1,0,0:0:0:0:
191,252,108230,1,2,0:0:0:0:
191,252,108324,1,0,0:0:0:0:
191,252,108418,1,0,0:0:0:0:
203,153,108511,1,2,0:0:0:0:
191,252,108605,1,0,0:0:0:0:
191,252,108699,1,2,0:0:0:0:
191,76,108793,1,2,0:0:0:0:
186,121,108980,1,2,0:0:0:0:
184,127,109074,1,0,0:0:0:0:
183,133,109168,1,0,0:0:0:0:
182,137,109261,1,2,0:0:0:0:
182,134,109355,1,0,0:0:0:0:
182,137,109449,1,2,0:0:0:0:
182,138,109543,1,2,0:0:0:0:
185,92,109636,1,0,0:0:0:0:
169,159,109730,1,2,0:0:0:0:
169,159,109824,1,0,0:0:0:0:
169,159,109918,1,0,0:0:0:0:
179,149,110011,1,2,0:0:0:0:
169,159,110105,1,2,0:0:0:0:
169,159,110199,1,0,0:0:0:0:
169,159,110293,1,2,0:0:0:0:
181,150,110480,1,2,0:0:0:0:
181,149,110668,1,2,0:0:0:0:
179,149,110761,1,0,0:0:0:0:
182,149,110855,1,2,0:0:0:0:
183,150,110949,1,2,0:0:0:0:
188,148,111043,1,0,0:0:0:0:
188,148,111230,1,2,0:0:0:0:
188,148,111324,1,0,0:0:0:0:
188,148,111418,1,0,0:0:0:0:
188,152,111511,1,2,0:0:0:0:
188,148,111605,1,0,0:0:0:0:
188,148,111699,1,2,0:0:0:0:
188,148,111793,1,2,0:0:0:0:
233,41,111886,1,0,0:0:0:0:
188,153,111980,1,2,0:0:0:0:
188,153,112074,1,0,0:0:0:0:
188,154,112168,1,0,0:0:0:0:
188,152,112261,1,2,0:0:0:0:
191,158,112355,1,2,0:0:0:0:
188,163,112543,1,0,0:0:0:0:
187,75,112636,1,2,0:0:0:0:
187,75,112730,1,2,0:0:0:0:
187,75,112824,1,0,0:0:0:0:
193,74,112918,1,0,0:0:0:0:
192,77,113011,1,2,0:0:0:0:
191,78,113105,1,0,0:0:0:0:
192,77,113199,1,0,0:0:0:0:
194,77,113293,1,2,0:0:0:0:
184,106,113480,1,0,0:0:0:0:
166,116,113574,1,2,0:0:0:0:
166,117,113668,1,2,0:0:0:0:
166,117,113761,1,0,0:0:0:0:
166,127,113855,1,2,0:0:0:0:
185,135,114043,1,0,0:0:0:0:
189,67,114136,1,0,0:0:0:0:
246,205,114230,1,2,0:0:0:0:
246,205,114324,1,0,0:0:0:0:
246,205,114418,1,0,0:0:0:0:
246,205,114511,1,2,0:0:0:0:
253,203,114605,1,0,0:0:0:0:
253,203,114699,1,2,0:0:0:0:
219,210,114793,1,2,0:0:0:0:
219,210,114980,1,2,0:0:0:0:
214,210,115074,1,0,0:0:0:0:
213,210,115168,1,2,0:0:0:0:
213,210,115261,1,2,0:0:0:0:
218,217,115355,1,0,0:0:0:0:
218,217,115449,1,2,0:0:0:0:
223,217,115543,1,0,0:0:0:0:
182,78,115636,1,2,0:0:0:0:
223,217,115730,1,2,0:0:0:0:
223,217,115824,1,0,0:0:0:0:
223,217,115918,1,0,0:0:0:0:
221,220,116011,1,2,0:0:0:0:
218,217,116105,1,2,0:0:0:0:
216,222,116199,1,0,0:0:0:0:
216,222,116293,1,2,0:0:0:0:
213,222,116480,1,2,0:0:0:0:
166,49,116668,1,2,0:0:0:0:
210,222,116761,1,0,0:0:0:0:
203,232,116855,1,2,0:0:0:0:
191,77,116949,1,2,0:0:0:0:
206,229,117043,1,0,0:0:0:0:
166,227,117230,1,2,0:0:0:0:
166,227,117324,1,0,0:0:0:0:
166,227,117418,1,0,0:0:0:0:
166,227,117511,1,2,0:0:0:0:
166,227,117605,1,0,0:0:0:0:
168,222,117699,1,2,0:0:0:0:
171,222,117793,1,2,0:0:0:0:
166,94,117886,1,0,0:0:0:0:
169,223,117980,1,0,0:0:0:0:
169,222,118074,1,2,0:0:0:0:
166,227,118168,1,0,0:0:0:0:
181,45,118355,1,2,0:0:0:0:
181,45,118449,1,0,0:0:0:0:
175,217,118543,1,2,0:0:0:0:
171,222,118636,1,2,0:0:0:0:
169,223,118730,1,0,0:0:0:0:
169,222,118824,1,2,0:0:0:0:
172,222,118918,1,0,0:0:0:0:
171,227,119011,1,2,0:0:0:0:
168,230,119105,1,0,0:0:0:0:
180,222,119199,1,0,0:0:0:0:
181,226,119293,1,2,0:0:0:0:
162,217,119480,1,0,0:0:0:0:
161,222,119574,1,0,0:0:0:0:
160,229,119668,1,2,0:0:0:0:
176,222,119761,1,2,0:0:0:0:
161,230,119855,1,2,0:0:0:0:
206,77,120043,1,4,0:0:0:0:
170,190,121168,5,2,0:0:0:0:
170,190,121543,1,0,0:0:0:0:
206,155,121730,1,2,0:0:0:0:
206,161,122011,1,2,0:0:0:0:
218,163,122293,1,0,0:0:0:0:
230,165,122574,1,0,0:0:0:0:
229,167,122855,1,0,0:0:0:0:
203,117,123043,1,2,0:0:0:0:
195,112,124543,1,0,0:0:0:0:
195,112,124730,1,2,0:0:0:0:
195,112,125011,1,2,0:0:0:0:
186,131,125293,1,0,0:0:0:0:
186,131,125668,1,2,0:0:0:0:
186,131,125855,1,0,0:0:0:0:
