osu file format v14

[General]
AudioFilename: audio.ogg
AudioLeadIn: 0
PreviewTime: 28896
Countdown: 0
SampleSet: Normal
StackLeniency: 0.7
Mode: 1
LetterboxInBreaks: 0
WidescreenStoryboard: 0

[Editor]
Bookmarks: 260,11169,28623,46078,63532,98441,115896,133350,152987,161714,187896,205350,222805
DistanceSpacing: 0.7
BeatDivisor: 5
GridSize: 16
TimelineZoom: 1.200001

[Metadata]
Title:Douse Saki ni Shinundarou?
TitleUnicode:どうせ先に死ぬんだろう?
Artist:Gakugaku
ArtistUnicode:がくがく
Creator:Ulqui
Version:Kantan
Source:
Tags:electronic japanese fastfusion hyperflip hardcore mashcore lost frog productions dariacore 死ぬな! shinuna! こっちのけんと kocchi no kento 4twc digit taiko world cup 2023 quarterfinals qf nm1 nomod1
BeatmapID:4368421
BeatmapSetID:2085265

[Difficulty]
HPDrainRate:8
CircleSize:6
OverallDifficulty:3
ApproachRate:6
SliderMultiplier:1.4
SliderTickRate:1

[Events]
//Background and Video events
0,0,"4768569_p0.jpg",0,50
//Break Periods
2,63732,71209
//Storyboard Layer 0 (Background)
//Storyboard Layer 1 (Fail)
//Storyboard Layer 2 (Pass)
//Storyboard Layer 3 (Foreground)
//Storyboard Layer 4 (Overlay)
//Storyboard Sound Samples

[TimingPoints]
260,272.727272727272,4,1,0,100,1,0
11169,272.727272727272,4,1,0,100,1,0
29714,-100,4,1,0,100,0,1
37350,-100,4,1,0,100,0,0
38441,-100,4,1,0,100,0,1
46078,-100,4,1,0,100,0,0
48259,-100,4,1,0,100,0,1
63532,-100,4,1,0,100,0,0
102805,-100,4,1,0,100,0,1
115896,-100,4,1,0,100,0,0
116987,-100,4,1,0,100,0,1
124623,-100,4,1,0,100,0,0
125714,-100,4,1,0,100,0,1
133350,-100,4,1,0,100,0,0
135532,-100,4,1,0,100,0,1
152987,-100,4,1,0,100,0,0
166078,-100,4,1,0,100,0,1
187896,-100,4,1,0,100,0,0
190078,-100,4,1,0,100,0,1
205350,-100,4,1,0,100,0,0

[HitObjects]
196,174,11169,5,4,0:0:0:0:
203,127,11714,1,8,0:0:0:0:
186,120,12259,1,8,0:0:0:0:
183,130,13350,1,0,0:0:0:0:
197,75,13896,1,8,0:0:0:0:
183,130,14441,1,8,0:0:0:0:
197,75,14850,1,0,0:0:0:0:
208,101,15259,1,0,0:0:0:0:
189,126,15532,1,8,0:0:0:0:
202,51,16078,1,8,0:0:0:0:
187,67,16623,1,0,0:0:0:0:
153,106,17714,1,8,0:0:0:0:
181,56,18259,1,8,0:0:0:0:
153,106,18805,1,0,0:0:0:0:
176,61,19078,1,0,0:0:0:0:
176,62,19350,1,8,0:0:0:0:
174,87,19896,5,12,0:0:0:0:
206,54,20441,1,0,0:0:0:0:
208,105,20987,1,8,0:0:0:0:
177,124,21259,1,8,0:0:0:0:
207,113,21532,1,8,0:0:0:0:
207,113,22078,1,0,0:0:0:0:
244,69,22623,1,8,0:0:0:0:
231,82,23168,1,8,0:0:0:0:
206,104,23441,1,0,0:0:0:0:
206,104,23714,1,8,0:0:0:0:
179,121,24259,1,0,0:0:0:0:
199,108,24805,1,8,0:0:0:0:
199,108,25350,1,8,0:0:0:0:
199,108,25623,1,8,0:0:0:0:
199,108,25896,1,0,0:0:0:0:
220,61,26441,1,8,0:0:0:0:
220,61,27259,1,0,0:0:0:0:
179,69,28078,1,8,0:0:0:0:
133,145,28623,5,0,0:0:0:0:
144,88,29441,1,8,0:0:0:0:
171,132,29714,1,0,0:0:0:0:
146,130,29987,1,8,0:0:0:0:
151,82,30532,1,8,0:0:0:0:
148,89,30805,1,0,0:0:0:0:
151,107,31350,1,8,0:0:0:0:
151,107,31896,1,0,0:0:0:0:
151,107,32168,1,0,0:0:0:0:
151,107,32441,1,8,0:0:0:0:
151,107,32987,1,0,0:0:0:0:
135,137,33259,1,8,0:0:0:0:
135,137,33532,1,8,0:0:0:0:
135,137,34078,1,0,0:0:0:0:
135,137,34350,1,8,0:0:0:0:
135,137,34623,1,0,0:0:0:0:
155,123,35168,1,8,0:0:0:0:
155,123,35441,1,8,0:0:0:0:
155,123,35714,1,0,0:0:0:0:
155,123,36259,1,8,0:0:0:0:
155,123,36532,1,0,0:0:0:0:
155,123,36805,1,8,0:0:0:0:
183,108,37350,5,0,0:0:0:0:
182,103,38168,1,8,0:0:0:0:
182,103,38441,1,0,0:0:0:0:
187,108,38714,1,8,0:0:0:0:
187,111,39259,1,8,0:0:0:0:
187,108,39532,1,0,0:0:0:0:
187,111,40078,1,8,0:0:0:0:
187,111,40623,1,0,0:0:0:0:
187,111,40896,1,0,0:0:0:0:
187,111,41168,1,8,0:0:0:0:
187,111,41714,1,0,0:0:0:0:
187,111,41987,1,8,0:0:0:0:
187,111,42259,1,8,0:0:0:0:
187,111,42805,1,0,0:0:0:0:
187,111,43078,1,8,0:0:0:0:
187,111,43350,1,0,0:0:0:0:
187,111,43896,1,8,0:0:0:0:
187,111,44168,1,8,0:0:0:0:
187,111,44441,1,0,0:0:0:0:
176,102,44987,1,8,0:0:0:0:
174,102,45259,1,0,0:0:0:0:
176,102,45532,1,8,0:0:0:0:
195,106,46078,1,4,0:0:0:0:
118,216,48259,5,0,0:0:0:0:
194,67,48532,1,0,0:0:0:0:
150,153,48805,1,8,0:0:0:0:
150,153,49078,1,8,0:0:0:0:
152,159,49350,1,0,0:0:0:0:
176,106,49896,1,8,0:0:0:0:
176,106,50441,5,8,0:0:0:0:
180,117,50714,1,8,0:0:0:0:
182,119,50987,1,0,0:0:0:0:
182,119,51259,1,0,0:0:0:0:
180,117,51532,1,8,0:0:0:0:
182,119,52078,1,0,0:0:0:0:
182,119,52623,5,0,0:0:0:0:
182,119,52896,1,8,0:0:0:0:
182,119,53168,1,0,0:0:0:0:
182,119,53441,1,0,0:0:0:0:
182,119,53714,1,8,0:0:0:0:
182,119,54805,5,8,0:0:0:0:
182,119,55078,1,0,0:0:0:0:
182,119,55350,1,8,0:0:0:0:
182,119,55623,1,8,0:0:0:0:
182,119,55896,1,0,0:0:0:0:
182,119,56441,1,8,0:0:0:0:
174,120,56987,5,0,0:0:0:0:
172,122,57259,1,0,0:0:0:0:
169,122,57532,1,8,0:0:0:0:
168,126,57805,1,0,0:0:0:0:
168,126,58078,1,8,0:0:0:0:
173,90,58623,1,0,0:0:0:0:
173,90,59168,5,8,0:0:0:0:
173,90,59441,1,8,0:0:0:0:
173,90,59714,1,0,0:0:0:0:
173,90,59987,1,8,0:0:0:0:
173,90,60259,1,0,0:0:0:0:
174,95,60805,1,8,0:0:0:0:
175,95,61350,5,0,0:0:0:0:
182,111,61623,1,8,0:0:0:0:
183,104,61896,1,0,0:0:0:0:
183,107,62168,1,8,0:0:0:0:
183,107,62441,1,8,0:0:0:0:
206,43,62714,1,0,0:0:0:0:
183,107,62987,1,8,0:0:0:0:
191,100,63532,5,4,0:0:0:0:
208,130,72259,5,0,0:0:0:0:
189,112,74441,1,8,0:0:0:0:
189,112,75259,1,0,0:0:0:0:
134,204,76623,1,8,0:0:0:0:
147,103,78805,1,0,0:0:0:0:
147,103,79623,1,8,0:0:0:0:
150,94,80987,5,0,0:0:0:0:
152,119,81532,1,8,0:0:0:0:
191,101,82078,1,0,0:0:0:0:
210,111,82487,1,8,0:0:0:0:
176,60,82896,1,8,0:0:0:0:
147,122,83168,1,0,0:0:0:0:
154,99,83714,1,8,0:0:0:0:
154,99,84259,1,0,0:0:0:0:
178,49,84668,1,8,0:0:0:0:
177,93,85078,1,8,0:0:0:0:
171,96,85350,1,0,0:0:0:0:
145,86,85896,1,8,0:0:0:0:
176,111,86441,1,0,0:0:0:0:
186,98,86850,1,8,0:0:0:0:
186,93,87532,1,0,0:0:0:0:
186,98,87805,1,8,0:0:0:0:
186,93,88078,1,0,0:0:0:0:
158,104,88623,1,8,0:0:0:0:
153,99,89714,5,4,0:0:0:0:
168,70,89987,1,8,0:0:0:0:
168,74,90259,1,8,0:0:0:0:
169,75,90805,1,8,0:0:0:0:
171,75,91078,1,0,0:0:0:0:
217,71,91350,1,8,0:0:0:0:
169,80,91896,1,8,0:0:0:0:
181,52,92168,1,0,0:0:0:0:
169,80,92441,1,0,0:0:0:0:
165,119,92987,1,8,0:0:0:0:
173,52,93259,1,0,0:0:0:0:
158,122,93532,1,8,0:0:0:0:
187,91,94078,1,0,0:0:0:0:
168,101,94623,1,8,0:0:0:0:
155,99,95168,1,0,0:0:0:0:
155,99,95441,1,8,0:0:0:0:
155,99,95714,1,0,0:0:0:0:
155,99,96259,1,8,0:0:0:0:
202,77,97078,1,0,0:0:0:0:
178,106,97896,1,0,0:0:0:0:
207,151,102805,5,4,0:0:0:0:
205,144,103896,1,4,0:0:0:0:
189,106,104987,1,4,0:0:0:0:
189,106,106078,1,4,0:0:0:0:
190,108,107168,5,4,0:0:0:0:
190,108,108259,1,4,0:0:0:0:
192,110,109350,1,4,0:0:0:0:
191,112,110441,1,4,0:0:0:0:
190,114,111532,5,4,0:0:0:0:
190,117,112623,1,4,0:0:0:0:
189,116,113714,1,4,0:0:0:0:
186,117,114805,1,4,0:0:0:0:
179,126,115896,5,0,0:0:0:0:
165,143,116714,1,8,0:0:0:0:
165,143,116987,1,0,0:0:0:0:
162,148,117259,1,8,0:0:0:0:
162,148,117805,1,8,0:0:0:0:
162,148,118078,1,0,0:0:0:0:
162,148,118623,1,8,0:0:0:0:
162,148,119168,1,0,0:0:0:0:
162,148,119441,1,0,0:0:0:0:
162,148,119714,1,8,0:0:0:0:
177,178,120259,1,0,0:0:0:0:
178,197,120532,1,8,0:0:0:0:
177,197,120805,1,8,0:0:0:0:
176,192,121350,1,8,0:0:0:0:
177,197,121623,1,0,0:0:0:0:
174,197,121896,1,8,0:0:0:0:
152,107,122441,1,0,0:0:0:0:
152,107,122714,1,8,0:0:0:0:
152,107,122987,1,0,0:0:0:0:
160,94,123532,1,0,0:0:0:0:
160,95,123805,1,8,0:0:0:0:
160,94,124078,1,8,0:0:0:0:
194,105,124350,1,8,0:0:0:0:
180,88,124623,1,0,0:0:0:0:
174,101,125441,5,8,0:0:0:0:
174,101,125714,1,0,0:0:0:0:
147,192,125987,1,8,0:0:0:0:
147,192,126532,1,8,0:0:0:0:
147,192,126805,1,0,0:0:0:0:
164,170,127350,1,8,0:0:0:0:
164,170,127896,1,0,0:0:0:0:
164,170,128168,1,0,0:0:0:0:
164,170,128441,1,8,0:0:0:0:
154,124,128987,1,0,0:0:0:0:
154,124,129259,1,8,0:0:0:0:
154,124,129532,1,8,0:0:0:0:
152,128,130078,1,8,0:0:0:0:
151,130,130350,1,0,0:0:0:0:
152,128,130623,1,8,0:0:0:0:
169,125,131168,1,0,0:0:0:0:
169,127,131441,1,8,0:0:0:0:
163,130,131714,1,0,0:0:0:0:
175,97,132259,1,0,0:0:0:0:
175,97,132532,1,8,0:0:0:0:
175,97,132805,1,8,0:0:0:0:
224,124,133078,1,8,0:0:0:0:
183,142,133350,1,4,0:0:0:0:
198,189,134987,5,8,0:0:0:0:
198,189,135532,1,0,0:0:0:0:
172,208,135805,1,0,0:0:0:0:
172,208,136078,1,8,0:0:0:0:
173,212,136623,1,0,0:0:0:0:
173,212,136896,1,0,0:0:0:0:
172,215,137168,1,8,0:0:0:0:
173,71,137441,1,8,0:0:0:0:
171,216,137714,5,0,0:0:0:0:
171,216,138532,1,0,0:0:0:0:
172,215,138805,1,8,0:0:0:0:
171,216,139078,1,8,0:0:0:0:
171,216,139350,1,0,0:0:0:0:
191,52,139623,1,0,0:0:0:0:
171,216,139896,5,8,0:0:0:0:
167,219,140714,1,8,0:0:0:0:
165,221,140987,1,0,0:0:0:0:
165,221,141259,1,0,0:0:0:0:
165,223,141532,1,8,0:0:0:0:
196,36,141805,1,8,0:0:0:0:
165,221,142078,5,0,0:0:0:0:
165,221,142623,1,8,0:0:0:0:
165,221,142896,1,8,0:0:0:0:
165,223,143168,1,0,0:0:0:0:
163,225,143441,1,0,0:0:0:0:
163,225,143714,1,8,0:0:0:0:
163,225,144259,5,0,0:0:0:0:
178,44,144805,1,8,0:0:0:0:
163,225,145350,1,8,0:0:0:0:
163,225,145623,1,0,0:0:0:0:
163,225,145896,1,8,0:0:0:0:
155,54,146168,1,8,0:0:0:0:
163,225,146441,5,0,0:0:0:0:
163,225,147532,1,8,0:0:0:0:
163,225,147805,1,0,0:0:0:0:
158,226,148078,1,0,0:0:0:0:
183,70,148350,1,8,0:0:0:0:
158,225,148623,5,8,0:0:0:0:
158,225,149441,1,0,0:0:0:0:
158,226,149714,1,8,0:0:0:0:
142,80,149987,1,8,0:0:0:0:
152,231,150259,1,0,0:0:0:0:
170,114,150532,1,8,0:0:0:0:
168,128,152987,5,4,0:0:0:0:
185,176,155168,1,8,0:0:0:0:
191,140,155987,1,0,0:0:0:0:
175,103,157350,1,8,0:0:0:0:
152,86,159532,5,4,0:0:0:0:
155,95,160078,5,4,0:0:0:0:
198,96,160623,5,8,0:0:0:0:
188,101,160896,1,8,0:0:0:0:
187,103,161168,1,8,0:0:0:0:
187,103,161441,1,8,0:0:0:0:
148,90,161714,5,4,0:0:0:0:
256,192,163896,8,0,164987,0:0:0:0:
177,123,165532,5,8,0:0:0:0:
176,116,166078,1,0,0:0:0:0:
199,127,166350,1,8,0:0:0:0:
199,127,166623,1,8,0:0:0:0:
179,65,167168,1,0,0:0:0:0:
179,65,167441,1,8,0:0:0:0:
179,65,167714,1,0,0:0:0:0:
174,70,168259,1,8,0:0:0:0:
174,70,168532,1,0,0:0:0:0:
174,70,168805,1,8,0:0:0:0:
174,70,169350,1,8,0:0:0:0:
174,70,169623,1,8,0:0:0:0:
173,74,169896,1,0,0:0:0:0:
196,70,170714,5,8,0:0:0:0:
176,112,171259,1,8,0:0:0:0:
174,116,171532,1,0,0:0:0:0:
174,117,171805,1,8,0:0:0:0:
190,142,172350,1,8,0:0:0:0:
177,88,172896,1,0,0:0:0:0:
190,142,173168,1,8,0:0:0:0:
208,128,173441,1,8,0:0:0:0:
190,142,173714,1,0,0:0:0:0:
184,119,173987,1,0,0:0:0:0:
197,130,174259,1,8,0:0:0:0:
180,121,174805,1,0,0:0:0:0:
184,136,175078,1,8,0:0:0:0:
184,136,175350,1,8,0:0:0:0:
184,136,175896,1,0,0:0:0:0:
184,136,176168,1,8,0:0:0:0:
184,136,176441,1,0,0:0:0:0:
184,136,176987,1,8,0:0:0:0:
184,136,177259,1,0,0:0:0:0:
184,136,177532,1,8,0:0:0:0:
184,136,178078,1,8,0:0:0:0:
155,123,178350,1,8,0:0:0:0:
156,129,178623,1,0,0:0:0:0:
179,101,179441,5,8,0:0:0:0:
179,101,179987,1,8,0:0:0:0:
151,120,180259,1,0,0:0:0:0:
179,101,180532,1,8,0:0:0:0:
179,101,181078,1,8,0:0:0:0:
190,86,181350,1,0,0:0:0:0:
205,59,181623,1,0,0:0:0:0:
179,101,181896,1,8,0:0:0:0:
208,128,182168,1,8,0:0:0:0:
179,101,182441,1,0,0:0:0:0:
170,90,182987,1,8,0:0:0:0:
179,122,183805,1,8,0:0:0:0:
179,122,184078,1,0,0:0:0:0:
169,94,184350,1,8,0:0:0:0:
169,94,184896,1,8,0:0:0:0:
203,109,185168,1,0,0:0:0:0:
169,94,185441,1,8,0:0:0:0:
169,94,185714,1,0,0:0:0:0:
197,72,185987,1,0,0:0:0:0:
169,94,186259,1,8,0:0:0:0:
169,94,186805,1,0,0:0:0:0:
169,94,187078,1,8,0:0:0:0:
169,94,187350,1,8,0:0:0:0:
169,94,187896,1,4,0:0:0:0:
196,135,190078,5,8,0:0:0:0:
196,135,190350,1,8,0:0:0:0:
196,135,190623,1,8,0:0:0:0:
196,135,190896,1,0,0:0:0:0:
196,135,191168,1,8,0:0:0:0:
196,135,191714,1,8,0:0:0:0:
160,119,192259,5,0,0:0:0:0:
160,119,192532,1,0,0:0:0:0:
160,119,192805,1,0,0:0:0:0:
163,121,193078,1,8,0:0:0:0:
162,123,193350,1,0,0:0:0:0:
163,121,193896,1,0,0:0:0:0:
162,123,194441,5,8,0:0:0:0:
163,121,194714,1,8,0:0:0:0:
162,123,194987,1,0,0:0:0:0:
162,123,195259,1,8,0:0:0:0:
163,125,195532,1,0,0:0:0:0:
163,128,196078,1,8,0:0:0:0:
184,77,196623,5,0,0:0:0:0:
184,77,196896,1,0,0:0:0:0:
180,83,197168,1,8,0:0:0:0:
179,82,197441,1,0,0:0:0:0:
174,84,197714,1,8,0:0:0:0:
172,88,198259,1,0,0:0:0:0:
168,86,198805,5,8,0:0:0:0:
210,38,199078,1,0,0:0:0:0:
165,91,199350,1,8,0:0:0:0:
161,96,199896,1,0,0:0:0:0:
160,98,200987,5,0,0:0:0:0:
160,99,201259,1,8,0:0:0:0:
160,98,201532,1,0,0:0:0:0:
160,98,201805,1,0,0:0:0:0:
160,99,202078,1,8,0:0:0:0:
160,98,202623,1,0,0:0:0:0:
160,98,203168,5,8,0:0:0:0:
160,98,203441,1,0,0:0:0:0:
160,98,203714,1,8,0:0:0:0:
175,82,203987,1,8,0:0:0:0:
174,83,204259,1,0,0:0:0:0:
174,84,204532,1,8,0:0:0:0:
175,82,204805,1,8,0:0:0:0:
173,79,205350,1,4,0:0:0:0:
