osu file format v14

[General]
AudioFilename: audio.mp3
AudioLeadIn: 0
PreviewTime: 60863
Countdown: 0
SampleSet: Soft
StackLeniency: 0.5
Mode: 0
LetterboxInBreaks: 0
WidescreenStoryboard: 1

[Editor]
DistanceSpacing: 1
BeatDivisor: 4
GridSize: 32
TimelineZoom: 1

[Metadata]
Title:Sotsugyou Album (Short Ver.)
TitleUnicode:卒業あるばむ (Short Ver.)
Artist:Gakuen Seikatsu-bu
ArtistUnicode:学園生活部
Creator:xHappy-
Version:Normal
Source:がっこうぐらし!
Tags:anime pop jpop j-pop japanese p_kung school live school-live! graduation gakkou gurashi! character song graduate Takeya Yuki Minase Inori Ebisuzawa Kurumi Ozawa Ari Wakasa Yuuri M・A・O M.A.O Naoki Miki Takahashi Rie Yūri Sotsugyō 丈槍由紀 水瀬いのり 恵飛須沢胡桃 小澤亜李 若狭悠里 直樹美紀 高橋李依
BeatmapID:2331940
BeatmapSetID:1102344

[Difficulty]
HPDrainRate:4
CircleSize:3.5
OverallDifficulty:4
ApproachRate:5
SliderMultiplier:1.1
SliderTickRate:1

[Events]
//Background and Video events
0,0,"BG.jpg",0,0
//Break Periods
//Storyboard Layer 0 (Background)
//Storyboard Layer 1 (Fail)
//Storyboard Layer 2 (Pass)
//Storyboard Layer 3 (Foreground)
//Storyboard Layer 4 (Overlay)
//Storyboard Sound Samples

[TimingPoints]
312,444.444444444444,4,2,1,20,1,0
2978,-117.647058823529,4,2,1,20,0,0
3867,-111.111111111111,4,2,1,30,0,0
10534,-111.111111111111,4,2,1,40,0,0
10867,-111.111111111111,4,2,1,5,0,0
10978,-105.263157894737,4,2,2,50,0,0
16311,-105.263157894737,4,2,1,60,0,0
17645,-105.263157894737,4,2,2,60,0,0
18089,-100,4,2,1,70,0,0
33200,444.444444444444,4,2,1,60,1,0
33200,-105.263157894737,4,2,1,60,0,0
46977,-105.263157894737,4,2,1,60,0,0
47311,-105.263157894737,4,2,1,5,0,0
47422,-105.263157894737,4,2,1,60,0,0
59866,-100,4,2,1,70,0,0
60977,-100,4,2,1,60,0,0
61644,-95.2380952380952,4,2,1,80,0,1
74533,-95.2380952380952,4,2,1,20,0,1
74644,-95.2380952380952,4,2,1,30,0,1
74755,-95.2380952380952,4,2,1,50,0,1
74866,-95.2380952380952,4,2,1,70,0,1
75422,-95.2380952380952,4,2,2,70,0,1
75866,-100,4,2,1,70,0,0
97199,-90.9090909090909,4,2,1,70,0,0
97644,-90.9090909090909,4,2,1,80,0,1
104311,-100,4,2,1,70,0,0
106311,-100,4,2,1,50,0,0
106533,-100,4,2,1,55,0,0
106755,-100,4,2,1,60,0,0
106977,-100,4,2,1,65,0,0
107199,-100,4,2,1,70,0,0
111422,-100,4,2,1,60,0,0
112311,-100,4,2,1,45,0,0
113199,-100,4,2,1,30,0,0
114088,-100,4,2,1,15,0,0
114977,-100,4,2,3,5,0,0

[Colours]
Combo1 : 1,150,214
Combo2 : 227,2,205
Combo3 : 150,23,204
Combo4 : 0,185,32

[HitObjects]
460,352,2978,6,0,L|466:257,1,93.500001783371,2|0,0:0|0:0,0:0:0:0:
495,163,3867,6,0,P|445:158|400:179,1,98.9999969787598,2|2,0:0|0:0,0:0:0:0:
354,265,4756,2,0,P|305:270|261:249,1,98.9999969787598,2|0,0:0|0:0,0:0:0:0:
219,222,5423,2,0,L|224:113,1,98.9999969787599,2|0,0:0|0:0,0:0:0:0:
253,83,6089,1,2,0:0:0:0:
175,21,6534,2,0,L|62:28,1,98.9999969787598,2|2,0:0|0:0,0:0:0:0:
26,27,7200,1,0,0:0:0:0:
26,27,7423,6,0,P|1:68|3:117,1,98.9999969787598,2|2,0:0|0:0,0:0:0:0:
79,180,8311,2,0,P|104:221|102:270,1,98.9999969787598,2|0,0:0|0:0,0:0:0:0:
98,320,8978,2,0,L|0:315,2,98.9999969787598,2|2|2,0:0|0:0|0:0,0:0:0:0:
181,373,10311,1,2,0:0:0:0:
181,373,10534,2,0,L|240:368,1,49.4999984893799,6|0,1:2|0:0,0:0:0:0:
282,367,10978,6,0,P|315:325|318:268,1,104.499997209549,10|10,1:2|3:2,0:0:0:0:
331,171,11867,2,0,P|279:176|239:208,1,104.499997209549,10|10,3:2|3:2,0:0:0:0:
145,253,12756,1,10,3:2:0:0:
57,196,13200,1,14,3:2:0:0:
60,91,13645,2,0,L|172:93,1,104.499997209549,14|12,3:2|0:0,0:0:0:0:
210,67,14311,1,0,1:2:0:0:
210,67,14534,6,0,P|253:48|312:58,1,104.499997209549,2|14,1:2|3:2,0:0:0:0:
410,33,15423,1,12,3:2:0:0:
460,124,15867,1,14,3:2:0:0:
374,183,16311,2,0,L|370:301,1,104.499997209549,8|8,0:0|0:0,0:0:0:0:
353,339,16978,1,8,0:0:0:0:
353,339,17200,2,0,P|323:342|292:362,1,52.2499986047745,8|4,3:0|3:0,0:0:0:0:
261,382,17645,1,8,1:1:0:0:
172,316,18089,6,0,L|181:186,1,110,4|10,1:2|0:0,0:0:0:0:
195,153,18756,2,0,P|139:154|90:124,1,110,2|2,0:0|1:2,0:0:0:0:
53,97,19423,1,10,0:0:0:0:
53,97,19645,2,0,L|48:207,1,110,2|2,1:2|0:0,0:0:0:0:
0,234,20311,2,0,L|1:291,1,55,10|2,0:0|0:0,0:0:0:0:
7,343,20756,1,10,0:0:0:0:
115,323,21200,1,10,0:0:0:0:
210,375,21645,6,0,P|267:374|314:344,1,110,10|10,0:0|0:0,0:0:0:0:
381,262,22534,1,10,0:0:0:0:
305,181,22978,1,10,0:0:0:0:
209,235,23423,2,0,L|99:228,1,110,10|8,0:0|0:0,0:0:0:0:
44,227,24089,2,0,P|20:163|32:116,1,110,2|0,1:2|1:0,0:0:0:0:
60,79,24756,1,8,0:2:0:0:
169,87,25200,6,0,P|223:88|270:61,1,110,12|10,0:2|0:0,0:0:0:0:
321,39,25867,2,0,L|317:156,1,110,2|0,0:0|1:2,0:0:0:0:
322,207,26534,1,10,0:0:0:0:
322,207,26756,2,0,P|376:205|423:232,1,110,2|2,1:2|0:0,0:0:0:0:
445,282,27423,2,0,L|442:348,1,55,10|2,0:0|0:0,0:0:0:0:
402,374,27867,1,10,0:0:0:0:
309,316,28311,1,14,0:0:0:0:
211,367,28756,6,0,L|96:361,1,110,6|10,1:2|0:0,0:0:0:0:
11,296,29645,1,10,0:0:0:0:
62,198,30089,1,10,0:0:0:0:
12,99,30534,2,0,P|62:88|128:109,1,110,10|8,0:0|0:0,0:0:0:0:
165,129,31200,1,10,0:0:0:0:
165,129,31423,2,0,L|160:186,1,55,8|8,0:0|3:0,0:0:0:0:
194,226,31867,2,0,L|199:283,1,55,8|8,0:0|3:0,0:0:0:0:
154,313,32311,2,0,L|149:370,2,55,8|4|12,3:0|3:0|0:0,0:0:0:0:
243,366,33200,6,0,L|359:361,1,104.499997209549,6|10,1:2|0:2,0:0:0:0:
399,367,33866,2,0,P|431:321|431:267,1,104.499997209549,2|0,1:2|1:0,0:0:0:0:
416,224,34533,1,8,0:0:0:0:
502,164,34977,2,0,P|462:130|395:130,1,104.499997209549,2|10,1:2|0:2,0:0:0:0:
360,133,35644,1,2,1:2:0:0:
291,62,36088,1,0,1:0:0:0:
291,62,36311,2,0,L|223:67,1,52.2499986047745,8|2,0:0|1:2,0:0:0:0:
186,71,36755,6,0,P|151:109|146:160,1,104.499997209549,2|10,1:2|0:2,0:0:0:0:
164,209,37422,2,0,L|272:217,1,104.499997209549,2|0,1:2|1:0,0:0:0:0:
320,218,38088,1,8,0:0:0:0:
414,173,38533,2,0,P|425:223|411:273,1,104.499997209549,2|10,1:2|0:2,0:0:0:0:
373,309,39199,1,2,1:2:0:0:
275,338,39644,1,0,1:0:0:0:
275,338,39866,2,0,L|214:333,1,52.2499986047745,8|2,0:0|1:2,0:0:0:0:
170,333,40311,6,0,P|135:286|137:221,1,104.499997209549,2|10,1:2|0:0,0:0:0:0:
155,195,40977,1,2,1:2:0:0:
79,122,41422,2,0,L|25:131,2,52.2499986047745,0|8|2,1:0|0:0|1:2,0:0:0:0:
116,85,42088,2,0,P|171:81|217:98,1,104.499997209549,2|10,1:2|0:0,0:0:0:0:
255,133,42755,2,0,L|251:248,1,104.499997209549,2|2,1:2|1:2,0:0:0:0:
204,261,43422,2,0,L|205:319,1,52.2499986047745,10|2,0:0|1:2,0:0:0:0:
209,365,43866,5,2,1:2:0:0:
313,370,44311,1,10,0:0:0:0:
313,370,44533,2,0,P|369:370|414:340,1,104.499997209549,2|2,1:2|1:2,0:0:0:0:
486,274,45422,2,0,L|483:163,1,104.499997209549,2|2,0:2|1:2,0:0:0:0:
479,117,46088,1,10,0:0:0:0:
479,117,46311,2,0,P|434:90|382:91,1,104.499997209549,6|0,1:2|1:0,0:0:0:0:
336,114,46977,1,8,0:0:0:0:
261,40,47422,6,0,P|234:84|235:136,1,104.499997209549,6|10,1:2|0:0,0:0:0:0:
267,177,48088,1,2,1:2:0:0:
267,177,48311,2,0,L|262:288,1,104.499997209549,2|8,0:0|0:0,0:0:0:0:
260,337,48977,1,2,1:2:0:0:
260,337,49199,2,0,P|285:335|309:346,2,52.2499986047745,2|2|10,1:2|0:0|0:0,0:0:0:0:
213,362,49866,2,0,P|161:361|115:337,1,104.499997209549,2|2,1:2|1:2,0:0:0:0:
89,291,50533,1,10,0:0:0:0:
109,188,50977,6,0,L|224:184,1,104.499997209549,6|10,1:2|0:0,0:0:0:0:
265,185,51644,1,6,1:2:0:0:
357,136,52088,2,0,L|363:194,1,52.2499986047745,2|10,1:2|0:0,0:0:0:0:
395,229,52533,2,0,P|416:275|409:326,1,104.499997209549,6|2,1:2|1:2,0:0:0:0:
363,345,53199,1,10,0:0:0:0:
363,345,53422,2,0,L|244:337,1,104.499997209549,6|2,1:2|1:2,0:0:0:0:
220,302,54088,2,0,L|159:307,1,52.2499986047745,8|0,0:0|1:2,0:0:0:0:
115,311,54533,5,4,1:2:0:0:
33,375,54977,2,0,P|12:327|19:276,1,104.499997209549,10|2,0:0|0:0,0:0:0:0:
75,188,55866,2,0,L|73:136,1,52.2499986047745,8|2,0:0|1:2,0:0:0:0:
72,83,56311,2,0,P|115:56|167:58,1,104.499997209549,2|10,1:2|0:0,0:0:0:0:
217,71,56977,2,0,L|212:181,1,104.499997209549,2|2,1:2|1:2,0:0:0:0:
241,225,57644,1,8,0:0:0:0:
241,225,57866,6,0,P|292:227|336:200,1,104.499997209549,6|0,1:2|1:0,0:0:0:0:
370,160,58533,1,8,0:0:0:0:
456,101,58977,1,10,0:0:0:0:
509,190,59422,1,10,0:0:0:0:
447,283,59866,1,10,0:0:0:0:
447,283,60088,1,10,0:0:0:0:
447,283,60311,1,10,0:0:0:0:
447,283,60533,1,10,0:0:0:0:
365,209,60977,2,0,P|311:219|276:259,1,110,6|0,1:2|0:0,0:0:0:0:
230,293,61644,6,0,L|173:298,1,57.7499982376099,6|2,1:2|1:2,0:0:0:0:
119,275,62088,2,0,L|62:270,1,57.7499982376099,10|2,0:2|0:2,0:0:0:0:
2,263,62533,2,0,P|-11:208|6:154,1,115.49999647522,2|10,1:0|0:0,0:0:0:0:
61,130,63199,2,0,L|123:137,1,57.7499982376099,2|2,1:2|1:0,0:0:0:0:
159,176,63644,1,2,1:2:0:0:
159,176,63866,2,0,L|221:169,1,57.7499982376099,10|2,0:1|1:2,0:0:0:0:
273,160,64311,1,2,1:0:0:0:
371,220,64755,6,0,P|385:196|390:167,1,57.7499982376099,10|2,0:0|1:2,0:0:0:0:
409,112,65199,2,0,P|367:70|303:61,1,115.49999647522,2|10,1:0|0:0,0:0:0:0:
259,66,65866,1,2,1:2:0:0:
259,66,66088,1,2,1:0:0:0:
156,38,66533,1,10,0:0:0:0:
156,38,66755,2,0,P|128:87|139:146,1,115.49999647522,2|2,1:2|1:2,0:0:0:0:
172,190,67422,1,8,0:2:0:0:
172,190,67644,2,0,L|164:311,1,115.49999647522,2|2,1:2|1:2,0:0:0:0:
159,363,68311,1,10,0:0:0:0:
49,326,68755,6,0,L|54:252,1,57.7499982376099,6|2,1:2|1:2,0:0:0:0:
8,231,69199,2,0,L|3:157,1,57.7499982376099,10|2,0:0|0:0,0:0:0:0:
21,118,69644,2,0,P|81:122|131:94,1,115.49999647522,2|10,1:0|0:0,0:0:0:0:
177,65,70311,2,0,L|182:131,1,57.7499982376099,2|2,1:2|1:0,0:0:0:0:
238,148,70755,1,2,1:2:0:0:
238,148,70977,2,0,L|233:214,1,57.7499982376099,10|2,0:1|1:2,0:0:0:0:
232,263,71422,2,0,P|181:288|124:284,1,115.49999647522,2|8,1:0|0:0,0:0:0:0:
16,240,72311,6,0,P|11:312|30:351,1,115.49999647522,2|10,1:0|0:2,0:0:0:0:
85,375,72977,1,2,1:2:0:0:
85,375,73199,2,0,L|146:370,1,57.7499982376099,10|2,1:0|1:2,0:0:0:0:
192,340,73644,2,0,L|253:345,1,57.7499982376099,10|2,0:0|1:2,0:0:0:0:
305,358,74088,1,14,0:0:0:0:
422,343,74533,1,8,0:0:0:0:
422,343,74755,2,0,L|414:283,1,57.7499982376099,8|8,0:0|0:0,0:0:0:0:
411,232,75199,1,8,0:0:0:0:
411,232,75422,1,8,1:0:0:0:
392,123,75866,6,0,P|337:124|288:100,1,110,4|10,1:2|0:0,0:0:0:0:
257,54,76533,2,0,L|141:55,1,110,2|0,0:0|1:2,0:0:0:0:
99,40,77199,1,10,0:0:0:0:
99,40,77422,2,0,P|71:77|71:142,1,110,2|2,1:2|0:2,0:0:0:0:
98,185,78088,2,0,L|166:182,1,55,10|2,0:0|0:2,0:0:0:0:
207,177,78533,1,10,0:0:0:0:
296,241,78977,1,10,0:0:0:0:
397,199,79422,6,0,P|406:245|384:308,1,110,10|10,0:0|0:0,0:0:0:0:
288,354,80311,1,10,0:0:0:0:
201,285,80755,1,10,0:0:0:0:
100,329,81199,2,0,P|91:283|113:220,1,110,10|8,0:0|0:0,0:0:0:0:
152,189,81866,2,0,L|150:79,1,110,2|0,0:0|1:0,0:0:0:0:
148,23,82533,1,8,0:0:0:0:
256,12,82977,6,0,P|311:10|357:38,1,110,12|10,0:0|0:0,0:0:0:0:
389,81,83644,2,0,L|384:190,1,110,2|0,0:0|1:2,0:0:0:0:
351,236,84311,1,10,0:0:0:0:
351,236,84533,2,0,P|296:234|250:262,1,110,2|2,1:2|0:0,0:0:0:0:
220,307,85199,2,0,L|226:374,1,55,10|2,0:0|0:0,0:0:0:0:
277,378,85644,1,10,0:0:0:0:
374,327,86088,1,14,0:0:0:0:
473,375,86533,6,0,P|485:324|467:270,1,110,6|10,1:2|0:0,0:0:0:0:
389,193,87422,1,10,0:0:0:0:
478,129,87866,1,10,0:0:0:0:
407,44,88311,2,0,L|298:51,1,110,10|8,0:0|0:0,0:0:0:0:
244,36,88977,2,0,P|182:21|137:31,1,110,2|0,0:0|1:0,0:0:0:0:
94,65,89644,1,8,0:0:0:0:
4,1,90088,6,0,L|-1:117,1,110,6|14,1:2|0:0,0:0:0:0:
3,165,90755,2,0,P|46:199|58:252,1,110,2|0,0:0|1:0,0:0:0:0:
41,305,91422,1,10,0:0:0:0:
41,305,91644,2,0,L|167:311,1,110,2|2,1:2|0:0,0:0:0:0:
206,312,92311,2,0,P|221:289|223:262,1,55,10|2,0:0|0:0,0:0:0:0:
197,213,92755,1,10,0:0:0:0:
221,105,93199,1,10,0:0:0:0:
327,134,93644,5,10,0:0:0:0:
403,212,94088,2,0,P|430:165|430:111,1,110,14|10,0:0|0:0,0:0:0:0:
371,17,94977,1,14,0:0:0:0:
261,31,95422,2,0,L|148:43,1,110,10|12,0:0|0:0,0:0:0:0:
100,50,96088,1,2,0:0:0:0:
100,50,96311,1,8,0:0:0:0:
91,166,96755,1,8,0:0:0:0:
91,166,96977,1,8,0:0:0:0:
91,166,97199,6,0,P|142:195|201:188,1,121.000003692627,12|14,0:0|0:0,0:0:0:0:
250,152,97866,2,0,P|301:122|361:126,1,121.000003692627,2|0,1:2|1:2,0:0:0:0:
404,176,98533,1,14,0:0:0:0:
404,176,98755,2,0,L|394:304,1,121.000003692627,2|2,1:2|1:2,0:0:0:0:
348,337,99422,2,0,P|318:338|288:336,1,60.5000018463135,14|2,0:0|1:2,0:0:0:0:
239,301,99866,1,14,0:0:0:0:
132,357,100311,1,14,0:0:0:0:
42,275,100755,5,14,0:0:0:0:
91,164,101199,2,0,L|156:168,1,60.5000018463135,14|0,0:0|1:0,0:0:0:0:
199,204,101644,2,0,L|264:200,1,60.5000018463135,14|0,0:0|1:0,0:0:0:0:
315,177,102088,1,14,0:0:0:0:
433,204,102533,2,0,P|448:246|425:315,1,121.000003692627,14|8,0:0|0:0,0:0:0:0:
367,331,103199,2,0,L|240:323,1,121.000003692627,6|4,1:2|3:0,0:0:0:0:
185,320,103866,1,10,0:0:0:0:
90,376,104311,6,0,P|75:323|86:269,1,110,6|12,1:2|0:0,0:0:0:0:
130,236,104977,2,0,P|144:183|133:129,1,110,2|2,1:2|1:2,0:0:0:0:
86,102,105644,2,0,L|89:42,1,55,14|2,0:0|1:2,0:0:0:0:
128,9,106088,1,14,0:0:0:0:
234,53,106533,1,0,1:0:0:0:
234,53,106755,2,0,P|281:32|340:40,1,110,10|8,0:0|0:0,0:0:0:0:
389,70,107422,1,10,0:0:0:0:
389,70,107644,1,10,0:0:0:0:
303,211,108311,5,6,1:2:0:0:
256,192,108533,12,0,114977,0:0:0:0:
