osu file format v14

[General]
AudioFilename: audio.mp3
AudioLeadIn: 0
PreviewTime: 60863
Countdown: 0
SampleSet: Soft
StackLeniency: 0.5
Mode: 0
LetterboxInBreaks: 0
WidescreenStoryboard: 0

[Editor]
DistanceSpacing: 0.8
BeatDivisor: 4
GridSize: 32
TimelineZoom: 1

[Metadata]
Title:Sotsugyou Album (Short Ver.)
TitleUnicode:卒業あるばむ (Short Ver.)
Artist:Gakuen Seikatsu-bu
ArtistUnicode:学園生活部
Creator:xHappy-
Version:Graduation
Source:がっこうぐらし!
Tags:anime pop jpop j-pop japanese p_kung school live school-live! graduation gakkou gurashi! character song graduate Takeya Yuki Minase Inori Ebisuzawa Kurumi Ozawa Ari Wakasa Yuuri M・A・O M.A.O Naoki Miki Takahashi Rie Yūri Sotsugyō 丈槍由紀 水瀬いのり 恵飛須沢胡桃 小澤亜李 若狭悠里 直樹美紀 高橋李依
BeatmapID:2302899
BeatmapSetID:1102344

[Difficulty]
HPDrainRate:6
CircleSize:5
OverallDifficulty:8
ApproachRate:8.5
SliderMultiplier:1.7
SliderTickRate:1

[Events]
//Background and Video events
0,0,"BG.jpg",0,0
//Break Periods
//Storyboard Layer 0 (Background)
//Storyboard Layer 1 (Fail)
//Storyboard Layer 2 (Pass)
//Storyboard Layer 3 (Foreground)
//Storyboard Layer 4 (Overlay)
//Storyboard Sound Samples

[TimingPoints]
312,444.444444444444,4,2,1,20,1,0
2978,-333.333333333333,4,2,1,20,0,0
3867,-166.666666666667,4,2,1,30,0,0
10534,-142.857142857143,4,2,1,40,0,0
10867,-142.857142857143,4,2,1,5,0,0
10978,-125,4,2,2,50,0,0
16311,-111.111111111111,4,2,1,60,0,0
17645,-111.111111111111,4,2,2,70,0,0
17756,-111.111111111111,4,2,1,60,0,0
18089,-100,4,2,1,70,0,0
33200,444.444444444444,4,2,1,60,1,0
33200,-111.111111111111,4,2,1,60,0,0
46977,-166.666666666667,4,2,1,60,0,0
47311,-166.666666666667,4,2,1,5,0,0
47422,-111.111111111111,4,2,1,60,0,0
59866,-100,4,2,1,70,0,0
60977,-142.857142857143,4,2,1,60,0,0
61644,-90.9090909090909,4,2,1,80,0,1
74533,-90.9090909090909,4,2,1,20,0,1
74644,-90.9090909090909,4,2,1,30,0,1
74755,-90.9090909090909,4,2,1,50,0,1
74866,-90.9090909090909,4,2,1,70,0,1
75422,-90.9090909090909,4,2,2,70,0,1
75533,-90.9090909090909,4,2,1,70,0,1
75866,-100,4,2,1,70,0,0
93977,-100,4,2,1,5,0,0
94088,-100,4,2,1,70,0,0
95755,-100,4,2,1,5,0,0
95866,-100,4,2,1,70,0,0
97644,-100,4,2,1,80,0,1
104311,-100,4,2,1,70,0,0
104644,-100,4,2,1,5,0,0
104755,-100,4,2,1,70,0,0
106311,-100,4,2,1,50,0,0
106533,-100,4,2,1,55,0,0
106755,-100,4,2,1,60,0,0
106977,-100,4,2,1,65,0,0
107199,-100,4,2,1,70,0,0
111422,-100,4,2,1,60,0,0
112311,-100,4,2,1,45,0,0
113199,-100,4,2,1,30,0,0
114088,-100,4,2,1,15,0,0
114977,-100,4,2,3,5,0,0

[Colours]
Combo1 : 1,150,214
Combo2 : 227,2,205
Combo3 : 150,23,204
Combo4 : 0,185,32

[HitObjects]
88,157,2978,6,0,L|82:102,1,50.9999984436036,2|0,0:0|0:0,0:0:0:0:
83,107,3867,6,0,P|108:106|131:116,1,50.9999984436036,2|0,0:0|0:0,0:0:0:0:
194,159,4311,2,0,P|219:159|242:149,1,50.9999984436036,2|0,0:0|0:0,0:0:0:0:
313,118,4756,2,0,P|287:162|282:212,1,101.999996887207,2|0,0:0|0:0,0:0:0:0:
244,280,5423,2,0,P|291:259|341:265,1,101.999996887207,2|0,0:0|0:0,0:0:0:0:
409,300,6089,1,2,0:0:0:0:
482,271,6311,1,0,0:0:0:0:
482,271,6534,2,0,L|480:220,1,50.9999984436036,2|0,0:0|0:0,0:0:0:0:
475,137,6978,5,2,0:0:0:0:
475,137,7200,1,0,0:0:0:0:
475,137,7423,1,2,0:0:0:0:
390,22,7867,1,2,0:0:0:0:
390,22,8089,1,0,0:0:0:0:
390,22,8311,1,2,0:0:0:0:
292,140,8756,5,0,0:0:0:0:
292,140,8978,2,0,L|230:146,1,50.9999984436036,2|0,0:0|0:0,0:0:0:0:
195,82,9423,2,0,P|166:123|168:173,2,101.999996887207,2|2|2,0:0|0:0|0:0,0:0:0:0:
275,44,10534,6,0,L|369:49,1,89.2499972763062,6|0,1:2|0:0,0:0:0:0:
404,52,10978,6,0,P|422:91|419:120,1,68,10|0,1:2|0:0,0:0:0:0:
500,153,11423,2,0,P|475:188|448:199,1,68,10|0,3:2|0:0,0:0:0:0:
367,177,11867,2,0,B|336:171|290:184|321:204|273:217|240:208,1,136,10|10,3:2|3:2,0:0:0:0:
158,173,12534,2,0,P|150:206|158:239,1,68,0|10,1:2|3:2,0:0:0:0:
216,304,12978,5,0,1:2:0:0:
135,341,13200,2,0,L|51:336,1,68,14|0,3:2|1:0,0:0:0:0:
17,263,13645,2,0,P|29:197|0:137,1,136,14|12,3:2|0:0,0:0:0:0:
41,59,14311,1,0,1:2:0:0:
158,96,14534,6,0,P|223:100|295:104,1,136,2|14,1:2|3:2,0:0:0:0:
357,43,15200,2,0,P|391:42|425:46,1,68,2|12,1:2|3:2,0:0:0:0:
507,81,15645,1,2,1:2:0:0:
511,169,15867,2,0,P|503:202|495:235,1,68,14|2,3:2|1:2,0:0:0:0:
328,247,16311,5,8,0:0:0:0:
512,359,16534,1,8,0:0:0:0:
510,336,16645,1,8,0:0:0:0:
508,313,16756,1,8,0:0:0:0:
305,372,16978,1,8,0:0:0:0:
424,219,17200,5,8,3:0:0:0:
508,313,17423,1,4,3:0:0:0:
328,247,17645,1,8,1:1:0:0:
333,224,17756,1,8,3:0:0:0:
339,201,17867,1,4,3:0:0:0:
237,306,18089,6,0,P|169:353|86:343,1,170,4|10,1:2|0:0,0:0:0:0:
12,191,18756,1,2,0:0:0:0:
12,191,18978,2,0,P|58:215|108:213,1,85,8|0,0:0|1:0,0:0:0:0:
295,189,19423,1,10,0:0:0:0:
231,121,19645,2,0,P|205:154|200:195,1,85,2|8,1:2|0:0,0:0:0:0:
370,318,20089,5,2,0:0:0:0:
379,162,20311,1,10,0:0:0:0:
249,275,20534,1,2,0:0:0:0:
379,162,20756,2,0,P|427:163|460:177,1,85,10|0,0:0|1:0,0:0:0:0:
370,317,21200,2,0,P|398:286|436:269,1,85,10|0,0:0|1:0,0:0:0:0:
288,356,21645,6,0,B|244:364|191:340|228:329|175:305|129:315,1,170,10|10,0:0|0:0,0:0:0:0:
42,343,22311,1,0,1:0:0:0:
39,167,22534,2,0,L|45:260,1,85,10|0,0:0|1:0,0:0:0:0:
204,194,22978,2,0,P|165:212|123:210,1,85,10|0,0:0|1:0,0:0:0:0:
37,33,23423,6,0,B|123:54|123:54|149:63|168:88|148:121,1,170,10|8,0:0|0:0,0:0:0:0:
44,235,24089,1,2,1:2:0:0:
41,201,24200,1,8,0:0:0:0:
39,167,24311,1,8,0:2:0:0:
129,308,24534,1,0,1:0:0:0:
238,202,24756,1,8,0:2:0:0:
204,194,24867,1,8,0:0:0:0:
170,188,24978,1,0,1:2:0:0:
247,331,25200,6,0,P|329:338|395:287,1,170,12|10,0:2|0:0,0:0:0:0:
480,150,25867,1,2,0:0:0:0:
480,150,26089,2,0,L|371:157,1,85,8|0,0:0|1:0,0:0:0:0:
208,99,26534,1,10,0:0:0:0:
290,46,26756,2,0,P|303:86|300:128,1,85,2|8,1:2|0:0,0:0:0:0:
90,220,27200,5,2,0:0:0:0:
47,101,27423,1,10,0:0:0:0:
0,263,27645,1,2,0:0:0:0:
47,101,27867,2,0,P|60:61|62:18,1,85,10|0,0:0|1:2,0:0:0:0:
187,205,28311,2,0,P|174:165|171:122,1,85,14|0,0:0|1:2,0:0:0:0:
0,263,28756,6,0,B|44:255|97:279|60:290|112:313|158:303,1,170,6|10,1:2|0:0,0:0:0:0:
252,274,29423,1,0,1:0:0:0:
170,122,29645,2,0,P|162:162|176:207,1,85,10|0,0:0|1:0,0:0:0:0:
342,164,30089,2,0,L|257:160,1,85,10|0,0:0|1:0,0:0:0:0:
457,195,30534,6,0,B|465:151|441:98|430:135|406:82|416:36,1,170,10|8,0:0|0:0,0:0:0:0:
387,21,31089,1,8,0:0:0:0:
387,21,31200,2,0,P|371:35|351:42,1,42.5,8|8,0:0|0:0,0:0:0:0:
213,10,31423,5,8,0:0:0:0:
213,10,31534,1,8,0:0:0:0:
213,10,31645,2,0,P|233:6|254:11,1,42.5,8|4,3:0|3:0,0:0:0:0:
291,136,31867,5,8,0:0:0:0:
291,136,31978,1,8,0:0:0:0:
291,136,32089,2,0,P|281:115|281:95,1,42.5,8|4,3:0|3:0,0:0:0:0:
447,113,32311,5,8,3:0:0:0:
380,178,32534,1,4,3:0:0:0:
512,318,32756,1,12,0:0:0:0:
159,278,33200,6,0,P|166:233|171:183,1,76.4999976654053,6|2,1:2|1:2,0:0:0:0:
100,141,33644,1,10,0:2:0:0:
13,169,33866,2,0,P|13:244|27:340,1,152.999995330811,2|0,1:2|1:0,0:0:0:0:
117,368,34533,1,8,0:0:0:0:
195,267,34755,1,2,1:2:0:0:
332,349,34977,6,0,P|372:355|412:357,1,76.4999976654053,2|2,1:2|1:2,0:0:0:0:
492,320,35422,1,10,0:2:0:0:
510,235,35644,2,0,P|425:243|348:245,1,152.999995330811,2|0,1:2|1:0,0:0:0:0:
285,165,36311,1,8,0:0:0:0:
205,264,36533,1,2,1:2:0:0:
107,132,36755,6,0,P|99:90|100:54,1,76.4999976654053,2|2,1:2|1:2,0:0:0:0:
165,0,37199,1,10,0:2:0:0:
248,7,37422,2,0,P|245:91|235:174,1,152.999995330811,2|0,1:2|1:0,0:0:0:0:
165,236,38088,1,8,0:0:0:0:
217,356,38311,1,2,1:2:0:0:
382,301,38533,6,0,P|375:255|372:209,1,76.4999976654053,2|2,1:2|1:2,0:0:0:0:
474,331,38977,1,10,0:2:0:0:
474,331,39199,2,0,P|481:286|483:243,1,76.4999976654053,2|0,1:2|0:0,0:0:0:0:
404,145,39644,1,0,1:0:0:0:
436,54,39866,2,0,L|512:57,1,76.4999976654053,8|2,0:0|1:2,0:0:0:0:
329,74,40311,5,2,1:2:0:0:
317,237,40533,1,2,0:0:0:0:
452,166,40755,1,10,0:0:0:0:
329,74,40977,2,0,P|289:80|243:88,1,76.4999976654053,2|0,1:2|0:0,0:0:0:0:
141,163,41422,1,0,1:0:0:0:
72,99,41644,2,0,L|79:19,1,76.4999976654053,8|2,0:0|1:2,0:0:0:0:
43,184,42088,5,2,1:2:0:0:
65,335,42311,1,2,1:2:0:0:
187,231,42533,1,10,0:0:0:0:
304,312,42755,2,0,P|182:305|127:304,1,152.999995330811,2|2,1:2|1:2,0:0:0:0:
0,351,43422,1,10,0:0:0:0:
65,248,43644,1,2,1:2:0:0:
11,154,43866,6,0,P|87:162|163:166,1,152.999995330811,2|10,1:2|0:0,0:0:0:0:
279,54,44533,2,0,P|202:58|126:66,1,152.999995330811,2|2,1:2|1:2,0:0:0:0:
255,141,45199,1,8,0:0:0:0:
365,34,45422,6,0,P|368:86|365:130,1,76.4999976654053,2|0,0:2|1:0,0:0:0:0:
322,237,45866,1,2,1:2:0:0:
458,168,46088,1,10,0:0:0:0:
386,303,46311,2,0,P|307:326|242:280,1,152.999995330811,6|0,1:2|1:0,0:0:0:0:
172,192,46977,6,0,L|178:114,1,76.4999976654053,8|0,0:0|0:0,0:0:0:0:
210,77,47422,6,0,L|201:233,1,152.999995330811,6|10,1:2|0:0,0:0:0:0:
191,343,48088,1,2,1:2:0:0:
126,246,48311,2,0,P|199:230|271:259,1,152.999995330811,2|8,0:0|0:0,0:0:0:0:
339,349,48977,1,2,1:2:0:0:
468,304,49199,5,2,1:2:0:0:
399,237,49422,1,2,0:0:0:0:
495,150,49644,1,10,0:0:0:0:
394,55,49866,2,0,P|341:63|240:64,1,152.999995330811,2|2,1:2|1:2,0:0:0:0:
146,33,50533,2,0,P|139:67|156:115,1,76.4999976654053,10|2,0:0|1:2,0:0:0:0:
295,182,50977,6,0,B|258:176|206:198|248:207|192:230|152:222,1,152.999995330811,6|10,1:2|0:0,0:0:0:0:
19,310,51644,2,0,B|3:198|3:198|31:233,1,152.999995330811,6|2,1:2|1:2,0:0:0:0:
108,335,52311,1,10,0:0:0:0:
263,314,52533,6,0,B|304:338|304:338|430:331,1,152.999995330811,6|2,1:2|1:2,0:0:0:0:
483,214,53199,1,10,0:0:0:0:
361,109,53422,2,0,B|315:111|315:111|264:134|264:134|212:136,1,152.999995330811,6|2,1:2|1:2,0:0:0:0:
147,72,54088,1,8,0:0:0:0:
57,93,54311,1,0,1:2:0:0:
43,265,54533,5,4,1:2:0:0:
253,377,54977,2,0,P|257:337|252:289,1,76.4999976654053,10|0,0:0|1:2,0:0:0:0:
317,187,55422,2,0,P|255:229|181:221,1,152.999995330811,2|8,0:0|0:0,0:0:0:0:
93,147,56088,1,2,1:2:0:0:
159,26,56311,5,2,1:2:0:0:
17,83,56533,1,2,0:0:0:0:
62,228,56755,1,10,0:0:0:0:
121,124,56977,2,0,P|197:114|274:116,1,152.999995330811,2|2,1:2|1:2,0:0:0:0:
361,167,57644,1,8,0:0:0:0:
290,332,57866,6,0,P|246:274|274:205,1,152.999995330811,6|0,1:2|1:0,0:0:0:0:
385,138,58533,2,0,P|395:191|398:230,1,76.4999976654053,8|2,0:0|1:2,0:0:0:0:
492,93,58977,2,0,P|482:146|479:185,1,76.4999976654053,10|2,0:0|1:2,0:0:0:0:
508,319,59422,1,10,0:0:0:0:
340,259,59644,1,2,1:2:0:0:
159,305,59866,5,10,0:0:0:0:
137,103,60088,1,10,0:0:0:0:
336,89,60311,1,10,0:0:0:0:
358,287,60533,1,10,0:0:0:0:
358,287,60977,6,0,P|324:261|251:259,1,118.999996368408,6|0,1:2|0:0,0:2:0:0:
33,366,61644,5,6,1:2:0:0:
142,198,61866,1,2,1:2:0:0:
287,333,62088,1,10,0:2:0:0:
33,237,62311,1,2,0:2:0:0:
254,91,62533,2,0,P|271:149|260:191,1,93.5000028533936,2|0,1:0|1:0,0:0:0:0:
140,278,62977,1,10,0:0:0:0:
287,333,63199,6,0,P|333:333|372:308,1,93.5000028533936,2|2,1:2|1:0,0:0:0:0:
441,169,63644,1,2,1:2:0:0:
312,260,63866,1,10,0:1:0:0:
205,144,64088,1,2,1:2:0:0:
114,251,64311,2,0,P|68:251|29:226,1,93.5000028533936,2|0,1:0|1:0,0:0:0:0:
1,74,64755,1,10,0:0:0:0:
147,190,64977,1,2,1:2:0:0:
348,39,65199,6,0,P|336:84|332:131,1,93.5000028533936,2|0,1:0|1:0,0:0:0:0:
480,260,65644,1,10,0:0:0:0:
414,99,65866,1,2,0:2:0:0:
238,153,66088,2,0,P|250:198|254:245,1,93.5000028533936,2|0,1:0|1:0,0:0:0:0:
91,326,66533,1,10,0:0:0:0:
34,76,66755,6,0,P|81:82|127:92,1,93.5000028533936,2|2,1:2|1:0,0:0:0:0:
414,188,67199,2,0,P|367:193|322:203,1,93.5000028533936,2|8,1:2|0:0,0:0:0:0:
91,326,67644,1,2,1:2:0:0:
226,132,67866,1,2,1:0:0:0:
39,164,68088,1,2,1:2:0:0:
246,313,68311,1,10,0:0:0:0:
284,311,68422,1,8,0:2:0:0:
321,308,68533,1,2,1:2:0:0:
433,60,68755,5,6,1:2:0:0:
421,194,68977,1,2,1:2:0:0:
316,33,69199,1,10,0:0:0:0:
512,0,69422,1,2,0:0:0:0:
324,122,69644,2,0,P|275:115|242:84,1,93.5000028533936,2|0,1:0|1:0,0:0:0:0:
111,0,70088,1,10,0:0:0:0:
2,161,70311,6,0,L|10:260,1,93.5000028533936,2|2,1:2|1:0,0:0:0:0:
241,276,70755,1,2,1:2:0:0:
79,383,70977,1,10,0:1:0:0:
147,180,71199,1,2,1:2:0:0:
338,273,71422,2,0,B|377:301|381:354|350:388|304:386|287:350|293:321,1,187.000005706787,2|8,1:0|0:0,0:0:0:0:
430,195,72088,1,2,1:2:0:0:
316,33,72311,5,2,1:0:0:0:
266,167,72533,1,0,1:0:0:0:
266,167,72644,1,0,1:0:0:0:
266,167,72755,1,10,0:2:0:0:
147,60,72977,1,2,1:2:0:0:
147,60,73088,1,0,1:0:0:0:
147,60,73199,1,10,1:0:0:0:
345,112,73422,1,2,1:2:0:0:
345,112,73533,1,0,1:0:0:0:
345,112,73644,1,10,0:0:0:0:
230,307,73866,1,2,1:2:0:0:
230,307,73977,1,0,1:0:0:0:
230,307,74088,1,14,0:2:0:0:
36,178,74533,6,0,L|42:130,1,46.7500014266968,8|8,0:0|0:0,0:0:0:0:
4,69,74755,1,8,0:0:0:0:
4,69,74866,1,8,0:0:0:0:
4,69,74977,2,0,P|53:58|102:85,1,93.5000028533936,8|8,0:0|0:0,0:0:0:0:
192,171,75422,1,8,1:0:0:0:
189,133,75533,1,8,3:0:0:0:
187,96,75644,1,4,3:0:0:0:
128,256,75866,6,0,P|188:206|279:214,1,170,4|10,1:2|0:0,0:0:0:0:
406,316,76533,1,2,0:0:0:0:
406,316,76755,2,0,L|423:207,1,85,8|0,0:0|1:0,0:0:0:0:
443,49,77199,1,10,0:0:0:0:
509,114,77422,2,0,P|476:138|421:140,1,85,2|8,1:2|0:0,0:0:0:0:
177,19,77866,5,2,0:2:0:0:
283,90,78088,1,10,0:0:0:0:
132,142,78311,1,2,0:2:0:0:
283,90,78533,2,0,P|294:131|285:175,1,85,10|0,0:0|1:2,0:2:0:0:
199,316,78977,2,0,P|188:275|195:233,1,85,10|0,0:0|1:0,0:0:0:0:
444,307,79422,6,0,B|400:315|347:291|384:280|331:256|285:266,1,170,10|10,0:0|0:0,0:0:0:0:
199,316,80088,1,0,1:0:0:0:
286,172,80311,2,0,P|293:130|283:90,1,85,10|0,0:0|1:2,0:2:0:0:
97,33,80755,2,0,P|90:75|101:116,1,85,10|0,0:0|1:2,0:2:0:0:
261,11,81199,6,0,B|324:0|357:51|357:51|376:27|409:25,1,170,10|8,0:0|0:0,0:0:0:0:
512,105,81866,1,2,0:0:0:0:
420,232,82088,1,8,0:0:0:0:
420,232,82199,1,8,0:0:0:0:
420,232,82311,2,0,L|413:173,1,42.5,0|0,1:0|1:0,0:0:0:0:
291,96,82533,1,8,0:0:0:0:
291,96,82644,1,8,0:0:0:0:
291,96,82756,2,0,L|284:155,1,42.5,0|0,1:0|1:0,0:0:0:0:
231,288,82977,6,0,P|163:279|124:183,1,170,12|10,0:0|0:0,0:0:0:0:
163,9,83644,1,2,0:0:0:0:
163,9,83866,2,0,L|177:92,1,85,8|0,0:0|1:0,0:0:0:0:
51,268,84311,1,10,0:0:0:0:
38,179,84533,2,0,L|121:194,1,85,2|8,1:2|0:0,0:0:0:0:
252,351,84977,5,2,0:0:0:0:
297,225,85199,1,10,0:0:0:0:
372,384,85422,1,2,0:0:0:0:
297,225,85644,2,0,P|300:267|320:304,1,85,10|0,0:0|1:0,0:0:0:0:
449,141,86088,2,0,P|445:183|425:220,1,85,14|0,0:0|1:0,0:0:0:0:
220,117,86533,6,0,B|264:125|317:101|280:90|332:66|378:76,1,170,6|10,1:2|0:0,0:0:0:0:
449,141,87199,1,0,1:0:0:0:
297,225,87422,2,0,P|287:275|294:314,1,85,10|0,0:0|1:0,0:0:0:0:
220,117,87866,2,0,P|171:133|141:158,1,85,10|0,0:0|1:0,0:0:0:0:
3,24,88311,6,0,B|49:44|49:44|176:39,1,170,10|8,0:0|0:0,0:0:0:0:
313,31,88977,1,2,0:0:0:0:
145,154,89199,1,8,0:0:0:0:
271,132,89422,1,0,1:0:0:0:
292,133,89533,1,0,1:0:0:0:
313,135,89644,1,8,0:0:0:0:
334,137,89755,1,8,0:0:0:0:
355,138,89866,1,0,1:0:0:0:
512,256,90088,6,0,L|335:266,1,170,6|14,1:2|0:0,0:0:0:0:
208,112,90755,1,2,0:0:0:0:
208,112,90977,2,0,P|193:151|196:193,1,85,8|0,0:0|1:0,0:0:0:0:
346,348,91422,1,10,0:0:0:0:
261,374,91644,2,0,L|254:289,1,85,2|8,1:2|0:0,0:0:0:0:
147,82,92088,5,2,0:0:0:0:
32,151,92311,1,10,0:0:0:0:
197,194,92533,1,2,0:0:0:0:
32,151,92755,2,0,P|16:111|19:69,1,85,10|0,0:0|1:0,0:0:0:0:
212,30,93199,2,0,P|174:49|147:81,1,85,10|0,0:0|1:0,0:0:0:0:
323,170,93644,6,0,P|309:108|334:50,1,127.5,10|0,0:0|0:0,0:0:0:0:
355,37,94088,2,0,L|447:43,1,85,14|0,0:0|0:0,0:0:0:0:
323,170,94533,2,0,L|239:176,1,85,10|0,0:0|1:0,0:0:0:0:
435,298,94977,2,0,L|350:292,1,85,14|0,0:0|1:0,0:0:0:0:
140,263,95422,6,0,P|201:253|232:200,1,127.5,10|0,0:0|0:0,0:0:0:0:
238,176,95866,1,14,0:0:0:0:
155,57,96088,1,2,0:0:0:0:
0,171,96311,1,8,0:0:0:0:
54,291,96533,1,0,1:0:0:0:
54,291,96644,1,0,1:0:0:0:
54,291,96755,1,8,0:0:0:0:
53,312,96866,1,8,0:0:0:0:
52,333,96977,1,8,0:0:0:0:
52,354,97088,1,8,0:0:0:0:
51,375,97199,6,0,L|156:367,1,85,12|0,0:0|0:0,0:0:0:0:
370,353,97644,1,14,0:0:0:0:
254,229,97866,1,2,1:2:0:0:
255,250,97977,1,0,1:0:0:0:
257,271,98088,1,12,0:0:0:0:
368,130,98311,1,0,1:0:0:0:
367,153,98422,1,0,1:0:0:0:
365,176,98533,1,14,0:0:0:0:
250,36,98755,5,2,1:2:0:0:
252,61,98866,1,0,1:0:0:0:
252,86,98977,2,0,P|223:120|165:143,1,85,12|2,0:0|1:2,0:0:0:0:
158,141,99310,1,0,1:0:0:0:
132,133,99421,1,14,0:0:0:0:
146,255,99644,1,2,1:2:0:0:
115,259,99755,1,0,1:0:0:0:
90,273,99866,1,14,0:0:0:0:
251,277,100088,1,0,1:0:0:0:
264,307,100199,1,0,1:0:0:0:
285,328,100310,1,14,0:0:0:0:
396,183,100533,5,0,1:0:0:0:
381,215,100644,1,0,1:0:0:0:
350,226,100755,2,0,P|315:201|296:155,1,85,14|0,0:0|1:0,0:0:0:0:
297,128,101088,1,0,1:0:0:0:
307,93,101199,1,14,0:0:0:0:
138,20,101422,1,0,1:0:0:0:
175,25,101533,1,0,1:0:0:0:
213,30,101644,1,14,0:0:0:0:
18,112,101866,1,0,1:0:0:0:
57,106,101977,1,0,1:0:0:0:
97,100,102088,1,14,0:0:0:0:
23,274,102311,5,0,1:3:0:0:
37,234,102422,1,0,1:3:0:0:
53,194,102533,2,0,L|82:295,1,85,14|0,0:0|1:0,0:0:0:0:
86,303,102866,1,0,1:0:0:0:
95,331,102977,1,8,0:0:0:0:
237,364,103199,2,0,L|266:280,1,85,6|2,1:2|0:0,0:0:0:0:
275,255,103533,1,8,0:0:0:0:
286,227,103644,1,4,3:0:0:0:
139,91,103866,1,10,0:0:0:0:
181,93,103977,1,8,0:0:0:0:
223,97,104088,1,10,0:0:0:0:
265,99,104199,1,8,0:0:0:0:
307,102,104311,6,0,P|371:105|419:148,1,127.5,6|0,1:2|0:0,0:0:0:0:
430,176,104755,1,12,0:0:0:0:
304,260,104977,1,2,1:2:0:0:
317,231,105088,1,0,1:0:0:0:
331,203,105199,1,12,0:0:0:0:
512,293,105422,1,2,1:2:0:0:
498,264,105533,1,0,1:0:0:0:
485,236,105644,1,14,0:0:0:0:
376,366,105866,1,2,1:2:0:0:
206,170,106088,6,0,L|213:340,1,170,6|0,1:2|1:0,0:0:0:0:
116,334,106755,5,10,0:0:0:0:
126,158,106977,1,8,0:0:0:0:
116,354,107199,1,8,0:0:0:0:
23,117,107422,5,10,0:0:0:0:
40,375,107644,1,10,0:0:0:0:
320,192,108311,5,6,1:2:0:0:
256,192,108422,12,0,114977,0:0:0:0:
