osu file format v14

[General]
AudioFilename: audio.mp3
AudioLeadIn: 0
PreviewTime: 60863
Countdown: 0
SampleSet: Soft
StackLeniency: 0.5
Mode: 0
LetterboxInBreaks: 0
WidescreenStoryboard: 1

[Editor]
DistanceSpacing: 1
BeatDivisor: 4
GridSize: 32
TimelineZoom: 1

[Metadata]
Title:Sotsugyou Album (Short Ver.)
TitleUnicode:卒業あるばむ (Short Ver.)
Artist:Gakuen Seikatsu-bu
ArtistUnicode:学園生活部
Creator:xHappy-
Version:Easy
Source:がっこうぐらし!
Tags:anime pop jpop j-pop japanese p_kung school live school-live! graduation gakkou gurashi! character song graduate Takeya Yuki Minase Inori Ebisuzawa Kurumi Ozawa Ari Wakasa Yuuri M・A・O M.A.O Naoki Miki Takahashi Rie Yūri Sotsugyō 丈槍由紀 水瀬いのり 恵飛須沢胡桃 小澤亜李 若狭悠里 直樹美紀 高橋李依
BeatmapID:2331969
BeatmapSetID:1102344

[Difficulty]
HPDrainRate:2
CircleSize:3
OverallDifficulty:2
ApproachRate:3
SliderMultiplier:0.9
SliderTickRate:1

[Events]
//Background and Video events
0,0,"BG.jpg",0,0
//Break Periods
//Storyboard Layer 0 (Background)
//Storyboard Layer 1 (Fail)
//Storyboard Layer 2 (Pass)
//Storyboard Layer 3 (Foreground)
//Storyboard Layer 4 (Overlay)
//Storyboard Sound Samples

[TimingPoints]
312,444.444444444444,4,2,1,20,1,0
2978,-100,4,2,1,20,0,0
3867,-100,4,2,1,30,0,0
10534,-100,4,2,1,40,0,0
10867,-100,4,2,1,5,0,0
10978,-100,4,2,2,50,0,0
16311,-100,4,2,1,60,0,0
17645,-100,4,2,2,60,0,0
18089,-100,4,2,1,70,0,0
33200,444.444444444444,4,2,1,60,1,0
33200,-100,4,2,1,60,0,0
46977,-100,4,2,1,60,0,0
47311,-100,4,2,1,5,0,0
47422,-100,4,2,1,60,0,0
59866,-100,4,2,1,70,0,0
60977,-100,4,2,1,60,0,0
61644,-100,4,2,1,80,0,1
74533,-100,4,2,1,20,0,1
74644,-100,4,2,1,30,0,1
74755,-100,4,2,1,50,0,1
74866,-100,4,2,1,70,0,1
75422,-100,4,2,2,70,0,1
75866,-100,4,2,1,70,0,0
97644,-100,4,2,1,80,0,1
104311,-100,4,2,1,70,0,0
106311,-100,4,2,1,50,0,0
106533,-100,4,2,1,55,0,0
106755,-100,4,2,1,60,0,0
106977,-100,4,2,1,65,0,0
107199,-100,4,2,1,70,0,0
111422,-100,4,2,1,60,0,0
112311,-100,4,2,1,45,0,0
113199,-100,4,2,1,30,0,0
114088,-100,4,2,1,15,0,0
114977,-100,4,2,3,5,0,0

[Colours]
Combo1 : 1,150,214
Combo2 : 227,2,205
Combo3 : 150,23,204
Combo4 : 0,185,32

[HitObjects]
57,368,2978,5,2,0:0:0:0:
17,192,3867,6,0,P|100:213|166:155,1,180,2|2,0:0|0:0,0:0:0:0:
324,69,5645,2,0,P|258:11|174:32,1,180,2|2,0:0|0:0,0:0:0:0:
104,89,6978,1,2,0:0:0:0:
166,155,7423,6,0,L|184:342,1,180,2|2,0:0|0:0,0:0:0:0:
357,380,9200,2,0,L|374:200,1,180,2|2,0:0|0:0,0:0:0:0:
444,144,10534,1,6,1:2:0:0:
378,82,10978,6,0,P|333:85|265:192,1,180,10|10,1:2|3:2,0:0:0:0:
277,278,12311,1,10,3:2:0:0:
187,268,12756,2,0,L|190:360,2,90,10|14|14,3:2|3:2|3:2,0:0:0:0:
98,282,14089,1,12,0:0:0:0:
31,342,14534,6,0,P|10:302|11:258,1,90,2|14,1:2|3:2,0:0:0:0:
61,182,15423,2,0,L|59:84,1,90,12|14,3:2|3:2,0:0:0:0:
56,2,16311,1,8,0:0:0:0:
326,6,17645,1,8,1:1:0:0:
259,66,18089,6,0,L|167:62,2,90,4|10|8,1:2|0:0|0:0,0:0:0:0:
277,154,19423,1,10,0:0:0:0:
200,201,19867,2,0,P|229:233|272:243,1,90,8|10,0:0|0:0,0:0:0:0:
316,322,20756,2,0,P|349:291|359:248,1,90,10|10,0:0|0:0,0:0:0:0:
370,159,21645,6,0,P|444:113|448:27,1,180,10|10,0:0|0:0,0:0:0:0:
361,3,22978,1,10,0:0:0:0:
281,46,23423,2,0,L|144:41,2,135,10|2|8,0:0|1:2|0:2,0:0:0:0:
270,135,25200,6,0,P|251:175|255:224,2,90,12|10|8,0:2|0:0|0:0,0:0:0:0:
339,193,26534,1,10,0:0:0:0:
407,135,26978,2,0,P|425:175|422:224,1,90,8|10,0:2|0:0,0:0:0:0:
370,293,27867,1,10,0:0:0:0:
281,309,28311,1,14,0:0:0:0:
192,324,28756,6,0,P|136:257|146:170,1,180,6|10,1:2|0:0,0:0:0:0:
193,92,30089,1,10,0:0:0:0:
120,38,30534,2,0,P|65:1|1:16,2,135,10|10|8,0:0|0:0|0:0,0:0:0:0:
193,92,32311,2,0,L|290:87,1,90,8|12,3:0|0:0,0:0:0:0:
340,18,33200,6,0,P|372:75|352:145,1,135,6|2,1:2|1:2,0:0:0:0:
244,214,34533,1,8,0:0:0:0:
269,300,34977,2,0,L|408:294,2,135,2|2|8,1:2|1:2|0:0,0:0:0:0:
199,356,36755,6,0,P|133:360|87:313,1,135,2|2,1:2|1:2,0:0:0:0:
146,191,38088,1,8,0:0:0:0:
133,101,38533,2,0,L|-1:111,2,135,2|2|8,1:2|1:2|0:0,0:0:0:0:
185,28,40311,6,0,P|250:12|312:37,2,135,2|2|8,1:2|1:2|0:0,0:0:0:0:
134,101,42088,2,0,L|144:257,1,135,2|2,1:2|1:2,0:0:0:0:
158,370,43422,1,10,0:0:0:0:
231,317,43866,6,0,P|287:282|352:292,1,135,2|2,1:2|1:2,0:0:0:0:
431,334,44977,1,2,1:2:0:0:
496,272,45422,2,0,L|509:92,1,180,2|6,0:2|1:2,0:0:0:0:
392,24,46977,1,8,0:0:0:0:
318,76,47422,6,0,P|274:85|230:76,1,90,6|10,1:2|0:0,0:0:0:0:
155,26,48311,1,2,0:0:0:0:
78,72,48755,1,8,0:0:0:0:
108,156,49199,2,0,L|102:296,2,135,2|2|10,1:2|1:2|0:0,0:0:0:0:
198,157,50977,6,0,P|282:185|332:179,1,135,6|6,1:2|1:2,0:0:0:0:
399,233,52088,1,2,1:2:0:0:
459,166,52533,2,0,P|484:202|488:246,1,90,6|2,1:2|1:2,0:0:0:0:
448,327,53422,2,0,L|306:332,1,135,6|8,1:2|0:0,0:0:0:0:
228,363,54533,5,4,1:2:0:0:
143,333,54977,1,10,0:0:0:0:
63,376,55422,2,0,P|53:333|64:290,1,90,2|8,0:0|0:0,0:0:0:0:
107,210,56311,2,0,P|52:178|31:110,1,135,2|2,1:2|1:2,0:0:0:0:
61,28,57422,1,2,1:2:0:0:
145,59,57866,6,0,L|286:56,1,135,6|8,1:2|0:0,0:0:0:0:
355,6,58977,1,10,0:0:0:0:
433,49,59422,1,10,0:0:0:0:
388,127,59866,2,0,L|399:282,1,135,10|10,0:0|0:0,0:0:0:0:
409,350,60977,1,6,1:2:0:0:
274,360,61644,6,0,L|280:269,1,90,6|10,1:2|0:2,0:0:0:0:
216,205,62533,2,0,L|210:114,1,90,2|10,1:0|0:0,0:0:0:0:
259,39,63422,1,2,1:0:0:0:
345,14,63866,1,10,0:1:0:0:
431,39,64311,2,0,L|425:130,1,90,2|10,1:0|0:0,0:0:0:0:
337,152,65199,6,0,P|360:191|399:214,2,90,2|10|2,1:0|0:0|1:0,0:0:0:0:
295,73,66533,1,10,0:0:0:0:
208,96,66977,2,0,L|212:200,1,90,2|8,1:0|0:0,0:0:0:0:
156,257,67866,1,2,1:0:0:0:
188,341,68311,1,10,0:0:0:0:
277,343,68755,6,0,P|321:350|363:337,1,90,6|10,1:2|0:0,0:0:0:0:
445,377,69644,2,0,P|452:332|439:290,1,90,2|10,1:0|0:0,0:0:0:0:
395,211,70533,1,2,1:0:0:0:
307,230,70977,1,10,0:1:0:0:
225,191,71422,2,0,L|126:203,1,90,2|8,1:0|0:0,0:0:0:0:
46,186,72311,5,2,1:0:0:0:
50,95,72755,1,10,0:2:0:0:
97,18,73199,1,10,1:0:0:0:
184,39,73644,1,10,0:0:0:0:
272,21,74088,1,14,0:2:0:0:
451,38,74977,2,0,P|461:81|456:126,1,90,8|8,0:0|1:0,0:0:0:0:
401,197,75866,6,0,L|407:286,2,90,6|10|8,1:2|0:0|0:0,0:0:0:0:
317,164,77199,1,10,0:0:0:0:
256,230,77644,2,0,L|166:223,1,90,8|10,0:0|0:0,0:0:0:0:
87,180,78533,2,0,L|80:86,1,90,10|10,0:0|0:0,0:0:0:0:
137,20,79422,6,0,P|206:76|294:73,1,180,10|10,0:0|0:0,0:0:0:0:
372,29,80755,1,10,0:0:0:0:
449,75,81199,2,0,L|443:211,2,135,10|2|8,0:0|0:0|0:0,0:0:0:0:
372,29,82977,6,0,L|276:40,2,90,12|10|8,0:0|0:0|0:0,0:0:0:0:
361,118,84311,1,10,0:0:0:0:
380,205,84755,2,0,P|335:206|298:185,1,90,8|10,0:0|0:0,0:0:0:0:
233,119,85644,1,10,0:0:0:0:
167,181,86088,1,14,0:0:0:0:
118,104,86533,6,0,P|32:113|0:192,1,180,6|10,1:2|0:0,0:0:0:0:
56,261,87866,1,10,0:0:0:0:
18,343,88311,2,0,P|61:351|103:336,1,90,10|8,0:0|0:0,0:0:0:0:
181,291,89199,1,8,0:0:0:0:
263,326,89644,1,8,0:0:0:0:
326,262,90088,6,0,L|415:266,2,90,6|14|8,1:2|0:0|0:0,0:0:0:0:
281,183,91422,1,10,0:0:0:0:
304,96,91866,2,0,P|259:93|220:114,1,90,8|10,0:0|0:0,0:0:0:0:
150,56,92755,2,0,P|128:94|131:139,1,90,10|10,0:0|0:0,0:0:0:0:
167,221,93644,5,10,0:0:0:0:
77,214,94088,1,14,0:0:0:0:
0,261,94533,2,0,P|4:305|32:339,1,90,10|14,0:0|0:0,0:0:0:0:
119,363,95422,2,0,L|260:356,2,135,10|2|8,0:0|0:0|0:0,0:0:0:0:
32,339,97199,5,12,0:0:0:0:
72,258,97644,2,0,P|84:215|68:173,1,90,12|14,0:0|0:0,0:0:0:0:
6,108,98533,2,0,P|-5:65|10:23,1,90,14|14,0:0|0:0,0:0:0:0:
97,0,99422,1,14,0:0:0:0:
169,52,99866,1,14,0:0:0:0:
256,29,100311,1,14,0:0:0:0:
329,80,100755,6,0,P|338:123|329:167,1,90,14|14,0:0|0:0,0:0:0:0:
256,220,101644,1,14,0:0:0:0:
291,302,102088,1,14,0:0:0:0:
375,272,102533,2,0,P|441:267|484:316,2,135,14|6|10,0:0|1:2|0:0,0:0:0:0:
291,302,104311,5,6,1:2:0:0:
201,302,104755,1,14,0:0:0:0:
114,326,105199,2,0,P|112:281|134:242,1,90,12|14,0:0|0:0,0:0:0:0:
212,197,106088,2,0,P|146:202|99:156,2,135,14|10|10,0:2|0:0|0:0,0:0:0:0:
366,103,108311,5,6,1:2:0:0:
256,192,108533,12,0,114977,0:0:0:0:
