osu file format v14

[General]
AudioFilename: audio.mp3
AudioLeadIn: 0
PreviewTime:62322
Countdown: 0
SampleSet: Normal
StackLeniency: 0.7
Mode: 1
LetterboxInBreaks: 0
WidescreenStoryboard: 1

[Editor]
DistanceSpacing: 1.2
BeatDivisor: 4
GridSize: 32
TimelineZoom: 2.799999

[Metadata]
Title:Friend Shitai (TV Size)
TitleUnicode:ふ・れ・ん・ど・し・た・い (TV Size)
Artist:Gakuen Seikatsu-bu
ArtistUnicode:学園生活部
Creator:maxie
Version:Muzukashii
Source:がっこうぐらし!
Tags:SCHOOL-LIVE! Anime Japanese Gakkou Gurashi! GNCA-0363 GNCA-0364 丈槍由紀 Takeya Yuki 水瀬いのり Minase Inori 恵飛須沢胡桃 Ebisuzawa Kurumi 小澤亜李 Ozawa Ari 若狭悠里 Wakasa Yuuri M.A.O M・A・O M・A・O Ichimichi Mao 直樹美紀 Naoki Miki 高橋李依 Takahashi Rie op opening jpop pop j-pop
BeatmapID:4069890
BeatmapSetID:1952397

[Difficulty]
HPDrainRate:7
CircleSize:5
OverallDifficulty:5
ApproachRate:5
SliderMultiplier:1.4
SliderTickRate:1

[Events]
//Background and Video events
0,0,"AZ6lzHI.jpg",0,35
Video,0,"output.mp4"
//Break Periods
//Storyboard Layer 0 (Background)
//Storyboard Layer 1 (Fail)
//Storyboard Layer 2 (Pass)
//Storyboard Layer 3 (Foreground)
//Storyboard Layer 4 (Overlay)
//Storyboard Sound Samples

[TimingPoints]
701,405.405405405405,4,1,0,55,1,0
8804,-100,4,1,0,70,0,0
8809,-100,4,1,0,70,0,1
20966,-100,4,1,0,60,0,1
20971,-100,4,1,0,60,0,0
34750,-100,4,1,0,55,0,0
62317,-100,4,1,0,70,0,0
62322,-100,4,1,0,70,0,1
87452,-100,4,1,0,55,0,1
87457,-100,4,1,0,55,0,0

[HitObjects]
448,64,701,5,8,1:0:0:0:
64,64,1511,1,0,1:0:0:0:
64,64,2322,1,0,1:0:0:0:
448,64,3133,1,8,1:0:0:0:
448,64,3944,1,8,1:0:0:0:
64,64,4349,1,0,1:0:0:0:
448,64,4755,1,8,1:0:0:0:
64,64,5160,1,0,1:0:0:0:
64,64,5363,1,0,1:0:0:0:
448,64,5565,1,8,1:0:0:0:
64,64,5768,1,0,1:0:0:0:
64,64,5971,1,0,1:0:0:0:
448,64,6173,1,8,1:0:0:0:
448,64,6376,1,8,1:0:0:0:
64,64,6579,1,0,1:0:0:0:
448,64,6782,1,8,1:0:0:0:
448,64,6883,1,8,1:0:0:0:
448,64,6984,1,8,1:0:0:0:
448,64,7086,1,8,1:0:0:0:
64,320,8403,1,4,1:0:0:0:
448,320,8809,1,12,1:0:0:0:
64,64,9011,1,0,1:0:0:0:
64,64,9214,1,0,1:0:0:0:
448,64,9417,1,8,1:0:0:0:
64,64,9822,1,0,1:0:0:0:
448,64,10025,1,8,1:0:0:0:
64,64,10228,1,0,1:0:0:0:
448,64,10430,1,8,1:0:0:0:
104,143,10532,1,8,0:0:0:0:
64,64,10633,1,8,1:0:0:0:
448,64,10836,1,0,1:0:0:0:
448,64,11038,1,8,1:0:0:0:
64,64,11241,1,0,1:0:0:0:
64,64,11849,1,0,1:0:0:0:
448,64,12052,1,8,1:0:0:0:
207,233,12255,1,0,0:0:0:0:
448,64,12457,1,8,1:0:0:0:
64,64,12660,1,0,1:0:0:0:
448,64,13065,1,8,1:0:0:0:
87,169,13268,1,0,0:0:0:0:
159,217,13471,1,0,0:0:0:0:
448,320,13673,1,12,1:0:0:0:
64,64,14079,1,0,1:0:0:0:
448,320,14282,1,12,1:0:0:0:
64,64,14890,1,0,1:0:0:0:
448,64,15295,1,8,1:0:0:0:
64,64,15498,1,0,1:0:0:0:
448,320,15700,1,12,1:0:0:0:
64,64,15903,1,0,1:0:0:0:
64,64,16309,1,0,1:0:0:0:
448,64,16511,1,8,1:0:0:0:
448,64,16917,1,8,1:0:0:0:
64,64,17119,1,0,1:0:0:0:
448,64,17322,1,8,1:0:0:0:
64,64,17525,1,0,1:0:0:0:
448,64,17728,1,8,1:0:0:0:
448,64,17829,1,8,1:0:0:0:
448,64,17930,1,8,1:0:0:0:
64,64,18133,1,0,1:0:0:0:
64,64,18336,1,0,1:0:0:0:
448,320,18538,1,12,1:0:0:0:
448,64,18944,1,8,1:0:0:0:
64,320,19146,1,4,1:0:0:0:
64,64,19552,1,0,1:0:0:0:
64,64,19755,1,0,1:0:0:0:
448,320,19957,1,12,1:0:0:0:
64,64,20363,1,0,1:0:0:0:
64,64,20565,1,0,1:0:0:0:
64,64,20768,1,0,1:0:0:0:
64,320,20971,1,12,1:0:0:0:
448,64,21782,1,8,1:0:0:0:
64,64,21984,1,0,1:0:0:0:
448,64,22187,1,8,1:0:0:0:
448,64,22390,1,0,1:0:0:0:
119,180,22491,1,0,0:0:0:0:
361,170,22592,1,0,0:0:0:0:
448,64,22795,1,8,1:0:0:0:
448,64,22998,1,8,1:0:0:0:
64,64,23200,1,0,1:0:0:0:
64,64,23403,1,0,1:0:0:0:
448,64,23809,1,8,1:0:0:0:
64,64,24214,1,0,1:0:0:0:
448,64,25025,1,8,1:0:0:0:
448,64,25228,1,8,1:0:0:0:
64,64,25430,1,0,1:0:0:0:
448,64,25633,1,8,1:0:0:0:
282,198,25734,1,8,0:0:0:0:
339,168,25836,1,8,0:0:0:0:
448,64,26038,1,0,1:0:0:0:
448,64,26241,1,8,1:0:0:0:
109,163,26444,1,0,0:0:0:0:
448,320,26646,1,12,1:0:0:0:
64,64,27052,1,0,1:0:0:0:
128,185,27255,1,0,0:0:0:0:
448,320,27457,1,12,1:0:0:0:
64,64,27660,1,0,1:0:0:0:
64,64,27761,1,0,1:0:0:0:
64,64,27863,1,0,1:0:0:0:
448,320,28268,1,12,1:0:0:0:
64,64,28471,1,0,1:0:0:0:
64,64,28673,1,0,1:0:0:0:
448,64,28876,1,8,1:0:0:0:
294,207,28978,1,8,0:0:0:0:
294,207,29079,1,8,0:0:0:0:
448,64,29282,1,8,1:0:0:0:
448,64,29484,1,8,1:0:0:0:
64,64,29687,1,0,1:0:0:0:
64,64,29890,1,0,1:0:0:0:
448,64,30295,1,8,1:0:0:0:
64,64,30700,1,0,1:0:0:0:
448,320,31511,1,12,1:0:0:0:
64,64,31714,1,0,1:0:0:0:
64,64,31917,1,0,1:0:0:0:
448,64,32119,1,8,1:0:0:0:
332,146,32221,1,8,0:0:0:0:
397,177,32322,1,8,0:0:0:0:
64,64,32525,1,0,1:0:0:0:
64,64,32728,1,8,1:0:0:0:
64,64,32930,1,8,1:0:0:0:
448,320,33133,1,4,1:0:0:0:
448,320,33538,1,12,1:0:0:0:
448,320,33944,1,12,1:0:0:0:
448,320,34755,1,12,1:0:0:0:
64,64,35160,1,0,1:0:0:0:
448,64,35363,1,8,1:0:0:0:
111,179,35464,1,8,0:0:0:0:
64,64,35768,1,0,1:0:0:0:
64,64,36173,1,0,1:0:0:0:
448,64,36376,1,8,1:0:0:0:
64,64,36782,1,0,1:0:0:0:
64,64,36984,1,0,1:0:0:0:
64,64,37086,1,0,1:0:0:0:
448,64,37390,1,8,1:0:0:0:
448,64,37795,1,8,1:0:0:0:
64,64,37998,1,0,1:0:0:0:
64,64,38403,1,0,1:0:0:0:
64,64,38606,1,0,1:0:0:0:
64,64,38707,1,0,1:0:0:0:
64,64,39011,1,0,1:0:0:0:
448,64,39619,1,8,1:0:0:0:
107,173,39822,1,8,0:0:0:0:
448,64,40025,1,8,1:0:0:0:
448,64,40430,1,8,1:0:0:0:
64,64,40633,1,0,1:0:0:0:
448,64,40836,1,8,1:0:0:0:
64,64,41038,1,0,1:0:0:0:
448,320,41241,1,12,1:0:0:0:
448,64,41646,1,8,1:0:0:0:
64,64,41849,1,0,1:0:0:0:
64,64,41950,1,0,1:0:0:0:
448,64,42255,1,8,1:0:0:0:
64,64,42457,1,0,1:0:0:0:
448,64,42660,1,8,1:0:0:0:
448,64,42863,1,8,1:0:0:0:
64,64,43268,1,0,1:0:0:0:
448,64,43471,1,8,1:0:0:0:
448,64,43572,1,8,1:0:0:0:
448,64,43876,1,8,1:0:0:0:
64,64,44282,1,0,1:0:0:0:
448,64,44484,1,8,1:0:0:0:
64,64,44890,1,0,1:0:0:0:
448,64,45295,1,8,1:0:0:0:
64,64,45700,1,0,1:0:0:0:
448,320,46106,1,12,1:0:0:0:
64,64,46511,1,0,1:0:0:0:
448,320,46714,1,12,1:0:0:0:
448,320,47728,1,12,1:0:0:0:
128,292,48336,1,0,0:0:0:0:
175,167,48538,1,0,0:0:0:0:
64,320,48944,1,4,1:0:0:0:
64,64,49349,1,0,1:0:0:0:
64,64,49957,1,0,1:0:0:0:
64,64,50160,1,0,1:0:0:0:
448,64,50565,1,8,1:0:0:0:
64,64,50971,1,0,1:0:0:0:
64,64,51579,1,0,1:0:0:0:
64,64,51782,1,0,1:0:0:0:
64,320,52187,1,4,1:0:0:0:
448,64,52592,1,8,1:0:0:0:
448,64,53200,1,8,1:0:0:0:
213,118,53403,1,0,0:0:0:0:
194,111,53809,1,8,0:0:0:0:
64,320,54214,1,4,1:0:0:0:
448,64,55025,1,8,1:0:0:0:
64,320,55430,1,4,1:0:0:0:
448,64,56241,1,8,1:0:0:0:
64,320,56646,1,4,1:0:0:0:
448,64,57457,1,8,1:0:0:0:
64,64,57862,1,0,1:0:0:0:
448,64,58268,1,8,1:0:0:0:
64,64,58673,1,0,1:0:0:0:
64,64,58876,1,0,1:0:0:0:
448,64,59078,1,8,1:0:0:0:
64,64,59281,1,0,1:0:0:0:
64,64,59484,1,0,1:0:0:0:
448,64,59686,1,8,1:0:0:0:
448,64,59889,1,8,1:0:0:0:
64,64,60092,1,0,1:0:0:0:
448,64,60295,1,8,1:0:0:0:
448,64,60396,1,8,1:0:0:0:
448,64,60497,1,8,1:0:0:0:
448,64,60599,1,8,1:0:0:0:
64,320,61917,5,4,1:0:0:0:
448,320,62322,1,12,1:0:0:0:
64,64,62524,1,0,1:0:0:0:
64,64,62727,1,0,1:0:0:0:
448,64,62930,1,8,1:0:0:0:
64,64,63335,1,0,1:0:0:0:
448,64,63538,1,8,1:0:0:0:
64,64,63741,1,0,1:0:0:0:
448,64,63943,1,8,1:0:0:0:
242,133,64045,1,8,0:0:0:0:
64,64,64146,1,8,1:0:0:0:
448,64,64349,1,0,1:0:0:0:
448,64,64551,1,8,1:0:0:0:
64,64,64754,1,0,1:0:0:0:
64,64,65362,1,0,1:0:0:0:
448,64,65565,1,8,1:0:0:0:
207,233,65768,1,0,0:0:0:0:
448,64,65970,1,8,1:0:0:0:
64,64,66173,1,0,1:0:0:0:
448,64,66578,1,8,1:0:0:0:
87,169,66781,1,0,0:0:0:0:
169,198,66984,1,0,0:0:0:0:
448,320,67186,1,12,1:0:0:0:
64,64,67592,1,0,1:0:0:0:
448,320,67795,1,12,1:0:0:0:
64,64,68403,5,0,1:0:0:0:
448,64,68808,1,8,1:0:0:0:
146,55,69011,1,0,0:0:0:0:
448,320,69214,5,12,1:0:0:0:
138,55,69417,1,0,0:0:0:0:
64,64,69822,1,0,1:0:0:0:
448,64,70025,1,8,1:0:0:0:
119,154,70228,1,0,0:0:0:0:
448,64,70430,1,8,1:0:0:0:
161,127,70532,1,8,0:0:0:0:
448,64,70633,1,8,1:0:0:0:
64,64,70836,1,0,1:0:0:0:
64,64,71038,1,0,1:0:0:0:
448,64,71241,1,8,1:0:0:0:
64,64,71849,1,0,1:0:0:0:
448,64,72052,1,8,1:0:0:0:
64,64,72255,1,0,1:0:0:0:
64,64,72457,1,0,1:0:0:0:
448,64,72660,1,8,1:0:0:0:
448,64,73065,1,8,1:0:0:0:
64,64,73268,1,0,1:0:0:0:
448,320,73471,1,12,1:0:0:0:
64,64,73876,1,0,1:0:0:0:
64,64,73978,1,0,1:0:0:0:
64,64,74079,1,0,1:0:0:0:
448,320,74484,1,12,1:0:0:0:
448,320,74687,1,12,1:0:0:0:
448,320,74890,1,12,1:0:0:0:
448,64,75295,1,12,1:0:0:0:
64,64,75498,1,0,1:0:0:0:
64,64,75700,1,0,1:0:0:0:
448,64,75903,1,8,1:0:0:0:
64,64,76309,1,0,1:0:0:0:
448,64,76511,1,8,1:0:0:0:
64,64,76714,1,0,1:0:0:0:
448,64,76917,1,8,1:0:0:0:
206,132,77018,1,8,0:0:0:0:
448,64,77119,1,8,1:0:0:0:
64,64,77322,1,0,1:0:0:0:
64,64,77525,1,0,1:0:0:0:
448,64,77728,1,8,1:0:0:0:
64,64,78336,1,0,1:0:0:0:
448,64,78538,1,8,1:0:0:0:
448,64,78741,1,8,1:0:0:0:
64,64,78944,1,0,1:0:0:0:
448,64,79146,1,8,1:0:0:0:
448,64,79248,1,8,1:0:0:0:
448,64,79349,1,8,1:0:0:0:
64,64,79552,1,0,1:0:0:0:
448,64,79755,1,8,1:0:0:0:
64,64,79957,1,0,1:0:0:0:
448,320,80160,1,12,1:0:0:0:
64,64,80565,1,0,1:0:0:0:
448,320,80768,1,12,1:0:0:0:
448,64,81173,1,8,1:0:0:0:
448,64,81275,1,8,1:0:0:0:
448,64,81376,1,8,1:0:0:0:
64,64,81782,1,0,1:0:0:0:
64,64,81984,1,0,1:0:0:0:
448,320,82187,1,12,1:0:0:0:
64,64,82390,1,0,1:0:0:0:
448,64,82795,1,8,1:0:0:0:
64,64,82998,1,0,1:0:0:0:
180,295,83200,1,0,0:0:0:0:
448,64,83403,1,8,1:0:0:0:
448,64,83505,1,8,1:0:0:0:
448,64,83606,1,8,1:0:0:0:
64,64,83809,1,0,1:0:0:0:
64,64,84011,1,0,1:0:0:0:
448,64,84214,1,8,1:0:0:0:
64,64,84822,1,0,1:0:0:0:
448,320,85025,1,12,1:0:0:0:
448,64,85430,1,8,1:0:0:0:
64,320,85633,1,4,1:0:0:0:
64,64,86038,1,0,1:0:0:0:
64,64,86241,1,0,1:0:0:0:
448,320,86444,1,12,1:0:0:0:
64,64,86849,1,12,1:0:0:0:
64,64,87052,1,4,1:0:0:0:
64,64,87255,1,4,1:0:0:0:
448,64,87457,1,12,1:0:0:0:
