osu file format v14

[General]
AudioFilename: audio.mp3
AudioLeadIn: 0
PreviewTime:62322
Countdown: 0
SampleSet: Normal
StackLeniency: 0.7
Mode: 1
LetterboxInBreaks: 0
WidescreenStoryboard: 1

[Editor]
DistanceSpacing: 1.2
BeatDivisor: 1
GridSize: 32
TimelineZoom: 1.6

[Metadata]
Title:Friend Shitai (TV Size)
TitleUnicode:ふ・れ・ん・ど・し・た・い (TV Size)
Artist:Gakuen Seikatsu-bu
ArtistUnicode:学園生活部
Creator:maxie
Version:Kantan
Source:がっこうぐらし!
Tags:SCHOOL-LIVE! Anime Japanese Gakkou Gurashi! GNCA-0363 GNCA-0364 丈槍由紀 Takeya Yuki 水瀬いのり Minase Inori 恵飛須沢胡桃 Ebisuzawa Kurumi 小澤亜李 Ozawa Ari 若狭悠里 Wakasa Yuuri M.A.O M・A・O M・A・O Ichimichi Mao 直樹美紀 Naoki Miki 高橋李依 Takahashi Rie op opening jpop pop j-pop
BeatmapID:4069889
BeatmapSetID:1952397

[Difficulty]
HPDrainRate:9
CircleSize:5
OverallDifficulty:3
ApproachRate:5
SliderMultiplier:1.4
SliderTickRate:1

[Events]
//Background and Video events
0,0,"AZ6lzHI.jpg",0,35
Video,0,"output.mp4"
//Break Periods
//Storyboard Layer 0 (Background)
//Storyboard Layer 1 (Fail)
//Storyboard Layer 2 (Pass)
//Storyboard Layer 3 (Foreground)
//Storyboard Layer 4 (Overlay)
//Storyboard Sound Samples

[TimingPoints]
701,405.405405405405,4,1,0,55,1,0
8804,-100,4,1,0,70,0,0
8809,-100,4,1,0,70,0,1
20966,-100,4,1,0,60,0,1
20971,-100,4,1,0,60,0,0
34750,-100,4,1,0,55,0,0
62317,-100,4,1,0,70,0,0
62322,-100,4,1,0,70,0,1
87452,-100,4,1,0,55,0,1
87457,-100,4,1,0,55,0,0

[HitObjects]
448,64,701,5,8,1:0:0:0:
64,64,1511,1,0,1:0:0:0:
448,64,2322,1,8,1:0:0:0:
64,64,3133,1,0,1:0:0:0:
448,64,3944,1,8,1:0:0:0:
448,64,4755,1,8,1:0:0:0:
448,64,5565,1,8,1:0:0:0:
149,171,5971,1,0,0:0:0:0:
448,64,6376,1,8,1:0:0:0:
138,196,6782,1,8,0:0:0:0:
64,320,8403,1,4,1:0:0:0:
448,320,8809,1,12,1:0:0:0:
64,64,9417,1,0,1:0:0:0:
64,64,10025,1,0,1:0:0:0:
448,64,10430,1,8,1:0:0:0:
164,151,10836,1,0,0:0:0:0:
64,64,11241,1,0,1:0:0:0:
448,64,12052,1,8,1:0:0:0:
448,64,12660,1,0,1:0:0:0:
448,320,13673,1,12,1:0:0:0:
448,320,14282,1,12,1:0:0:0:
64,64,14890,1,0,1:0:0:0:
448,64,15295,1,8,1:0:0:0:
448,320,15700,1,12,1:0:0:0:
150,196,16511,1,0,0:0:0:0:
448,64,16917,1,8,1:0:0:0:
64,64,17322,1,0,1:0:0:0:
448,64,17728,1,8,1:0:0:0:
448,320,18538,1,12,1:0:0:0:
223,134,19146,1,4,0:0:0:0:
448,320,19957,1,12,1:0:0:0:
64,64,20363,1,0,1:0:0:0:
64,320,20971,1,12,1:0:0:0:
448,64,21782,1,8,1:0:0:0:
448,64,22187,1,8,1:0:0:0:
64,64,23403,1,0,1:0:0:0:
448,64,23809,1,8,1:0:0:0:
64,64,24214,1,0,1:0:0:0:
448,64,25025,1,8,1:0:0:0:
64,64,25430,1,0,1:0:0:0:
448,320,26646,1,12,1:0:0:0:
448,320,27457,1,12,1:0:0:0:
448,320,28268,1,12,1:0:0:0:
64,64,28673,1,0,1:0:0:0:
64,64,29890,1,0,1:0:0:0:
448,64,30295,1,8,1:0:0:0:
64,64,30700,1,0,1:0:0:0:
448,320,31511,1,12,1:0:0:0:
137,158,31917,1,8,0:0:0:0:
448,320,33133,1,4,1:0:0:0:
448,320,33538,1,12,1:0:0:0:
448,320,33944,1,12,1:0:0:0:
448,320,34755,1,12,1:0:0:0:
64,64,35160,1,0,1:0:0:0:
147,241,35971,1,0,0:0:0:0:
448,64,36376,1,8,1:0:0:0:
64,64,36782,1,0,1:0:0:0:
448,64,37592,1,8,1:0:0:0:
123,240,37998,1,0,0:0:0:0:
64,64,38403,1,0,1:0:0:0:
448,64,39619,1,8,1:0:0:0:
135,102,40025,1,0,0:0:0:0:
180,60,40430,1,8,0:0:0:0:
448,320,41241,1,12,1:0:0:0:
448,64,41646,1,8,1:0:0:0:
130,60,42457,1,8,0:0:0:0:
64,64,42863,1,0,1:0:0:0:
130,60,43268,1,0,0:0:0:0:
64,64,44079,1,0,1:0:0:0:
448,64,44484,1,8,1:0:0:0:
448,64,45295,1,8,1:0:0:0:
448,320,46106,1,12,1:0:0:0:
448,320,46714,1,12,1:0:0:0:
448,320,47728,1,12,1:0:0:0:
64,320,48944,1,4,1:0:0:0:
64,64,49349,1,0,1:0:0:0:
448,64,50565,1,8,1:0:0:0:
64,64,50971,1,0,1:0:0:0:
64,320,52187,1,4,1:0:0:0:
448,64,52592,1,8,1:0:0:0:
64,64,53809,1,8,1:0:0:0:
64,320,54214,1,4,1:0:0:0:
448,64,55025,1,8,1:0:0:0:
64,320,55430,1,4,1:0:0:0:
448,64,56241,1,8,1:0:0:0:
64,320,56646,1,4,1:0:0:0:
448,64,57457,1,8,1:0:0:0:
448,64,58268,1,8,1:0:0:0:
448,64,59079,1,8,1:0:0:0:
100,117,59484,1,0,0:0:0:0:
448,64,59890,1,8,1:0:0:0:
147,154,60295,1,8,0:0:0:0:
64,320,61917,1,4,1:0:0:0:
448,320,62322,1,12,1:0:0:0:
64,64,62930,1,0,1:0:0:0:
123,206,63538,1,0,0:0:0:0:
448,64,63944,1,8,1:0:0:0:
448,64,64349,1,8,1:0:0:0:
64,64,64755,1,0,1:0:0:0:
64,64,65565,1,0,1:0:0:0:
448,64,66173,1,0,1:0:0:0:
448,320,67187,1,12,1:0:0:0:
448,320,67795,1,12,1:0:0:0:
64,64,68809,1,0,1:0:0:0:
448,320,69214,1,12,1:0:0:0:
448,64,70025,1,8,1:0:0:0:
448,64,70430,1,8,1:0:0:0:
64,64,70836,1,0,1:0:0:0:
448,64,71241,1,8,1:0:0:0:
448,64,72052,1,8,1:0:0:0:
448,64,72660,1,0,1:0:0:0:
448,320,73471,1,12,1:0:0:0:
81,146,74484,1,12,0:0:0:0:
144,203,74890,1,12,0:0:0:0:
448,64,75295,1,12,1:0:0:0:
64,64,75903,1,0,1:0:0:0:
225,137,76511,1,0,0:0:0:0:
448,64,76917,1,8,1:0:0:0:
64,64,77322,1,0,1:0:0:0:
448,64,77728,1,8,1:0:0:0:
448,64,78538,1,8,1:0:0:0:
64,64,79146,1,0,1:0:0:0:
448,320,80160,1,12,1:0:0:0:
448,320,80768,1,12,1:0:0:0:
64,64,81782,1,0,1:0:0:0:
448,320,82187,1,12,1:0:0:0:
76,172,82998,1,0,0:0:0:0:
448,64,83403,1,8,1:0:0:0:
64,64,83809,1,0,1:0:0:0:
448,64,84214,1,8,1:0:0:0:
448,320,85025,1,12,1:0:0:0:
64,320,85633,1,4,1:0:0:0:
448,320,86444,1,12,1:0:0:0:
64,64,86849,1,4,1:0:0:0:
448,64,87457,1,12,1:0:0:0:
